  0
SECTION
  2
HEADER
  9
$ACADVER
  1
AC1021
  9
$ACADMAINTVER
 70
    25
  9
$DWGCODEPAGE
  3
ANSI_1252
  9
$INSBASE
 10
0.0
 20
0.0
 30
0.0
  9
$EXTMIN
 10
0.0
 20
0.0
 30
0.0
  9
$EXTMAX
 10
297.0
 20
210.0
 30
0.0
  9
$LIMMIN
 10
0.0
 20
0.0
  9
$LIMMAX
 10
297.0
 20
210.0
  9
$ORTHOMODE
 70
     0
  9
$REGENMODE
 70
     1
  9
$FILLMODE
 70
     1
  9
$QTEXTMODE
 70
     0
  9
$MIRRTEXT
 70
     1
  9
$LTSCALE
 40
1.0
  9
$ATTMODE
 70
     1
  9
$TEXTSIZE
 40
3.5
  9
$TRACEWID
 40
1.0
  9
$TEXTSTYLE
  7
Standard
  9
$CLAYER
  8
0
  9
$CELTYPE
  6
ByLayer
  9
$CECOLOR
 62
   256
  9
$CELTSCALE
 40
1.0
  9
$DISPSILH
 70
     0
  9
$DIMSCALE
 40
1.0
  9
$DIMASZ
 40
3.302
  9
$DIMEXO
 40
1.0
  9
$DIMDLI
 40
3.75
  9
$DIMRND
 40
0.0
  9
$DIMDLE
 40
0.0
  9
$DIMEXE
 40
1.0
  9
$DIMTP
 40
0.0
  9
$DIMTM
 40
0.0
  9
$DIMTXT
 40
3.5
  9
$DIMCEN
 40
2.5
  9
$DIMTSZ
 40
0.0
  9
$DIMTOL
 70
     0
  9
$DIMLIM
 70
     0
  9
$DIMTIH
 70
     1
  9
$DIMTOH
 70
     1
  9
$DIMSE1
 70
     0
  9
$DIMSE2
 70
     0
  9
$DIMTAD
 70
     1
  9
$DIMZIN
 70
     0
  9
$DIMBLK
  1

  9
$DIMASO
 70
     1
  9
$DIMSHO
 70
     1
  9
$DIMPOST
  1

  9
$DIMAPOST
  1

  9
$DIMALT
 70
     0
  9
$DIMALTD
 70
     3
  9
$DIMALTF
 40
0.0393700787
  9
$DIMLFAC
 40
1.0
  9
$DIMTOFL
 70
     1
  9
$DIMTVP
 40
0.0
  9
$DIMTIX
 70
     0
  9
$DIMSOXD
 70
     0
  9
$DIMSAH
 70
     0
  9
$DIMBLK1
  1

  9
$DIMBLK2
  1

  9
$DIMSTYLE
  2
ISO-25
  9
$DIMCLRD
 70
     0
  9
$DIMCLRE
 70
     0
  9
$DIMCLRT
 70
     0
  9
$DIMTFAC
 40
1.0
  9
$DIMGAP
 40
1.524
  9
$DIMJUST
 70
     0
  9
$DIMSD1
 70
     0
  9
$DIMSD2
 70
     0
  9
$DIMTOLJ
 70
     0
  9
$DIMTZIN
 70
     0
  9
$DIMALTZ
 70
     0
  9
$DIMALTTZ
 70
     0
  9
$DIMUPT
 70
     0
  9
$DIMDEC
 70
     2
  9
$DIMTDEC
 70
     2
  9
$DIMALTU
 70
     2
  9
$DIMALTTD
 70
     3
  9
$DIMTXSTY
  7
Standard
  9
$DIMAUNIT
 70
     0
  9
$DIMADEC
 70
     2
  9
$DIMALTRND
 40
0.0
  9
$DIMAZIN
 70
     0
  9
$DIMDSEP
 70
    44
  9
$DIMATFIT
 70
     3
  9
$DIMFRAC
 70
     0
  9
$DIMLDRBLK
  1

  9
$DIMLUNIT
 70
     2
  9
$DIMLWD
 70
    -2
  9
$DIMLWE
 70
    -2
  9
$DIMTMOVE
 70
     0
  9
$DIMFXL
 40
1.0
  9
$DIMFXLON
 70
     0
  9
$DIMJOGANG
 40
0.7853981634
  9
$DIMTFILL
 70
     0
  9
$DIMTFILLCLR
 70
     0
  9
$DIMARCSYM
 70
     0
  9
$DIMLTYPE
  6

  9
$DIMLTEX1
  6

  9
$DIMLTEX2
  6

  9
$LUNITS
 70
     2
  9
$LUPREC
 70
     2
  9
$SKETCHINC
 40
1.0
  9
$FILLETRAD
 40
10.0
  9
$AUNITS
 70
     0
  9
$AUPREC
 70
     2
  9
$MENU
  1
.
  9
$ELEVATION
 40
0.0
  9
$PELEVATION
 40
0.0
  9
$THICKNESS
 40
0.0
  9
$LIMCHECK
 70
     0
  9
$CHAMFERA
 40
10.0
  9
$CHAMFERB
 40
10.0
  9
$CHAMFERC
 40
20.0
  9
$CHAMFERD
 40
0.0
  9
$SKPOLY
 70
     0
  9
$TDCREATE
 40
2456608.577381655
  9
$TDUCREATE
 40
2456608.535714989
  9
$TDUPDATE
 40
2456608.57738206
  9
$TDUUPDATE
 40
2456608.535715394
  9
$TDINDWG
 40
0.0000000116
  9
$TDUSRTIMER
 40
0.0000000116
  9
$USRTIMER
 70
     1
  9
$ANGBASE
 50
0.0
  9
$ANGDIR
 70
     0
  9
$PDMODE
 70
     0
  9
$PDSIZE
 40
-1.0
  9
$PLINEWID
 40
0.0
  9
$SPLFRAME
 70
     0
  9
$SPLINETYPE
 70
     6
  9
$SPLINESEGS
 70
     8
  9
$HANDSEED
  5
11A
  9
$SURFTAB1
 70
     6
  9
$SURFTAB2
 70
     6
  9
$SURFTYPE
 70
     6
  9
$SURFU
 70
     6
  9
$SURFV
 70
     6
  9
$UCSBASE
  2

  9
$UCSNAME
  2

  9
$UCSORG
 10
0.0
 20
0.0
 30
0.0
  9
$UCSXDIR
 10
1.0
 20
0.0
 30
0.0
  9
$UCSYDIR
 10
0.0
 20
1.0
 30
0.0
  9
$UCSORTHOREF
  2

  9
$UCSORTHOVIEW
 70
     0
  9
$UCSORGTOP
 10
0.0
 20
0.0
 30
0.0
  9
$UCSORGBOTTOM
 10
0.0
 20
0.0
 30
0.0
  9
$UCSORGLEFT
 10
0.0
 20
0.0
 30
0.0
  9
$UCSORGRIGHT
 10
0.0
 20
0.0
 30
0.0
  9
$UCSORGFRONT
 10
0.0
 20
0.0
 30
0.0
  9
$UCSORGBACK
 10
0.0
 20
0.0
 30
0.0
  9
$PUCSBASE
  2

  9
$PUCSNAME
  2

  9
$PUCSORG
 10
0.0
 20
0.0
 30
0.0
  9
$PUCSXDIR
 10
1.0
 20
0.0
 30
0.0
  9
$PUCSYDIR
 10
0.0
 20
1.0
 30
0.0
  9
$PUCSORTHOREF
  2

  9
$PUCSORTHOVIEW
 70
     0
  9
$PUCSORGTOP
 10
0.0
 20
0.0
 30
0.0
  9
$PUCSORGBOTTOM
 10
0.0
 20
0.0
 30
0.0
  9
$PUCSORGLEFT
 10
0.0
 20
0.0
 30
0.0
  9
$PUCSORGRIGHT
 10
0.0
 20
0.0
 30
0.0
  9
$PUCSORGFRONT
 10
0.0
 20
0.0
 30
0.0
  9
$PUCSORGBACK
 10
0.0
 20
0.0
 30
0.0
  9
$USERI1
 70
     0
  9
$USERI2
 70
     0
  9
$USERI3
 70
     0
  9
$USERI4
 70
     0
  9
$USERI5
 70
     0
  9
$USERR1
 40
0.0
  9
$USERR2
 40
0.0
  9
$USERR3
 40
0.0
  9
$USERR4
 40
0.0
  9
$USERR5
 40
0.0
  9
$WORLDVIEW
 70
     1
  9
$SHADEDGE
 70
     3
  9
$SHADEDIF
 70
    70
  9
$TILEMODE
 70
     1
  9
$MAXACTVP
 70
    64
  9
$PINSBASE
 10
0.0
 20
0.0
 30
0.0
  9
$PLIMCHECK
 70
     0
  9
$PEXTMIN
 10
1.0000000000E+20
 20
1.0000000000E+20
 30
1.0000000000E+20
  9
$PEXTMAX
 10
-1.0000000000E+20
 20
-1.0000000000E+20
 30
-1.0000000000E+20
  9
$PLIMMIN
 10
0.0
 20
0.0
  9
$PLIMMAX
 10
420.0
 20
297.0
  9
$UNITMODE
 70
     0
  9
$VISRETAIN
 70
     1
  9
$PLINEGEN
 70
     0
  9
$PSLTSCALE
 70
     1
  9
$TREEDEPTH
 70
  3020
  9
$CMLSTYLE
  2
Standard
  9
$CMLJUST
 70
     0
  9
$CMLSCALE
 40
20.0
  9
$PROXYGRAPHICS
 70
     1
  9
$MEASUREMENT
 70
     1
  9
$CELWEIGHT
370
    -1
  9
$ENDCAPS
280
     0
  9
$JOINSTYLE
280
     0
  9
$LWDISPLAY
290
     1
  9
$INSUNITS
 70
     4
  9
$HYPERLINKBASE
  1

  9
$STYLESHEET
  1

  9
$XEDIT
290
     1
  9
$CEPSNTYPE
380
     0
  9
$PSTYLEMODE
290
     1
  9
$FINGERPRINTGUID
  2
{BBF4FDD5-6492-4E22-86B5-6C6D43F908E8}
  9
$VERSIONGUID
  2
{FAEB1C32-E019-11D5-929B-00C0DF256EC4}
  9
$EXTNAMES
290
     1
  9
$PSVPSCALE
 40
0.0
  9
$OLESTARTUP
290
     0
  9
$SORTENTS
280
   127
  9
$INDEXCTL
280
     0
  9
$HIDETEXT
280
     1
  9
$XCLIPFRAME
290
     0
  9
$HALOGAP
280
     0
  9
$OBSCOLOR
 70
   257
  9
$OBSLTYPE
280
     0
  9
$INTERSECTIONDISPLAY
280
     0
  9
$INTERSECTIONCOLOR
 70
   257
  9
$DIMASSOC
280
     2
  9
$PROJECTNAME
  1

  9
$CAMERADISPLAY
290
     0
  9
$LENSLENGTH
 40
50.0
  9
$CAMERAHEIGHT
 40
0.0
  9
$STEPSPERSEC
 40
2.0
  9
$STEPSIZE
 40
6.0
  9
$3DDWFPREC
 40
2.0
  9
$PSOLWIDTH
 40
5.0
  9
$PSOLHEIGHT
 40
80.0
  9
$LOFTANG1
 40
1.5707963268
  9
$LOFTANG2
 40
1.5707963268
  9
$LOFTMAG1
 40
0.0
  9
$LOFTMAG2
 40
0.0
  9
$LOFTPARAM
 70
     7
  9
$LOFTNORMALS
280
     1
  9
$LATITUDE
 40
37.795
  9
$LONGITUDE
 40
-122.394
  9
$NORTHDIRECTION
 40
0.0
  9
$TIMEZONE
 70
 -8000
  9
$LIGHTGLYPHDISPLAY
280
     1
  9
$TILEMODELIGHTSYNCH
280
     1
  9
$SOLIDHIST
280
     1
  9
$SHOWHIST
280
     1
  9
$DWFFRAME
280
     2
  9
$DGNFRAME
280
     2
  9
$REALWORLDSCALE
290
     1
  9
$INTERFERECOLOR
 62
   256
  9
$CSHADOW
280
     0
  9
$SHADOWPLANELOCATION
 40
0.0
  0
ENDSEC
  0
SECTION
  2
CLASSES
  0
CLASS
  1
ACDBDICTIONARYWDFLT
  2
AcDbDictionaryWithDefault
  3
ObjectDBX Classes
 90
        0
 91
        4
280
     0
281
     0
  0
CLASS
  1
VISUALSTYLE
  2
AcDbVisualStyle
  3
ObjectDBX Classes
 90
     4095
 91
        4
280
     0
281
     0
  0
CLASS
  1
MATERIAL
  2
AcDbMaterial
  3
ObjectDBX Classes
 90
     1153
 91
        4
280
     0
281
     0
  0
ENDSEC
  0
SECTION
  2
TABLES
  0
TABLE
  2
VPORT
  5
8
330
0
100
AcDbSymbolTable
 70
     1
  0
VPORT
  5
29
330
8
100
AcDbSymbolTableRecord
100
AcDbViewportTableRecord
  2
*Active
 70
     0
 10
0.0
 20
0.0
 11
1.0
 21
1.0
 12
148.5
 22
105.0
 13
0.0
 23
0.0
 14
10.0
 24
10.0
 15
10.0
 25
10.0
 16
0.0
 26
0.0
 36
1.0
 17
0.0
 27
0.0
 37
0.0
 40
210.0
 41
1.4142857143
 42
50.0
 43
0.0
 44
0.0
 50
0.0
 51
0.0
 71
     0
 72
  2000
 73
     1
 74
     3
 75
     0
 76
     0
 77
     0
 78
     0
281
     0
 65
     1
110
0.0
120
0.0
130
0.0
111
1.0
121
0.0
131
0.0
112
0.0
122
1.0
132
0.0
 79
     0
146
0.0
 60
     3
 61
     5
292
     1
282
     1
141
0.0
142
0.0
 63
   250
  0
ENDTAB
  0
TABLE
  2
LTYPE
  5
5
330
0
100
AcDbSymbolTable
 70
     8
  0
LTYPE
  5
14
330
5
100
AcDbSymbolTableRecord
100
AcDbLinetypeTableRecord
  2
ByBlock
 70
     0
  3

 72
    65
 73
     0
 40
0.0
  0
LTYPE
  5
15
330
5
100
AcDbSymbolTableRecord
100
AcDbLinetypeTableRecord
  2
ByLayer
 70
     0
  3

 72
    65
 73
     0
 40
0.0
  0
LTYPE
  5
16
330
5
100
AcDbSymbolTableRecord
100
AcDbLinetypeTableRecord
  2
Continuous
 70
     0
  3
Solid line
 72
    65
 73
     0
 40
0.0
  0
LTYPE
  5
3F
330
5
100
AcDbSymbolTableRecord
100
AcDbLinetypeTableRecord
  2
SLD-Durchgehend
 70
     0
  3
SolidWorks Line Style
 72
    65
 73
     0
 40
0.0
  0
LTYPE
  5
40
330
5
100
AcDbSymbolTableRecord
100
AcDbLinetypeTableRecord
  2
SLD-Gestrichelt
 70
     0
  3
SolidWorks Line Style
 72
    65
 73
     2
 40
1.905
 49
1.27
 74
     0
 49
-0.635
 74
     0
  0
LTYPE
  5
41
330
5
100
AcDbSymbolTableRecord
100
AcDbLinetypeTableRecord
  2
SLD-Phantom
 70
     0
  3
SolidWorks Line Style
 72
    65
 73
     6
 40
12.7
 49
6.35
 74
     0
 49
-1.27
 74
     0
 49
1.27
 74
     0
 49
-1.27
 74
     0
 49
1.27
 74
     0
 49
-1.27
 74
     0
  0
LTYPE
  5
42
330
5
100
AcDbSymbolTableRecord
100
AcDbLinetypeTableRecord
  2
SLD-Kette
 70
     0
  3
SolidWorks Line Style
 72
    65
 73
     4
 40
10.16
 49
6.35
 74
     0
 49
-1.27
 74
     0
 49
1.27
 74
     0
 49
-1.27
 74
     0
  0
LTYPE
  5
43
330
5
100
AcDbSymbolTableRecord
100
AcDbLinetypeTableRecord
  2
SLD-Punktstrich
 70
     0
  3
SolidWorks Line Style
 72
    65
 73
     4
 40
19.05
 49
15.24
 74
     0
 49
-1.27
 74
     0
 49
1.27
 74
     0
 49
-1.27
 74
     0
  0
LTYPE
  5
44
330
5
100
AcDbSymbolTableRecord
100
AcDbLinetypeTableRecord
  2
SLD-Naht
 70
     0
  3
SolidWorks Line Style
 72
    65
 73
     2
 40
0.635
 49
0.0
 74
     0
 49
-0.635
 74
     0
  0
LTYPE
  5
45
330
5
100
AcDbSymbolTableRecord
100
AcDbLinetypeTableRecord
  2
SLD-Dicke-Dünne-Kette
 70
     0
  3
SolidWorks Line Style
 72
    65
 73
     4
 40
10.16
 49
6.35
 74
     0
 49
-1.27
 74
     0
 49
1.27
 74
     0
 49
-1.27
 74
     0
  0
ENDTAB
  0
TABLE
  2
LAYER
  5
2
330
0
100
AcDbSymbolTable
 70
     3
  0
LAYER
  5
10
330
2
100
AcDbSymbolTableRecord
100
AcDbLayerTableRecord
  2
0
 70
     0
 62
     7
  6
Continuous
370
    -3
390
F
347
3E
  0
LAYER
  5
46
330
2
100
AcDbSymbolTableRecord
100
AcDbLayerTableRecord
  2
1
 70
     0
 62
     4
  6
Continuous
370
    -1
390
F
347
3E
  0
LAYER
  5
47
330
2
100
AcDbSymbolTableRecord
100
AcDbLayerTableRecord
  2
2
 70
     0
 62
     7
  6
SLD-Durchgehend
370
    -3
390
F
347
3E
  0
ENDTAB
  0
TABLE
  2
STYLE
  5
3
330
0
100
AcDbSymbolTable
 70
     2
  0
STYLE
  5
11
330
3
100
AcDbSymbolTableRecord
100
AcDbTextStyleTableRecord
  2
Standard
 70
     0
 40
0.0
 41
1.0
 50
0.0
 71
     0
 42
3.5
  3
txt
  4

  0
STYLE
  5
7F
330
3
100
AcDbSymbolTableRecord
100
AcDbTextStyleTableRecord
  2
SLDTEXTSTYLE0
 70
     0
 40
0.0
 41
0.75
 50
0.0
 71
     0
 42
0.2
  3
TXT
  4

  0
ENDTAB
  0
TABLE
  2
VIEW
  5
6
330
0
100
AcDbSymbolTable
 70
     0
  0
ENDTAB
  0
TABLE
  2
UCS
  5
7
330
0
100
AcDbSymbolTable
 70
     0
  0
ENDTAB
  0
TABLE
  2
APPID
  5
9
330
0
100
AcDbSymbolTable
 70
     1
  0
APPID
  5
12
330
9
100
AcDbSymbolTableRecord
100
AcDbRegAppTableRecord
  2
ACAD
 70
     0
  0
ENDTAB
  0
TABLE
  2
DIMSTYLE
  5
A
330
0
100
AcDbSymbolTable
 70
     4
100
AcDbDimStyleTable
  0
DIMSTYLE
105
27
330
A
100
AcDbSymbolTableRecord
100
AcDbDimStyleTableRecord
  2
ISO-25
 70
     0
 41
2.5
 42
0.625
 43
3.75
 44
1.25
 73
     0
 74
     0
 77
     1
 78
     8
140
2.5
141
2.5
143
0.0393700787
147
0.625
171
     3
172
     1
178
     0
271
     2
272
     2
274
     3
278
    44
283
     0
284
     8
340
11
  0
DIMSTYLE
105
80
102
{ACAD_REACTORS
330
7E
102
}
330
A
100
AcDbSymbolTableRecord
100
AcDbDimStyleTableRecord
  2
SLDDIMSTYLE0
 70
     0
 41
3.302
 44
0.0
 45
0.000000001
 73
     0
 74
     0
 77
     1
 78
    12
 79
     3
140
3.5
147
0.875
173
     1
178
     0
271
     2
272
     2
276
     2
284
    12
340
7F
  0
DIMSTYLE
105
8D
102
{ACAD_REACTORS
330
8C
330
10C
102
}
330
A
100
AcDbSymbolTableRecord
100
AcDbDimStyleTableRecord
  2
SLDDIMSTYLE1
 70
     0
 41
3.302
 44
0.0
 45
0.000000001
 73
     0
 74
     0
 77
     1
 78
    12
 79
     3
140
3.5
147
0.875
172
     1
173
     1
178
     0
271
     2
272
     2
276
     2
284
    12
289
     0
340
7F
  0
DIMSTYLE
105
104
102
{ACAD_REACTORS
330
103
102
}
330
A
100
AcDbSymbolTableRecord
100
AcDbDimStyleTableRecord
  2
SLDDIMSTYLE2
 70
     0
 41
3.302
 44
0.0
 45
0.000000001
 73
     0
 74
     0
 77
     1
 78
    12
 79
     3
140
3.5
141
0.0
147
0.875
173
     1
178
     0
271
     2
272
     2
276
     2
284
    12
340
7F
  0
ENDTAB
  0
TABLE
  2
BLOCK_RECORD
  5
1
330
0
100
AcDbSymbolTable
 70
     5
  0
BLOCK_RECORD
  5
1F
330
1
100
AcDbSymbolTableRecord
100
AcDbBlockTableRecord
  2
*Model_Space
340
22
 70
     0
280
     1
281
     0
  0
BLOCK_RECORD
  5
1B
330
1
100
AcDbSymbolTableRecord
100
AcDbBlockTableRecord
  2
*Paper_Space
340
1E
 70
     0
280
     1
281
     0
  0
BLOCK_RECORD
  5
23
330
1
100
AcDbSymbolTableRecord
100
AcDbBlockTableRecord
  2
*Paper_Space0
340
26
 70
     0
280
     1
281
     0
  0
BLOCK_RECORD
  5
81
330
1
100
AcDbSymbolTableRecord
100
AcDbBlockTableRecord
  2
_D
340
0
 70
     0
280
     1
281
     0
  0
BLOCK_RECORD
  5
8E
330
1
100
AcDbSymbolTableRecord
100
AcDbBlockTableRecord
  2
_D_1
340
0
 70
     0
280
     1
281
     0
  0
BLOCK_RECORD
  5
105
330
1
100
AcDbSymbolTableRecord
100
AcDbBlockTableRecord
  2
_D_2
340
0
 70
     0
280
     1
281
     0
  0
BLOCK_RECORD
  5
10D
330
1
100
AcDbSymbolTableRecord
100
AcDbBlockTableRecord
  2
_D_3
340
0
 70
     0
280
     1
281
     0
  0
ENDTAB
  0
ENDSEC
  0
SECTION
  2
BLOCKS
  0
BLOCK
  5
20
330
1F
100
AcDbEntity
  8
0
100
AcDbBlockBegin
  2
*Model_Space
 70
     0
 10
0.0
 20
0.0
 30
0.0
  3
*Model_Space
  1

  0
ENDBLK
  5
21
330
1F
100
AcDbEntity
  8
0
100
AcDbBlockEnd
  0
BLOCK
  5
1C
330
1B
100
AcDbEntity
 67
     1
  8
0
100
AcDbBlockBegin
  2
*Paper_Space
 70
     0
 10
0.0
 20
0.0
 30
0.0
  3
*Paper_Space
  1

  0
ENDBLK
  5
1D
330
1B
100
AcDbEntity
 67
     1
  8
0
100
AcDbBlockEnd
  0
BLOCK
  5
24
330
23
100
AcDbEntity
  8
0
100
AcDbBlockBegin
  2
*Paper_Space0
 70
     0
 10
0.0
 20
0.0
 30
0.0
  3
*Paper_Space0
  1

  0
ENDBLK
  5
25
330
23
100
AcDbEntity
  8
0
100
AcDbBlockEnd
  0
BLOCK
  5
82
330
81
100
AcDbEntity
  8
0
100
AcDbBlockBegin
  2
_D
 70
     0
 10
0.0
 20
0.0
 30
0.0
  3
_D
  1

  0
SOLID
  5
84
330
81
100
AcDbEntity
  8
2
 62
     7
420
 16777215
100
AcDbTrace
 10
136.6025816956
 20
79.8480462045
 30
0.0
 11
139.9045816956
 21
79.3400462045
 31
0.0
 12
139.9045816956
 22
80.3560462045
 32
0.0
 13
139.9045816956
 23
80.3560462045
 33
0.0
  0
SOLID
  5
85
330
81
100
AcDbEntity
  8
2
 62
     7
420
 16777215
100
AcDbTrace
 10
149.8025816956
 20
79.8480462045
 30
0.0
 11
146.5005816956
 21
80.3560462045
 31
0.0
 12
146.5005816956
 22
79.3400462045
 32
0.0
 13
146.5005816956
 23
79.3400462045
 33
0.0
  0
LINE
  5
86
330
81
100
AcDbEntity
  8
2
 62
     7
420
 16777215
100
AcDbLine
 10
136.6025816956
 20
96.8467952703
 30
0.0
 11
136.6025816956
 21
78.8480462045
 31
0.0
  0
LINE
  5
87
330
81
100
AcDbEntity
  8
2
 62
     7
420
 16777215
100
AcDbLine
 10
149.8025816956
 20
96.8467952703
 30
0.0
 11
149.8025816956
 21
78.8480462045
 31
0.0
  0
LINE
  5
88
330
81
100
AcDbEntity
  8
2
 62
     7
420
 16777215
100
AcDbLine
 10
136.6025816956
 20
79.8480462045
 30
0.0
 11
111.9717127765
 21
79.8480462045
 31
0.0
  0
LINE
  5
89
330
81
100
AcDbEntity
  8
2
 62
     7
420
 16777215
100
AcDbLine
 10
136.6025816956
 20
79.8480462045
 30
0.0
 11
149.8025816956
 21
79.8480462045
 31
0.0
  0
MTEXT
  5
8A
330
81
100
AcDbEntity
  8
2
 62
     7
420
 16777215
100
AcDbMText
 10
111.9717127765
 20
84.3597832937
 30
46.5161989144
 40
3.5
 41
0.0
 46
0.0
 71
     1
 72
     1
  1
%%c
  7
SLDTEXTSTYLE0
 73
     1
 44
1.0
  0
MTEXT
  5
8B
330
81
100
AcDbEntity
  8
2
 62
     7
420
 16777215
100
AcDbMText
 10
117.2501501748
 20
84.4132554703
 30
46.5161989144
 40
3.5
 41
0.0
 46
0.0
 71
     1
 72
     1
  1
13,20
  7
SLDTEXTSTYLE0
 73
     1
 44
1.0
  0
ENDBLK
  5
83
330
81
100
AcDbEntity
  8
0
100
AcDbBlockEnd
  0
BLOCK
  5
8F
330
8E
100
AcDbEntity
  8
0
100
AcDbBlockBegin
  2
_D_1
 70
     0
 10
0.0
 20
0.0
 30
0.0
  3
_D_1
  1

  0
SOLID
  5
91
330
8E
100
AcDbEntity
  8
2
 62
     7
420
 16777215
100
AcDbTrace
 10
133.2045618917
 20
110.4870051984
 30
0.0
 11
129.9025618917
 21
110.9950051984
 31
0.0
 12
129.9025618917
 22
109.9790051984
 32
0.0
 13
129.9025618917
 23
109.9790051984
 33
0.0
  0
SOLID
  5
92
330
8E
100
AcDbEntity
  8
2
 62
     7
420
 16777215
100
AcDbTrace
 10
143.2025816956
 20
110.4870051984
 30
0.0
 11
146.5045816956
 21
109.9790051984
 31
0.0
 12
146.5045816956
 22
110.9950051984
 32
0.0
 13
146.5045816956
 23
110.9950051984
 33
0.0
  0
LINE
  5
93
330
8E
100
AcDbEntity
  8
2
 62
     7
420
 16777215
100
AcDbLine
 10
133.2045618917
 20
105.4467952703
 30
0.0
 11
133.2045618917
 21
111.4870051984
 31
0.0
  0
LINE
  5
94
330
8E
100
AcDbEntity
  8
2
 62
     7
420
 16777215
100
AcDbLine
 10
143.2025816956
 20
98.8467952703
 30
0.0
 11
143.2025816956
 21
111.4870051984
 31
0.0
  0
LINE
  5
95
330
8E
100
AcDbEntity
  8
2
 62
     7
420
 16777215
100
AcDbLine
 10
133.2045618917
 20
110.4870051984
 30
0.0
 11
128.2045618917
 21
110.4870051984
 31
0.0
  0
LINE
  5
96
330
8E
100
AcDbEntity
  8
2
 62
     7
420
 16777215
100
AcDbLine
 10
133.2045618917
 20
110.4870051984
 30
0.0
 11
143.2025816956
 21
110.4870051984
 31
0.0
  0
LINE
  5
97
330
8E
100
AcDbEntity
  8
2
 62
     7
420
 16777215
100
AcDbLine
 10
143.2025816956
 20
110.4870051984
 30
0.0
 11
148.2025816956
 21
110.4870051984
 31
0.0
  0
MTEXT
  5
98
330
8E
100
AcDbEntity
  8
2
 62
     7
420
 16777215
100
AcDbMText
 10
134.1955855126
 20
114.998742113
 30
46.5161989144
 40
3.5
 41
0.0
 46
0.0
 71
     1
 72
     1
  1
10
  7
SLDTEXTSTYLE0
 73
     1
 44
1.0
  0
ENDBLK
  5
90
330
8E
100
AcDbEntity
  8
0
100
AcDbBlockEnd
  0
BLOCK
  5
106
330
105
100
AcDbEntity
  8
0
100
AcDbBlockBegin
  2
_D_2
 70
     0
 10
0.0
 20
0.0
 30
0.0
  3
_D_2
  1

  0
SOLID
  5
108
330
105
100
AcDbEntity
  8
2
 62
     7
420
 16777215
100
AcDbTrace
 10
133.3802858269
 20
43.8876736187
 30
0.0
 11
130.6862089906
 21
41.912017272
 31
0.0
 12
131.4046294803
 22
41.1935967823
 32
0.0
 13
131.4046294803
 23
41.1935967823
 33
0.0
  0
LINE
  5
109
330
105
100
AcDbEntity
  8
2
 62
     7
420
 16777215
100
AcDbLine
 10
133.3802858269
 20
43.8876736187
 30
0.0
 11
122.2367691477
 21
32.7441569394
 31
0.0
  0
LINE
  5
10A
330
105
100
AcDbEntity
  8
2
 62
     7
420
 16777215
100
AcDbLine
 10
133.3802858269
 20
43.8876736187
 30
0.0
 11
133.8045498956
 21
44.3119376874
 31
0.0
  0
MTEXT
  5
10B
330
105
100
AcDbEntity
  8
2
 62
     7
420
 16777215
100
AcDbMText
 10
119.1273514555
 20
35.8535746316
 30
9.2682207614
 40
3.5
 41
0.0
 46
0.0
 71
     1
 72
     1
  1
R0,60
  7
SLDTEXTSTYLE0
 11
0.7071067811865435
 21
0.7071067811865516
 31
0.0
 73
     1
 44
1.0
  0
ENDBLK
  5
107
330
105
100
AcDbEntity
  8
0
100
AcDbBlockEnd
  0
BLOCK
  5
10E
330
10D
100
AcDbEntity
  8
0
100
AcDbBlockBegin
  2
_D_3
 70
     0
 10
0.0
 20
0.0
 30
0.0
  3
_D_3
  1

  0
SOLID
  5
110
330
10D
100
AcDbEntity
  8
2
 62
     7
420
 16777215
100
AcDbTrace
 10
159.9575691907
 20
46.6410819647
 30
0.0
 11
160.4655691907
 21
49.9430819647
 31
0.0
 12
159.4495691907
 22
49.9430819647
 32
0.0
 13
159.4495691907
 23
49.9430819647
 33
0.0
  0
SOLID
  5
111
330
10D
100
AcDbEntity
  8
2
 62
     7
420
 16777215
100
AcDbTrace
 10
159.9575691907
 20
43.713510977
 30
0.0
 11
159.4495691907
 21
40.411510977
 31
0.0
 12
160.4655691907
 22
40.411510977
 32
0.0
 13
160.4655691907
 23
40.411510977
 33
0.0
  0
LINE
  5
112
330
10D
100
AcDbEntity
  8
2
 62
     7
420
 16777215
100
AcDbLine
 10
154.4670306367
 20
46.6410819647
 30
0.0
 11
160.9575691907
 21
46.6410819647
 31
0.0
  0
LINE
  5
113
330
10D
100
AcDbEntity
  8
2
 62
     7
420
 16777215
100
AcDbLine
 10
154.4670306367
 20
43.713510977
 30
0.0
 11
160.9575691907
 21
43.713510977
 31
0.0
  0
LINE
  5
114
330
10D
100
AcDbEntity
  8
2
 62
     7
420
 16777215
100
AcDbLine
 10
159.9575691907
 20
46.6410819647
 30
0.0
 11
159.9575691907
 21
51.6410819647
 31
0.0
  0
LINE
  5
115
330
10D
100
AcDbEntity
  8
2
 62
     7
420
 16777215
100
AcDbLine
 10
159.9575691907
 20
46.6410819647
 30
0.0
 11
159.9575691907
 21
43.713510977
 31
0.0
  0
LINE
  5
116
330
10D
100
AcDbEntity
  8
2
 62
     7
420
 16777215
100
AcDbLine
 10
159.9575691907
 20
43.713510977
 30
0.0
 11
159.9575691907
 21
26.9471913482
 31
0.0
  0
MTEXT
  5
117
330
10D
100
AcDbEntity
  8
2
 62
     7
420
 16777215
100
AcDbMText
 10
155.4458322761
 20
26.9471913482
 30
9.2682207614
 40
3.5
 41
0.0
 46
0.0
 71
     1
 72
     1
  1
2,93
  7
SLDTEXTSTYLE0
 11
-7.932373437343760E-15
 21
1.0
 31
0.0
 73
     1
 44
1.0
  0
ENDBLK
  5
10F
330
10D
100
AcDbEntity
  8
0
100
AcDbBlockEnd
  0
ENDSEC
  0
SECTION
  2
ENTITIES
  0
CIRCLE
  5
48
330
1F
100
AcDbEntity
  8
0
  6
SLD-Punktstrich
 62
     7
100
AcDbCircle
 10
143.2025816956
 20
97.8467952703
 30
0.0
 40
6.59999999999998
  0
CIRCLE
  5
49
330
1F
100
AcDbEntity
  8
0
  6
SLD-Punktstrich
 62
     7
100
AcDbCircle
 10
143.2025816956
 20
97.8467952703
 30
0.0
 40
11.97999999999997
  0
POINT
  5
4A
330
1F
100
AcDbEntity
  8
1
 62
     4
420
    65535
100
AcDbPoint
 10
143.2025816956
 20
97.8467952703
 30
0.0
  0
POINT
  5
4B
330
1F
100
AcDbEntity
  8
1
 62
     4
420
    65535
100
AcDbPoint
 10
143.2025816956
 20
97.8467952703
 30
0.0
  0
POINT
  5
4C
330
1F
100
AcDbEntity
  8
1
 62
     4
420
    65535
100
AcDbPoint
 10
143.2025816956
 20
97.8467952703
 30
0.0
  0
ELLIPSE
  5
4D
330
1F
100
AcDbEntity
  8
1
 62
     4
420
    65535
100
AcDbEllipse
 10
126.0297370063
 20
74.2389865753
 30
0.0
 11
-20.19395173270488
 21
-15.21723411576016
 31
0.0
210
0.0
220
0.0
230
1.0
 40
0.0237289517
 41
2.686832911445546
 42
2.871107747941947
  0
LINE
  5
4E
330
1F
100
AcDbEntity
  8
1
 62
     4
420
    65535
100
AcDbLine
 10
145.5859483344
 20
88.7749073816
 30
0.0
 11
145.0233098319
 21
87.800388909
 31
0.0
  0
LINE
  5
4F
330
1F
100
AcDbEntity
  8
1
 62
     4
420
    65535
100
AcDbLine
 10
145.0233098319
 20
87.800388909
 30
0.0
 11
142.4858239326
 21
85.8882561325
 31
0.0
  0
SPLINE
  5
50
330
1F
100
AcDbEntity
  8
1
 62
     4
420
    65535
100
AcDbSpline
210
0.0
220
0.0
230
1.0
 70
     8
 71
     3
 72
    12
 73
     8
 74
     0
 42
0.00000001
 43
0.00000001
 12
1.0
 22
0.0
 32
0.0
 13
1.0
 23
0.0
 33
0.0
 40
0.0
 40
0.0
 40
0.0
 40
0.0
 40
0.4999999999999996
 40
0.4999999999999996
 40
0.7499999999999998
 40
0.7499999999999998
 40
1.0
 40
1.0
 40
1.0
 40
1.0
 10
142.4858239326391
 20
85.88825613254781
 30
0.0
 10
142.4858239326391
 20
85.88825613254781
 30
0.0
 10
142.4674794165374
 20
85.96818724220564
 30
0.0
 10
142.4177126247914
 20
86.15248825007535
 30
0.0
 10
142.3974109794367
 20
86.22417711886035
 30
0.0
 10
142.3511713978343
 20
86.37643600799201
 30
0.0
 10
142.3255714441508
 20
86.45593895786003
 30
0.0
 10
142.2982629229251
 20
86.53562226680828
 30
0.0
  0
LINE
  5
51
330
1F
100
AcDbEntity
  8
1
 62
     4
420
    65535
100
AcDbLine
 10
142.2982629229
 20
86.5356222668
 30
0.0
 11
143.7812691469
 21
87.6531476132
 31
0.0
  0
SPLINE
  5
52
330
1F
100
AcDbEntity
  8
1
 62
     4
420
    65535
100
AcDbSpline
210
0.0
220
0.0
230
1.0
 70
     8
 71
     3
 72
     8
 73
     4
 74
     0
 42
0.00000001
 43
0.00000001
 12
1.0
 22
0.0
 32
0.0
 13
1.0
 23
0.0
 33
0.0
 40
0.0
 40
0.0
 40
0.0
 40
0.0
 40
1.0
 40
1.0
 40
1.0
 40
1.0
 10
143.7812691469207
 20
87.65314761322782
 30
0.0
 10
143.9678327434779
 20
87.66373872014307
 30
0.0
 10
144.1506532279731
 20
87.67924769569017
 30
0.0
 10
144.3299155736724
 20
87.69916253895573
 30
0.0
  0
ELLIPSE
  5
53
330
1F
100
AcDbEntity
  8
1
 62
     4
420
    65535
100
AcDbEllipse
 10
172.2339660979
 20
94.7785798616
 30
0.0
 11
23.27548718593599
 21
-9.879858145439016
 31
0.0
210
0.0
220
0.0
230
1.0
 40
0.0237289517
 41
2.686832911445488
 42
2.871107747941939
  0
LINE
  5
54
330
1F
100
AcDbEntity
  8
1
 62
     4
420
    65535
100
AcDbLine
 10
149.8673837482
 20
104.4467952703
 30
0.0
 11
150.9926607532
 21
104.4467952703
 31
0.0
  0
LINE
  5
55
330
1F
100
AcDbEntity
  8
1
 62
     4
420
    65535
100
AcDbLine
 10
150.9926607532
 20
104.4467952703
 30
0.0
 11
153.9173592626
 21
103.2053344081
 31
0.0
  0
LINE
  5
56
330
1F
100
AcDbEntity
  8
1
 62
     4
420
    65535
100
AcDbLine
 10
153.4505042496
 20
102.7192187418
 30
0.0
 11
151.7411957983
 21
103.4447771325
 31
0.0
  0
SPLINE
  5
57
330
1F
100
AcDbEntity
  8
1
 62
     4
420
    65535
100
AcDbSpline
210
0.0
220
0.0
230
1.0
 70
     8
 71
     3
 72
     8
 73
     4
 74
     0
 42
0.00000001
 43
0.00000001
 12
1.0
 22
0.0
 32
0.0
 13
1.0
 23
0.0
 33
0.0
 40
0.0
 40
0.0
 40
0.0
 40
0.0
 40
1.0
 40
1.0
 40
1.0
 40
1.0
 10
151.7411957982611
 20
103.4447771324927
 30
0.0
 10
151.6387418323397
 20
103.601050393075
 30
0.0
 10
151.5339004232818
 20
103.7516230892063
 30
0.0
 10
151.4270224902517
 20
103.8969114128911
 30
0.0
  0
SPLINE
  5
58
330
1F
100
AcDbEntity
  8
1
 62
     4
420
    65535
100
AcDbSpline
210
0.0
220
0.0
230
1.0
 70
     8
 71
     3
 72
    12
 73
     8
 74
     0
 42
0.00000001
 43
0.00000001
 12
1.0
 22
0.0
 32
0.0
 13
1.0
 23
0.0
 33
0.0
 40
0.0
 40
0.0
 40
0.0
 40
0.0
 40
0.4999999999999971
 40
0.4999999999999971
 40
0.7499999999999986
 40
0.7499999999999986
 40
1.0
 40
1.0
 40
1.0
 40
1.0
 10
153.9173592625935
 20
103.2053344080538
 30
0.0
 10
153.9173592625935
 20
103.2053344080538
 30
0.0
 10
153.857309149128
 20
103.1494820362607
 30
0.0
 10
153.7225831902427
 20
103.014232226409
 30
0.0
 10
153.6706496313837
 20
102.9608060514008
 30
0.0
 10
153.5619093562449
 20
102.8446319545069
 30
0.0
 10
153.5058577588252
 20
102.7827102693472
 30
0.0
 10
153.4505042496312
 20
102.7192187417518
 30
0.0
  0
ELLIPSE
  5
59
330
1F
100
AcDbEntity
  8
1
 62
     4
420
    65535
100
AcDbEllipse
 10
131.3440419827
 20
124.522819374
 30
0.0
 11
-3.08153545323097
 21
25.09709226119929
 31
0.0
210
0.0
220
0.0
230
1.0
 40
0.0237289517
 41
2.686832911445514
 42
2.871107747941963
  0
LINE
  5
5A
330
1F
100
AcDbEntity
  8
1
 62
     4
420
    65535
100
AcDbLine
 10
134.1544130044
 20
100.318683159
 30
0.0
 11
133.5917745019
 21
101.2932016316
 31
0.0
  0
LINE
  5
5B
330
1F
100
AcDbEntity
  8
1
 62
     4
420
    65535
100
AcDbLine
 10
133.5917745019
 20
101.2932016316
 30
0.0
 11
133.2045618917
 21
104.4467952703
 31
0.0
  0
SPLINE
  5
5C
330
1F
100
AcDbEntity
  8
1
 62
     4
420
    65535
100
AcDbSpline
210
0.0
220
0.0
230
1.0
 70
     8
 71
     3
 72
    12
 73
     8
 74
     0
 42
0.00000001
 43
0.00000001
 12
1.0
 22
0.0
 32
0.0
 13
1.0
 23
0.0
 33
0.0
 40
0.0
 40
0.0
 40
0.0
 40
0.0
 40
0.4999999999999999
 40
0.4999999999999999
 40
0.7499999999999998
 40
0.7499999999999998
 40
1.0
 40
1.0
 40
1.0
 40
1.0
 10
133.2045618917045
 20
104.4467952703008
 30
0.0
 10
133.2045618917045
 20
104.4467952703008
 30
0.0
 10
133.2829565212718
 20
104.422716532436
 30
0.0
 10
133.4674492719029
 20
104.373665334418
 30
0.0
 10
133.5396844761167
 20
104.3554026406413
 30
0.0
 10
133.6946643328579
 20
104.3193178484035
 30
0.0
 10
133.7763158839612
 20
104.3017365836952
 30
0.0
 10
133.8589779143808
 20
104.2855448023423
 30
0.0
  0
LINE
  5
5D
330
1F
100
AcDbEntity
  8
1
 62
     4
420
    65535
100
AcDbLine
 10
133.8589779144
 20
104.2855448023
 30
0.0
 11
134.0852801418
 21
102.4424610652
 31
0.0
  0
SPLINE
  5
5E
330
1F
100
AcDbEntity
  8
1
 62
     4
420
    65535
100
AcDbSpline
210
0.0
220
0.0
230
1.0
 70
     8
 71
     3
 72
     8
 73
     4
 74
     0
 42
0.00000001
 43
0.00000001
 12
1.0
 22
0.0
 32
0.0
 13
1.0
 23
0.0
 33
0.0
 40
0.0
 40
0.0
 40
0.0
 40
0.0
 40
1.0
 40
1.0
 40
1.0
 40
1.0
 10
134.0852801417553
 20
102.4424610651819
 30
0.0
 10
134.0011705111195
 20
102.2755966976843
 30
0.0
 10
133.9231914356825
 20
102.1095150260059
 30
0.0
 10
133.8508070230132
 20
101.9443118590555
 30
0.0
  0
ARC
  5
5F
330
1F
100
AcDbEntity
  8
1
 62
     4
420
    65535
100
AcDbCircle
 10
143.2025816956
 20
97.8467952703
 30
0.0
 40
10.21006031925437
100
AcDbArc
 50
261.8408219695
 51
273.2491606588
  0
ARC
  5
60
330
1F
100
AcDbEntity
  8
1
 62
     4
420
    65535
100
AcDbCircle
 10
135.6763489133
 20
84.2662049739
 30
0.0
 40
6.99999999999999
100
AcDbArc
 50
18.9172639095
 51
29.7534389968
  0
ARC
  5
61
330
1F
100
AcDbEntity
  8
1
 62
     4
420
    65535
100
AcDbCircle
 10
143.2025816956
 20
97.8467952703
 30
0.0
 40
10.21006031925435
100
AcDbArc
 50
21.8408219695
 51
33.2491606588
  0
ARC
  5
62
330
1F
100
AcDbEntity
  8
1
 62
     4
420
    65535
100
AcDbCircle
 10
158.7268342819
 20
98.1191816342
 30
0.0
 40
6.999999999999995
100
AcDbArc
 50
138.9172639095
 51
149.7534389968
  0
ARC
  5
63
330
1F
100
AcDbEntity
  8
1
 62
     4
420
    65535
100
AcDbCircle
 10
143.2025816956
 20
97.8467952703
 30
0.0
 40
10.21006031925435
100
AcDbArc
 50
141.8408219695
 51
153.2491606588
  0
ARC
  5
64
330
1F
100
AcDbEntity
  8
1
 62
     4
420
    65535
100
AcDbCircle
 10
135.2045618917
 20
111.1549992028
 30
0.0
 40
6.99999999999999
100
AcDbArc
 50
258.9172639095
 51
269.7534389968
  0
LINE
  5
65
330
1F
100
AcDbEntity
  8
1
 62
     4
420
    65535
100
AcDbLine
 10
135.2211878325
 20
101.7685493145
 30
0.0
 11
134.52408161
 21
99.6783983521
 31
0.0
  0
LINE
  5
66
330
1F
100
AcDbEntity
  8
1
 62
     4
420
    65535
100
AcDbLine
 10
147.6151264476
 20
104.4467952703
 30
0.0
 11
137.2045618917
 21
104.4467952703
 31
0.0
  0
LINE
  5
67
330
1F
100
AcDbEntity
  8
1
 62
     4
420
    65535
100
AcDbLine
 10
150.5896172569
 20
102.7980080913
 30
0.0
 11
149.1280465369
 21
104.4467952703
 31
0.0
  0
LINE
  5
68
330
1F
100
AcDbEntity
  8
1
 62
     4
420
    65535
100
AcDbLine
 10
149.8673837482
 20
104.4467952703
 30
0.0
 11
149.1280465369
 21
104.4467952703
 31
0.0
  0
LINE
  5
69
330
1F
100
AcDbEntity
  8
1
 62
     4
420
    65535
100
AcDbLine
 10
146.7120769846
 20
90.7254194198
 30
0.0
 11
143.7969399975
 21
88.9738284051
 31
0.0
  0
LINE
  5
6A
330
1F
100
AcDbEntity
  8
1
 62
     4
420
    65535
100
AcDbLine
 10
143.7969399975
 20
88.9738284051
 30
0.0
 11
145.95561694
 21
89.4151921885
 31
0.0
  0
LINE
  5
6B
330
1F
100
AcDbEntity
  8
1
 62
     4
420
    65535
100
AcDbLine
 10
147.6151264476
 20
104.4467952703
 30
0.0
 11
150.5896172569
 21
102.7980080913
 31
0.0
  0
CIRCLE
  5
6C
330
1F
100
AcDbEntity
  8
1
 62
     4
420
    65535
100
AcDbCircle
 10
143.2025816956
 20
97.8467952703
 30
0.0
 40
2.549999999999983
  0
LINE
  5
6D
330
1F
100
AcDbEntity
  8
1
 62
     4
420
    65535
100
AcDbLine
 10
135.2805416547
 20
98.3681711208
 30
0.0
 11
140.4858239326
 21
89.3523577477
 31
0.0
  0
LINE
  5
6E
330
1F
100
AcDbEntity
  8
1
 62
     4
420
    65535
100
AcDbLine
 10
134.1544130044
 20
100.318683159
 30
0.0
 11
134.52408161
 21
99.6783983521
 31
0.0
  0
LINE
  5
6F
330
1F
100
AcDbEntity
  8
1
 62
     4
420
    65535
100
AcDbLine
 10
145.5859483344
 20
88.7749073816
 30
0.0
 11
145.95561694
 21
89.4151921885
 31
0.0
  0
LINE
  5
70
330
1F
100
AcDbEntity
  8
1
 62
     4
420
    65535
100
AcDbLine
 10
146.7120769846
 20
90.7254194198
 30
0.0
 11
151.9173592626
 21
99.7412327929
 31
0.0
  0
LINE
  5
71
330
1F
100
AcDbEntity
  8
1
 62
     4
420
    65535
100
AcDbLine
 10
135.2805416547
 20
98.3681711208
 30
0.0
 11
135.2211878325
 21
101.7685493145
 31
0.0
  0
ARC
  5
72
330
1F
100
AcDbEntity
  8
1
 62
     4
420
    65535
100
AcDbCircle
 10
135.2045618917
 20
111.1549992028
 30
0.0
 40
6.99999999999999
100
AcDbArc
 50
269.7534389968
 51
286.601549599
  0
ARC
  5
73
330
1F
100
AcDbEntity
  8
1
 62
     4
420
    65535
100
AcDbCircle
 10
158.7268342819
 20
98.1191816342
 30
0.0
 40
7.00000000000006
100
AcDbArc
 50
149.7534389968
 51
166.601549599
  0
ARC
  5
74
330
1F
100
AcDbEntity
  8
1
 62
     4
420
    65535
100
AcDbCircle
 10
135.6763489133
 20
84.2662049739
 30
0.0
 40
7.000000000000046
100
AcDbArc
 50
29.7534389968
 51
46.601549599
  0
LINE
  5
75
330
1F
100
AcDbEntity
  8
1
 62
     4
420
    65535
100
AcDbLine
 10
146.7120769846
 20
90.7254194198
 30
0.0
 11
145.95561694
 21
89.4151921885
 31
0.0
  0
LINE
  5
76
330
1F
100
AcDbEntity
  8
1
 62
     4
420
    65535
100
AcDbLine
 10
135.2805416547
 20
98.3681711208
 30
0.0
 11
134.52408161
 21
99.6783983521
 31
0.0
  0
LINE
  5
77
330
1F
100
AcDbEntity
  8
1
 62
     4
420
    65535
100
AcDbLine
 10
147.6151264476
 20
104.4467952703
 30
0.0
 11
149.1280465369
 21
104.4467952703
 31
0.0
  0
LINE
  5
78
330
1F
100
AcDbEntity
  8
1
  6
SLD-Gestrichelt
 62
   131
420
  8454143
370
     0
100
AcDbLine
 10
134.0852801418
 20
102.4424610652
 30
0.0
 11
133.8589779144
 21
104.2855448023
 31
0.0
  0
LINE
  5
79
330
1F
100
AcDbEntity
  8
1
  6
SLD-Gestrichelt
 62
   131
420
  8454143
370
     0
100
AcDbLine
 10
143.7812691469
 20
87.6531476132
 30
0.0
 11
142.2982629229
 21
86.5356222668
 31
0.0
  0
LINE
  5
7A
330
1F
100
AcDbEntity
  8
1
  6
SLD-Gestrichelt
 62
   131
420
  8454143
370
     0
100
AcDbLine
 10
151.7411957983
 20
103.4447771325
 30
0.0
 11
153.4505042496
 21
102.7192187418
 31
0.0
  0
LWPOLYLINE
  5
7B
330
1F
100
AcDbEntity
  8
1
  6
SLD-Gestrichelt
 62
   131
420
  8454143
370
     0
100
AcDbPolyline
 90
        3
 70
   128
 43
0.0
 10
144.3299155737
 20
87.699162539
 10
144.0084303281
 20
87.6685862086
 10
143.7812691469
 20
87.6531476132
  0
LWPOLYLINE
  5
7C
330
1F
100
AcDbEntity
  8
1
  6
SLD-Gestrichelt
 62
   131
420
  8454143
370
     0
100
AcDbPolyline
 90
        3
 70
   128
 43
0.0
 10
151.4270224903
 20
103.8969114129
 10
151.6142449919
 20
103.6337851885
 10
151.7411957983
 20
103.4447771325
  0
LWPOLYLINE
  5
7D
330
1F
100
AcDbEntity
  8
1
  6
SLD-Gestrichelt
 62
   131
420
  8454143
370
     0
100
AcDbPolyline
 90
        3
 70
   128
 43
0.0
 10
133.850807023
 20
101.9443118591
 10
133.9850697669
 20
102.2380144139
 10
134.0852801418
 20
102.4424610652
  0
DIMENSION
  5
7E
330
1F
100
AcDbEntity
  8
2
 62
     7
420
 16777215
100
AcDbDimension
  2
_D
 10
149.8025816956
 20
79.8480462045
 30
0.0
 11
121.8515570396
 21
79.8480462045
 31
0.0
 70
   160
  1
%%c<>
 71
     2
 42
-1.0
 73
     0
 74
     0
 75
     0
  3
SLDDIMSTYLE0
100
AcDbAlignedDimension
 13
136.6025816956
 23
97.8467952703
 33
0.0
 14
149.8025816956
 24
97.8467952703
 34
0.0
100
AcDbRotatedDimension
  0
DIMENSION
  5
8C
330
1F
100
AcDbEntity
  8
2
 62
     7
420
 16777215
100
AcDbDimension
  2
_D_1
 10
143.2025816956
 20
110.4870051984
 30
0.0
 11
138.2035717937
 21
110.4870051984
 31
0.0
 70
   160
  1
<>
 71
     2
 42
-1.0
 73
     0
 74
     0
 75
     0
  3
SLDDIMSTYLE1
100
AcDbAlignedDimension
 13
133.2045618917
 23
104.4467952703
 33
0.0
 14
143.2025816956
 24
97.8467952703
 34
0.0
100
AcDbRotatedDimension
  0
ARC
  5
99
330
1F
100
AcDbEntity
  8
0
  6
SLD-Durchgehend
 62
     7
100
AcDbCircle
 10
133.8045498956
 20
44.3119376874
 30
0.0
 40
0.6000000000000001
100
AcDbArc
 50
180.3623119763
 51
275.2046477518
  0
POINT
  5
9A
330
1F
100
AcDbEntity
  8
1
 62
     4
420
    65535
100
AcDbPoint
 10
133.8045498956
 20
44.3119376874
 30
0.0
  0
POINT
  5
9B
330
1F
100
AcDbEntity
  8
1
 62
     4
420
    65535
100
AcDbPoint
 10
133.2045618917
 20
44.3081435905
 30
0.0
  0
POINT
  5
9C
330
1F
100
AcDbEntity
  8
1
 62
     4
420
    65535
100
AcDbPoint
 10
133.8045498956
 20
44.3119376874
 30
0.0
  0
POINT
  5
9D
330
1F
100
AcDbEntity
  8
1
 62
     4
420
    65535
100
AcDbPoint
 10
133.8589779144
 20
43.7144114614
 30
0.0
  0
LINE
  5
9E
330
1F
100
AcDbEntity
  8
1
 62
     4
420
    65535
100
AcDbLine
 10
153.4671255356
 20
46.6410844117
 30
0.0
 11
151.7168973119
 21
46.5959539834
 31
0.0
  0
LINE
  5
9F
330
1F
100
AcDbEntity
  8
1
 62
     4
420
    65535
100
AcDbLine
 10
151.7169027201
 20
43.7586388188
 30
0.0
 11
153.4671447291
 21
43.7135080351
 31
0.0
  0
LINE
  5
A0
330
1F
100
AcDbEntity
  8
1
 62
     4
420
    65535
100
AcDbLine
 10
143.8554315344
 20
46.5952775703
 30
0.0
 11
142.3118881
 21
46.6411520439
 31
0.0
  0
LINE
  5
A1
330
1F
100
AcDbEntity
  8
1
 62
     4
420
    65535
100
AcDbLine
 10
142.3118514243
 20
43.7134398078
 30
0.0
 11
143.8554218638
 21
43.7593150839
 31
0.0
  0
LINE
  5
A2
330
1F
100
AcDbEntity
  8
1
 62
     4
420
    65535
100
AcDbLine
 10
153.9173592626
 20
46.0464493512
 30
0.0
 11
150.9926607532
 21
45.971034674
 31
0.0
  0
ELLIPSE
  5
A3
330
1F
100
AcDbEntity
  8
1
 62
     4
420
    65535
100
AcDbEllipse
 10
149.457077954
 20
45.9374840829
 30
0.0
 11
-1.535504911038885
 21
-0.03959369033680815
 31
0.0
210
0.0
220
0.0
230
1.0
 40
0.3906211099
 41
3.131520651762036
 42
4.431832072909244
  0
LINE
  5
A4
330
1F
100
AcDbEntity
  8
1
 62
     4
420
    65535
100
AcDbLine
 10
149.8673837482
 20
46.5247964708
 30
0.0
 11
151.4270224903
 21
46.5247964708
 31
0.0
  0
SPLINE
  5
A5
330
1F
100
AcDbEntity
  8
1
 62
     4
420
    65535
100
AcDbSpline
210
0.0
220
0.0
230
1.0
 70
     8
 71
     3
 72
     9
 73
     5
 74
     0
 42
0.00000001
 43
0.00000001
 12
1.0
 22
0.0
 32
0.0
 13
1.0
 23
0.0
 33
0.0
 40
0.0
 40
0.0
 40
0.0
 40
0.0
 40
0.5373314513536147
 40
1.0
 40
1.0
 40
1.0
 40
1.0
 10
151.4270224902516
 20
46.5247964708322
 30
0.0
 10
151.4797467069182
 20
46.54601037436027
 30
0.0
 10
151.577869041901
 20
46.58549048198216
 30
0.0
 10
151.6729049143141
 20
46.59089281183905
 30
0.0
 10
151.7168750234728
 20
46.59339229995324
 30
0.0
  0
SPLINE
  5
A6
330
1F
100
AcDbEntity
  8
1
 62
     4
420
    65535
100
AcDbSpline
210
0.0
220
0.0
230
1.0
 70
     8
 71
     3
 72
    16
 73
    12
 74
     0
 42
0.00000001
 43
0.00000001
 12
1.0
 22
0.0
 32
0.0
 13
1.0
 23
0.0
 33
0.0
 40
0.0
 40
0.0
 40
0.0
 40
0.0
 40
0.0876369325699396
 40
0.2042310829350074
 40
0.3175387202813666
 40
0.4341995720009666
 40
0.5460184541393724
 40
0.6614940198697076
 40
0.7664349473898839
 40
0.8749354696250337
 40
1.0
 40
1.0
 40
1.0
 40
1.0
 10
153.4671369311458
 20
46.63947071816776
 30
0.0
 10
153.4860449692969
 20
46.63953513541897
 30
0.0
 10
153.530108687578
 20
46.63968525483308
 30
0.0
 10
153.5990731806455
 20
46.61779951924777
 30
0.0
 10
153.6718208589096
 20
46.57794067698897
 30
0.0
 10
153.7390274937341
 20
46.52089664997949
 30
0.0
 10
153.7994885023502
 20
46.44776994162002
 30
0.0
 10
153.8487163490756
 20
46.36336344325357
 30
0.0
 10
153.8857929458585
 20
46.26891935012642
 30
0.0
 10
153.9118999593374
 20
46.16354966353433
 30
0.0
 10
153.9154554453116
 20
46.08728562420631
 30
0.0
 10
153.9173592625935
 20
46.04644935115746
 30
0.0
  0
ELLIPSE
  5
A7
330
1F
100
AcDbEntity
  8
1
 62
     4
420
    65535
100
AcDbEllipse
 10
135.2045618917
 20
46.6897337384
 30
0.0
 11
6.999997077362224
 21
-0.3669661086930134
 31
0.0
210
0.0
220
0.0
230
1.0
 40
0.0174311288
 41
4.519872550390101
 42
4.708999483986503
  0
LINE
  5
A8
330
1F
100
AcDbEntity
  8
1
 62
     4
420
    65535
100
AcDbLine
 10
135.1744388755
 20
46.5247964708
 30
0.0
 11
135.1744388755
 21
46.5689604164
 31
0.0
  0
LINE
  5
A9
330
1F
100
AcDbEntity
  8
1
 62
     4
420
    65535
100
AcDbLine
 10
137.2045618917
 20
46.5247964708
 30
0.0
 11
135.1744388755
 21
46.5247964708
 31
0.0
  0
LINE
  5
AA
330
1F
100
AcDbEntity
  8
1
 62
     4
420
    65535
100
AcDbLine
 10
137.2045618917
 20
43.8297964708
 30
0.0
 11
137.2045618917
 21
46.5247964708
 31
0.0
  0
LINE
  5
AB
330
1F
100
AcDbEntity
  8
1
 62
     4
420
    65535
100
AcDbLine
 10
137.2045618917
 20
43.8297964708
 30
0.0
 11
135.1744388755
 21
43.8297964708
 31
0.0
  0
LINE
  5
AC
330
1F
100
AcDbEntity
  8
1
 62
     4
420
    65535
100
AcDbLine
 10
135.1744388755
 20
43.7856325252
 30
0.0
 11
135.1744388755
 21
43.8297964708
 31
0.0
  0
ELLIPSE
  5
AD
330
1F
100
AcDbEntity
  8
1
 62
     4
420
    65535
100
AcDbEllipse
 10
135.2045618917
 20
43.6648592033
 30
0.0
 11
6.999997077362224
 21
0.3669661086930063
 31
0.0
210
0.0
220
0.0
230
1.0
 40
0.0174311288
 41
1.574185823193083
 42
1.763312756789519
  0
LINE
  5
AE
330
1F
100
AcDbEntity
  8
1
 62
     4
420
    65535
100
AcDbLine
 10
133.2045618917
 20
44.3081435905
 30
0.0
 11
133.2045618917
 21
46.0464493512
 31
0.0
  0
SPLINE
  5
AF
330
1F
100
AcDbEntity
  8
1
 62
     4
420
    65535
100
AcDbSpline
210
0.0
220
0.0
230
1.0
 70
     8
 71
     3
 72
    12
 73
     8
 74
     0
 42
0.00000001
 43
0.00000001
 12
1.0
 22
0.0
 32
0.0
 13
1.0
 23
0.0
 33
0.0
 40
0.0
 40
0.0
 40
0.0
 40
0.0
 40
0.4999999999999999
 40
0.4999999999999999
 40
0.7499999999999998
 40
0.7499999999999998
 40
1.0
 40
1.0
 40
1.0
 40
1.0
 10
133.2045618917045
 20
44.30814359050694
 30
0.0
 10
133.2045618917045
 20
44.13915099909602
 30
0.0
 10
133.2829565212717
 20
43.97706053366078
 30
0.0
 10
133.4674492719029
 20
43.81514326641867
 30
0.0
 10
133.5396844761167
 20
43.77376898034559
 30
0.0
 10
133.6946643328579
 20
43.72108850214486
 30
0.0
 10
133.7763158839612
 20
43.70979631144782
 30
0.0
 10
133.8589779143808
 20
43.71441146135217
 30
0.0
  0
SPLINE
  5
B0
330
1F
100
AcDbEntity
  8
1
 62
     4
420
    65535
100
AcDbSpline
210
0.0
220
0.0
230
1.0
 70
     8
 71
     3
 72
    12
 73
     8
 74
     0
 42
0.00000001
 43
0.00000001
 12
1.0
 22
0.0
 32
0.0
 13
1.0
 23
0.0
 33
0.0
 40
0.0
 40
0.0
 40
0.0
 40
0.0
 40
0.2499999999999998
 40
0.2499999999999998
 40
0.4999999999999999
 40
0.4999999999999999
 40
1.0
 40
1.0
 40
1.0
 40
1.0
 10
133.8589779143808
 20
46.64018148031222
 30
0.0
 10
133.7762702132911
 20
46.64479918008122
 30
0.0
 10
133.6947435136462
 20
46.63353213283693
 30
0.0
 10
133.5395944613222
 20
46.58079258527091
 30
0.0
 10
133.4675910850459
 20
46.53955164559679
 30
0.0
 10
133.2829572261952
 20
46.37757795436389
 30
0.0
 10
133.2045618917045
 20
46.21559659122895
 30
0.0
 10
133.2045618917045
 20
46.04644935115746
 30
0.0
  0
ELLIPSE
  5
B1
330
1F
100
AcDbEntity
  8
1
 62
     4
420
    65535
100
AcDbEllipse
 10
149.457077954
 20
44.4171088588
 30
0.0
 11
1.535504911038885
 21
-0.03959369033680815
 31
0.0
210
0.0
220
0.0
230
1.0
 40
0.3906211099
 41
4.9929458878603
 42
6.293257309007343
  0
LINE
  5
B2
330
1F
100
AcDbEntity
  8
1
 62
     4
420
    65535
100
AcDbLine
 10
149.8673837482
 20
43.8297964708
 30
0.0
 11
149.1280465369
 21
43.8297964708
 31
0.0
  0
LINE
  5
B3
330
1F
100
AcDbEntity
  8
1
 62
     4
420
    65535
100
AcDbLine
 10
147.6151264476
 20
43.892342349
 30
0.0
 11
149.1280465369
 21
43.8297964708
 31
0.0
  0
LINE
  5
B4
330
1F
100
AcDbEntity
  8
1
 62
     4
420
    65535
100
AcDbLine
 10
147.6151264476
 20
43.8297964708
 30
0.0
 11
147.6151264476
 21
43.892342349
 31
0.0
  0
LINE
  5
B5
330
1F
100
AcDbEntity
  8
1
 62
     4
420
    65535
100
AcDbLine
 10
147.6151264476
 20
43.8297964708
 30
0.0
 11
137.2045618917
 21
43.8297964708
 31
0.0
  0
LINE
  5
B6
330
1F
100
AcDbEntity
  8
1
 62
     4
420
    65535
100
AcDbLine
 10
147.6151264476
 20
46.5247964708
 30
0.0
 11
137.2045618917
 21
46.5247964708
 31
0.0
  0
LINE
  5
B7
330
1F
100
AcDbEntity
  8
1
 62
     4
420
    65535
100
AcDbLine
 10
147.6151264476
 20
46.4622505927
 30
0.0
 11
147.6151264476
 21
46.5247964708
 31
0.0
  0
LINE
  5
B8
330
1F
100
AcDbEntity
  8
1
 62
     4
420
    65535
100
AcDbLine
 10
149.1280465369
 20
46.5247964708
 30
0.0
 11
147.6151264476
 21
46.4622505927
 31
0.0
  0
LINE
  5
B9
330
1F
100
AcDbEntity
  8
1
 62
     4
420
    65535
100
AcDbLine
 10
149.8673837482
 20
46.5247964708
 30
0.0
 11
149.1280465369
 21
46.5247964708
 31
0.0
  0
LINE
  5
BA
330
1F
100
AcDbEntity
  8
1
 62
     4
420
    65535
100
AcDbLine
 10
150.9926607532
 20
44.3835582676
 30
0.0
 11
150.9926607532
 21
45.971034674
 31
0.0
  0
LINE
  5
BB
330
1F
100
AcDbEntity
  8
1
 62
     4
420
    65535
100
AcDbLine
 10
147.6151264476
 20
46.5247964708
 30
0.0
 11
149.1280465369
 21
46.5247964708
 31
0.0
  0
LINE
  5
BC
330
1F
100
AcDbEntity
  8
1
 62
     4
420
    65535
100
AcDbLine
 10
150.9926607532
 20
44.3835582676
 30
0.0
 11
153.9173592626
 21
44.3081435905
 31
0.0
  0
LINE
  5
BD
330
1F
100
AcDbEntity
  8
1
 62
     4
420
    65535
100
AcDbLine
 10
153.9173592626
 20
44.3081435905
 30
0.0
 11
153.9173592626
 21
46.0464493512
 31
0.0
  0
LINE
  5
BE
330
1F
100
AcDbEntity
  8
1
 62
     4
420
    65535
100
AcDbLine
 10
151.4270224903
 20
43.8297964708
 30
0.0
 11
149.8673837482
 21
43.8297964708
 31
0.0
  0
SPLINE
  5
BF
330
1F
100
AcDbEntity
  8
1
 62
     4
420
    65535
100
AcDbSpline
210
0.0
220
0.0
230
1.0
 70
     8
 71
     3
 72
    12
 73
     8
 74
     0
 42
0.00000001
 43
0.00000001
 12
1.0
 22
0.0
 32
0.0
 13
1.0
 23
0.0
 33
0.0
 40
0.0
 40
0.0
 40
0.0
 40
0.0
 40
0.1935142711012854
 40
0.3867901164446643
 40
0.5866823085724976
 40
0.8015980797876937
 40
1.0
 40
1.0
 40
1.0
 40
1.0
 10
153.9173592625935
 20
44.30814359050694
 30
0.0
 10
153.91270792466
 20
44.24499656283518
 30
0.0
 10
153.90341097963
 20
44.11878030990823
 30
0.0
 10
153.8321765977576
 20
43.94925427043528
 30
0.0
 10
153.7279793983783
 20
43.81495762254312
 30
0.0
 10
153.6000071212491
 20
43.72597083520825
 30
0.0
 10
153.5101716946317
 20
43.71999141956636
 30
0.0
 10
153.4670486405897
 20
43.7171211636598
 30
0.0
  0
SPLINE
  5
C0
330
1F
100
AcDbEntity
  8
1
 62
     4
420
    65535
100
AcDbSpline
210
0.0
220
0.0
230
1.0
 70
     8
 71
     3
 72
     9
 73
     5
 74
     0
 42
0.00000001
 43
0.00000001
 12
1.0
 22
0.0
 32
0.0
 13
1.0
 23
0.0
 33
0.0
 40
0.0
 40
0.0
 40
0.0
 40
0.0
 40
0.4523749485935811
 40
1.0
 40
1.0
 40
1.0
 40
1.0
 10
151.7168832614373
 20
43.76114471069977
 30
0.0
 10
151.6739013276497
 20
43.7635415673053
 30
0.0
 10
151.578887370928
 20
43.76883995222465
 30
0.0
 10
151.480759674857
 20
43.80822708837377
 30
0.0
 10
151.4270224902517
 20
43.82979647083219
 30
0.0
  0
LINE
  5
C1
330
1F
100
AcDbEntity
  8
1
 62
     4
420
    65535
100
AcDbLine
 10
147.6151264476
 20
43.8297964708
 30
0.0
 11
149.1280465369
 21
43.8297964708
 31
0.0
  0
SPLINE
  5
C2
330
1F
100
AcDbEntity
  8
1
 62
     4
420
    65535
100
AcDbSpline
210
0.0
220
0.0
230
1.0
 70
     8
 71
     3
 72
     8
 73
     4
 74
     0
 42
0.00000001
 43
0.00000001
 12
1.0
 22
0.0
 32
0.0
 13
1.0
 23
0.0
 33
0.0
 40
0.0
 40
0.0
 40
0.0
 40
0.0
 40
1.0
 40
1.0
 40
1.0
 40
1.0
 10
144.3299155736723
 20
46.5247964708322
 30
0.0
 10
144.150653227973
 20
46.57346339776489
 30
0.0
 10
143.9678327434779
 20
46.59759756033974
 30
0.0
 10
143.7812691469207
 20
46.59610618688457
 30
0.0
  0
LINE
  5
C3
330
1F
100
AcDbEntity
  8
1
 62
     4
420
    65535
100
AcDbLine
 10
143.7812691469
 20
46.5961061869
 30
0.0
 11
142.2982629229
 21
46.6401814803
 31
0.0
  0
LINE
  5
C4
330
1F
100
AcDbEntity
  8
1
 62
     4
420
    65535
100
AcDbLine
 10
142.2982629229
 20
46.6401814803
 30
0.0
 11
142.3117915263
 21
46.6388969719
 31
0.0
  0
LINE
  5
C5
330
1F
100
AcDbEntity
  8
1
 62
     4
420
    65535
100
AcDbLine
 10
142.2982629229
 20
43.7144114614
 30
0.0
 11
143.7812691469
 21
43.7584867548
 31
0.0
  0
SPLINE
  5
C6
330
1F
100
AcDbEntity
  8
1
 62
     4
420
    65535
100
AcDbSpline
210
0.0
220
0.0
230
1.0
 70
     8
 71
     3
 72
     8
 73
     4
 74
     0
 42
0.00000001
 43
0.00000001
 12
1.0
 22
0.0
 32
0.0
 13
1.0
 23
0.0
 33
0.0
 40
0.0
 40
0.0
 40
0.0
 40
0.0
 40
1.0
 40
1.0
 40
1.0
 40
1.0
 10
143.7812691469207
 20
43.75848675477983
 30
0.0
 10
143.9678327434779
 20
43.75699538132465
 30
0.0
 10
144.1506532279731
 20
43.78112954389955
 30
0.0
 10
144.3299155736724
 20
43.82979647083223
 30
0.0
  0
LINE
  5
C7
330
1F
100
AcDbEntity
  8
1
 62
     4
420
    65535
100
AcDbLine
 10
142.311327883
 20
43.7190350251
 30
0.0
 11
142.2982629229
 21
43.7144114614
 31
0.0
  0
ELLIPSE
  5
C8
330
1F
100
AcDbEntity
  8
1
 62
     4
420
    65535
100
AcDbEllipse
 10
143.2025816956
 20
46.0379609282
 30
0.0
 11
10.21005847729228
 21
0.1133227370215621
 31
0.0
210
0.0
220
0.0
230
1.0
 40
0.0541193304
 41
1.513487098116996
 42
1.712600170428265
  0
LINE
  5
C9
330
1F
100
AcDbEntity
  8
1
 62
     4
420
    65535
100
AcDbLine
 10
141.7535321171
 20
46.5247964708
 30
0.0
 11
141.7535321171
 21
46.5689604164
 31
0.0
  0
ELLIPSE
  5
CA
330
1F
100
AcDbEntity
  8
1
 62
     4
420
    65535
100
AcDbEllipse
 10
143.2025816956
 20
44.3166320135
 30
0.0
 11
10.21005847729228
 21
-0.113322737021555
 31
0.0
210
0.0
220
0.0
230
1.0
 40
0.0541193304
 41
4.570585136751323
 42
4.769698209062593
  0
LINE
  5
CB
330
1F
100
AcDbEntity
  8
1
 62
     4
420
    65535
100
AcDbLine
 10
141.7535321171
 20
43.7856325252
 30
0.0
 11
141.7535321171
 21
43.8297964708
 31
0.0
  0
ELLIPSE
  5
CC
330
1F
100
AcDbEntity
  8
1
 62
     4
420
    65535
100
AcDbEllipse
 10
135.6763489133
 20
46.6897337384
 30
0.0
 11
6.999998737153931
 21
0.07769387587798349
 31
0.0
210
0.0
220
0.0
230
1.0
 40
0.0541193304
 41
5.763289155638248
 42
5.95241608923472
  0
ELLIPSE
  5
CD
330
1F
100
AcDbEntity
  8
1
 62
     4
420
    65535
100
AcDbEllipse
 10
135.6763489133
 20
43.6648592033
 30
0.0
 11
6.999998737153931
 21
-0.07769387587798349
 31
0.0
210
0.0
220
0.0
230
1.0
 40
0.0541193304
 41
0.330769217945068
 42
0.5198961515415186
  0
LINE
  5
CE
330
1F
100
AcDbEntity
  8
1
  6
SLD-Gestrichelt
 62
   131
420
  8454143
370
     0
100
AcDbLine
 10
151.7168750235
 20
46.5933923
 30
0.0
 11
151.7411957983
 21
46.5961061869
 31
0.0
  0
LINE
  5
CF
330
1F
100
AcDbEntity
  8
1
  6
SLD-Gestrichelt
 62
   131
420
  8454143
370
     0
100
AcDbLine
 10
151.7411957983
 20
46.5961061869
 30
0.0
 11
153.4505042496
 21
46.6401814803
 31
0.0
  0
LINE
  5
D0
330
1F
100
AcDbEntity
  8
1
  6
SLD-Gestrichelt
 62
   131
420
  8454143
370
     0
100
AcDbLine
 10
153.4505042496
 20
46.6401814803
 30
0.0
 11
153.4671369311
 21
46.6394707182
 31
0.0
  0
LINE
  5
D1
330
1F
100
AcDbEntity
  8
1
  6
SLD-Gestrichelt
 62
   131
420
  8454143
370
     0
100
AcDbLine
 10
147.6151264476
 20
46.4622505927
 30
0.0
 11
150.5896172569
 21
46.5247964708
 31
0.0
  0
LINE
  5
D2
330
1F
100
AcDbEntity
  8
1
  6
SLD-Gestrichelt
 62
   131
420
  8454143
370
     0
100
AcDbLine
 10
133.5917745019
 20
44.3835582676
 30
0.0
 11
133.2045618917
 21
44.3081435905
 31
0.0
  0
LINE
  5
D3
330
1F
100
AcDbEntity
  8
1
  6
SLD-Gestrichelt
 62
   131
420
  8454143
370
     0
100
AcDbLine
 10
133.2045618917
 20
46.0464493512
 30
0.0
 11
133.5917745019
 21
45.971034674
 31
0.0
  0
LINE
  5
D4
330
1F
100
AcDbEntity
  8
1
  6
SLD-Gestrichelt
 62
   131
420
  8454143
370
     0
100
AcDbLine
 10
153.4670486406
 20
43.7171211637
 30
0.0
 11
153.4505042496
 21
43.7144114614
 31
0.0
  0
LINE
  5
D5
330
1F
100
AcDbEntity
  8
1
  6
SLD-Gestrichelt
 62
   131
420
  8454143
370
     0
100
AcDbLine
 10
153.4505042496
 20
43.7144114614
 30
0.0
 11
151.7411957983
 21
43.7584867548
 31
0.0
  0
LINE
  5
D6
330
1F
100
AcDbEntity
  8
1
  6
SLD-Gestrichelt
 62
   131
420
  8454143
370
     0
100
AcDbLine
 10
151.7411957983
 20
43.7584867548
 30
0.0
 11
151.7168832614
 21
43.7611447107
 31
0.0
  0
LINE
  5
D7
330
1F
100
AcDbEntity
  8
1
  6
SLD-Gestrichelt
 62
   131
420
  8454143
370
     0
100
AcDbLine
 10
147.6151264476
 20
43.892342349
 30
0.0
 11
150.5896172569
 21
43.8297964708
 31
0.0
  0
LINE
  5
D8
330
1F
100
AcDbEntity
  8
1
  6
SLD-Gestrichelt
 62
   131
420
  8454143
370
     0
100
AcDbLine
 10
134.0852801418
 20
46.5961061869
 30
0.0
 11
133.8589779144
 21
46.6401814803
 31
0.0
  0
LINE
  5
D9
330
1F
100
AcDbEntity
  8
1
  6
SLD-Gestrichelt
 62
   131
420
  8454143
370
     0
100
AcDbLine
 10
133.8589779144
 20
43.7144114614
 30
0.0
 11
134.0852801418
 21
43.7584867548
 31
0.0
  0
ELLIPSE
  5
DA
330
1F
100
AcDbEntity
  8
1
  6
SLD-Gestrichelt
 62
   131
420
  8454143
370
     0
100
AcDbEllipse
 10
143.2025816956
 20
46.0379609282
 30
0.0
 11
10.21005605635318
 21
-0.5352494435539441
 31
0.0
210
0.0
220
0.0
230
1.0
 40
0.0174311288
 41
2.476503162016693
 42
2.675616234327975
  0
LINE
  5
DB
330
1F
100
AcDbEntity
  8
1
  6
SLD-Gestrichelt
 62
   131
420
  8454143
370
     0
100
AcDbLine
 10
133.850807023
 20
46.5247964708
 30
0.0
 11
135.1744388755
 21
46.5247964708
 31
0.0
  0
SPLINE
  5
DC
330
1F
100
AcDbEntity
  8
1
  6
SLD-Gestrichelt
 62
   131
420
  8454143
370
     0
100
AcDbSpline
210
0.0
220
0.0
230
1.0
 70
     8
 71
     3
 72
     8
 73
     4
 74
     0
 42
0.00000001
 43
0.00000001
 12
1.0
 22
0.0
 32
0.0
 13
1.0
 23
0.0
 33
0.0
 40
0.0
 40
0.0
 40
0.0
 40
0.0
 40
1.0
 40
1.0
 40
1.0
 40
1.0
 10
133.8508070230131
 20
46.5247964708322
 30
0.0
 10
133.9231914356824
 20
46.57346339776489
 30
0.0
 10
134.0011705111195
 20
46.59759756033974
 30
0.0
 10
134.0852801417553
 20
46.59610618688457
 30
0.0
  0
ELLIPSE
  5
DD
330
1F
100
AcDbEntity
  8
1
  6
SLD-Gestrichelt
 62
   131
420
  8454143
370
     0
100
AcDbEllipse
 10
143.2025816956
 20
44.3166320135
 30
0.0
 11
10.21005605635318
 21
0.5352494435539512
 31
0.0
210
0.0
220
0.0
230
1.0
 40
0.0174311288
 41
3.607569072852209
 42
3.80668214516335
  0
LINE
  5
DE
330
1F
100
AcDbEntity
  8
1
  6
SLD-Gestrichelt
 62
   131
420
  8454143
370
     0
100
AcDbLine
 10
133.850807023
 20
43.8297964708
 30
0.0
 11
135.1744388755
 21
43.8297964708
 31
0.0
  0
SPLINE
  5
DF
330
1F
100
AcDbEntity
  8
1
  6
SLD-Gestrichelt
 62
   131
420
  8454143
370
     0
100
AcDbSpline
210
0.0
220
0.0
230
1.0
 70
     8
 71
     3
 72
     8
 73
     4
 74
     0
 42
0.00000001
 43
0.00000001
 12
1.0
 22
0.0
 32
0.0
 13
1.0
 23
0.0
 33
0.0
 40
0.0
 40
0.0
 40
0.0
 40
0.0
 40
1.0
 40
1.0
 40
1.0
 40
1.0
 10
134.0852801417553
 20
43.75848675477983
 30
0.0
 10
134.0011705111195
 20
43.75699538132465
 30
0.0
 10
133.9231914356824
 20
43.78112954389951
 30
0.0
 10
133.8508070230131
 20
43.8297964708322
 30
0.0
  0
LINE
  5
E0
330
1F
100
AcDbEntity
  8
1
  6
SLD-Gestrichelt
 62
   131
420
  8454143
370
     0
100
AcDbLine
 10
151.4270224903
 20
46.5247964708
 30
0.0
 11
152.6797740944
 21
46.5247964708
 31
0.0
  0
LINE
  5
E1
330
1F
100
AcDbEntity
  8
1
  6
SLD-Gestrichelt
 62
   131
420
  8454143
370
     0
100
AcDbLine
 10
151.4270224903
 20
43.8297964708
 30
0.0
 11
152.6797740944
 21
43.8297964708
 31
0.0
  0
ELLIPSE
  5
E2
330
1F
100
AcDbEntity
  8
1
  6
SLD-Gestrichelt
 62
   131
420
  8454143
370
     0
100
AcDbEllipse
 10
143.2025816956
 20
46.0379609282
 30
0.0
 11
10.21004861027791
 21
0.4226619632130806
 31
0.0
210
0.0
220
0.0
230
1.0
 40
0.0365843486
 41
0.3796797858389269
 42
0.5787928581501933
  0
ELLIPSE
  5
E3
330
1F
100
AcDbEntity
  8
1
  6
SLD-Gestrichelt
 62
   131
420
  8454143
370
     0
100
AcDbEllipse
 10
143.2025816956
 20
44.3166320135
 30
0.0
 11
10.21004861027791
 21
-0.4226619632130735
 31
0.0
210
0.0
220
0.0
230
1.0
 40
0.0365843486
 41
5.704392449029672
 42
5.903505521340993
  0
ELLIPSE
  5
E4
330
1F
100
AcDbEntity
  8
1
  6
SLD-Gestrichelt
 62
   131
420
  8454143
370
     0
100
AcDbEllipse
 10
158.7268342819
 20
43.6648592033
 30
0.0
 11
6.999991972345669
 21
-0.2897763235455245
 31
0.0
210
0.0
220
0.0
230
1.0
 40
0.0365843486
 41
3.671009199371156
 42
3.860136132967543
  0
ELLIPSE
  5
E5
330
1F
100
AcDbEntity
  8
1
  6
SLD-Gestrichelt
 62
   131
420
  8454143
370
     0
100
AcDbEllipse
 10
158.7268342819
 20
46.6897337384
 30
0.0
 11
6.999991972345669
 21
0.2897763235455174
 31
0.0
210
0.0
220
0.0
230
1.0
 40
0.0365843486
 41
2.423049174212312
 42
2.612176107808743
  0
LINE
  5
E6
330
1F
100
AcDbEntity
  8
1
  6
SLD-Gestrichelt
 62
   131
420
  8454143
370
     0
100
AcDbLine
 10
152.6797740944
 20
43.7856325252
 30
0.0
 11
152.6797740944
 21
43.8297964708
 31
0.0
  0
LINE
  5
E7
330
1F
100
AcDbEntity
  8
1
  6
SLD-Gestrichelt
 62
   131
420
  8454143
370
     0
100
AcDbLine
 10
152.6797740944
 20
46.5247964708
 30
0.0
 11
152.6797740944
 21
46.5689604164
 31
0.0
  0
LINE
  5
E8
330
1F
100
AcDbEntity
  8
1
  6
SLD-Gestrichelt
 62
   131
420
  8454143
370
     0
100
AcDbLine
 10
135.2805416547
 20
46.4622505927
 30
0.0
 11
135.2211878325
 21
46.5247964708
 31
0.0
  0
LINE
  5
E9
330
1F
100
AcDbEntity
  8
1
  6
SLD-Gestrichelt
 62
   131
420
  8454143
370
     0
100
AcDbLine
 10
135.2805416547
 20
43.892342349
 30
0.0
 11
135.2211878325
 21
43.8297964708
 31
0.0
  0
LINE
  5
EA
330
1F
100
AcDbEntity
  8
1
  6
SLD-Gestrichelt
 62
   131
420
  8454143
370
     0
100
AcDbLine
 10
135.2805416547
 20
43.8297964708
 30
0.0
 11
135.2805416547
 21
43.892342349
 31
0.0
  0
LINE
  5
EB
330
1F
100
AcDbEntity
  8
1
  6
SLD-Gestrichelt
 62
   131
420
  8454143
370
     0
100
AcDbLine
 10
135.2805416547
 20
43.892342349
 30
0.0
 11
134.52408161
 21
43.8297964708
 31
0.0
  0
LINE
  5
EC
330
1F
100
AcDbEntity
  8
1
  6
SLD-Gestrichelt
 62
   131
420
  8454143
370
     0
100
AcDbLine
 10
134.52408161
 20
46.5247964708
 30
0.0
 11
135.2805416547
 21
46.4622505927
 31
0.0
  0
LINE
  5
ED
330
1F
100
AcDbEntity
  8
1
  6
SLD-Gestrichelt
 62
   131
420
  8454143
370
     0
100
AcDbLine
 10
135.2805416547
 20
46.4622505927
 30
0.0
 11
135.2805416547
 21
46.5247964708
 31
0.0
  0
LINE
  5
EE
330
1F
100
AcDbEntity
  8
1
  6
SLD-Gestrichelt
 62
   131
420
  8454143
370
     0
100
AcDbLine
 10
133.5917745019
 20
44.3835582676
 30
0.0
 11
133.5917745019
 21
45.971034674
 31
0.0
  0
ELLIPSE
  5
EF
330
1F
100
AcDbEntity
  8
1
  6
SLD-Gestrichelt
 62
   131
420
  8454143
370
     0
100
AcDbEllipse
 10
134.3595659015
 20
44.4171088588
 30
0.0
 11
0.7649199823160302
 21
0.08528226834388164
 31
0.0
210
0.0
220
0.0
230
1.0
 40
0.7778925302
 41
3.055080530192332
 42
4.355391951339404
  0
ELLIPSE
  5
F0
330
1F
100
AcDbEntity
  8
1
  6
SLD-Gestrichelt
 62
   131
420
  8454143
370
     0
100
AcDbEllipse
 10
134.3595659015
 20
45.9374840829
 30
0.0
 11
0.7649199823160302
 21
-0.08528226834388164
 31
0.0
210
0.0
220
0.0
230
1.0
 40
0.7778925302
 41
1.927793355840084
 42
3.228104776987284
  0
LINE
  5
F1
330
1F
100
AcDbEntity
  8
1
  6
SLD-Gestrichelt
 62
   131
420
  8454143
370
     0
100
AcDbLine
 10
151.9173592626
 20
43.8297964708
 30
0.0
 11
151.9173592626
 21
46.5247964708
 31
0.0
  0
LINE
  5
F2
330
1F
100
AcDbEntity
  8
1
  6
SLD-Gestrichelt
 62
   131
420
  8454143
370
     0
100
AcDbLine
 10
146.7120769846
 20
46.4622505927
 30
0.0
 11
146.7120769846
 21
46.5247964708
 31
0.0
  0
LINE
  5
F3
330
1F
100
AcDbEntity
  8
1
  6
SLD-Gestrichelt
 62
   131
420
  8454143
370
     0
100
AcDbLine
 10
146.7120769846
 20
46.4622505927
 30
0.0
 11
143.7969399975
 21
46.5247964708
 31
0.0
  0
LINE
  5
F4
330
1F
100
AcDbEntity
  8
1
  6
SLD-Gestrichelt
 62
   131
420
  8454143
370
     0
100
AcDbLine
 10
145.95561694
 20
46.5247964708
 30
0.0
 11
146.7120769846
 21
46.4622505927
 31
0.0
  0
LINE
  5
F5
330
1F
100
AcDbEntity
  8
1
  6
SLD-Gestrichelt
 62
   131
420
  8454143
370
     0
100
AcDbLine
 10
146.7120769846
 20
43.8297964708
 30
0.0
 11
146.7120769846
 21
43.892342349
 31
0.0
  0
LINE
  5
F6
330
1F
100
AcDbEntity
  8
1
  6
SLD-Gestrichelt
 62
   131
420
  8454143
370
     0
100
AcDbLine
 10
146.7120769846
 20
43.892342349
 30
0.0
 11
143.7969399975
 21
43.8297964708
 31
0.0
  0
LINE
  5
F7
330
1F
100
AcDbEntity
  8
1
  6
SLD-Gestrichelt
 62
   131
420
  8454143
370
     0
100
AcDbLine
 10
146.7120769846
 20
43.892342349
 30
0.0
 11
145.95561694
 21
43.8297964708
 31
0.0
  0
LINE
  5
F8
330
1F
100
AcDbEntity
  8
1
  6
SLD-Gestrichelt
 62
   131
420
  8454143
370
     0
100
AcDbLine
 10
140.4858239326
 20
43.8297964708
 30
0.0
 11
140.4858239326
 21
46.5247964708
 31
0.0
  0
LINE
  5
F9
330
1F
100
AcDbEntity
  8
1
  6
SLD-Gestrichelt
 62
   131
420
  8454143
370
     0
100
AcDbLine
 10
142.4858239326
 20
46.0464493512
 30
0.0
 11
145.0233098319
 21
45.971034674
 31
0.0
  0
SPLINE
  5
FA
330
1F
100
AcDbEntity
  8
1
  6
SLD-Gestrichelt
 62
   131
420
  8454143
370
     0
100
AcDbSpline
210
0.0
220
0.0
230
1.0
 70
     8
 71
     3
 72
    16
 73
    12
 74
     0
 42
0.00000001
 43
0.00000001
 12
1.0
 22
0.0
 32
0.0
 13
1.0
 23
0.0
 33
0.0
 40
0.0
 40
0.0
 40
0.0
 40
0.0
 40
0.0725081564387543
 40
0.1895798760657595
 40
0.3066932914459539
 40
0.4237837582444288
 40
0.5395479027290914
 40
0.6552609141371523
 40
0.7639634684806542
 40
0.8726266211286529
 40
1.0
 40
1.0
 40
1.0
 40
1.0
 10
142.3117915262929
 20
46.63889697194486
 30
0.0
 10
142.319201653235
 20
46.6388321513936
 30
0.0
 10
142.3385761762721
 20
46.63866267153534
 30
0.0
 10
142.3675348842446
 20
46.61742264246592
 30
0.0
 10
142.3977534114225
 20
46.57762294409547
 30
0.0
 10
142.4241509046823
 20
46.5202744079853
 30
0.0
 10
142.4461957704583
 20
46.44722382339374
 30
0.0
 10
142.4634421257922
 20
46.36241934232564
 30
0.0
 10
142.4756728913195
 20
46.26829865618899
 30
0.0
 10
142.4841115610265
 20
46.16297935690758
 30
0.0
 10
142.4852237548455
 20
46.0872925426828
 30
0.0
 10
142.485823932639
 20
46.04644935115746
 30
0.0
  0
ELLIPSE
  5
FB
330
1F
100
AcDbEntity
  8
1
  6
SLD-Gestrichelt
 62
   131
420
  8454143
370
     0
100
AcDbEllipse
 10
145.7911012314
 20
45.9374840829
 30
0.0
 11
0.7649199823160585
 21
-0.08528226834386743
 31
0.0
210
0.0
220
0.0
230
1.0
 40
0.7778925302
 41
1.927793355840163
 42
3.228104776987244
  0
LINE
  5
FC
330
1F
100
AcDbEntity
  8
1
  6
SLD-Gestrichelt
 62
   131
420
  8454143
370
     0
100
AcDbLine
 10
145.0233098319
 20
44.3835582676
 30
0.0
 11
142.4858239326
 21
44.3081435905
 31
0.0
  0
SPLINE
  5
FD
330
1F
100
AcDbEntity
  8
1
  6
SLD-Gestrichelt
 62
   131
420
  8454143
370
     0
100
AcDbSpline
210
0.0
220
0.0
230
1.0
 70
     8
 71
     3
 72
    12
 73
     8
 74
     0
 42
0.00000001
 43
0.00000001
 12
1.0
 22
0.0
 32
0.0
 13
1.0
 23
0.0
 33
0.0
 40
0.0
 40
0.0
 40
0.0
 40
0.0
 40
0.1970685337486205
 40
0.3938942625906514
 40
0.5974578601808866
 40
0.8163209738510157
 40
1.0
 40
1.0
 40
1.0
 40
1.0
 10
142.485823932639
 20
44.30814359050694
 30
0.0
 10
142.484355683457
 20
44.2450002142003
 30
0.0
 10
142.4814209940988
 20
44.11879125950483
 30
0.0
 10
142.4579374439402
 20
43.94920991125039
 30
0.0
 10
142.4201320199791
 20
43.81513584796416
 30
0.0
 10
142.3705903989745
 20
43.72791696127666
 30
0.0
 10
142.3298964401691
 20
43.72181797711693
 30
0.0
 10
142.3113278830315
 20
43.71903502507255
 30
0.0
  0
ELLIPSE
  5
FE
330
1F
100
AcDbEntity
  8
1
  6
SLD-Gestrichelt
 62
   131
420
  8454143
370
     0
100
AcDbEllipse
 10
145.7911012314
 20
44.4171088588
 30
0.0
 11
0.7649199823160585
 21
0.08528226834386743
 31
0.0
210
0.0
220
0.0
230
1.0
 40
0.7778925302
 41
3.05508053019236
 42
4.355391951339394
  0
LINE
  5
FF
330
1F
100
AcDbEntity
  8
1
  6
SLD-Gestrichelt
 62
   131
420
  8454143
370
     0
100
AcDbLine
 10
142.4858239326
 20
44.3081435905
 30
0.0
 11
142.4858239326
 21
46.0464493512
 31
0.0
  0
LINE
  5
100
330
1F
100
AcDbEntity
  8
1
  6
SLD-Gestrichelt
 62
   131
420
  8454143
370
     0
100
AcDbLine
 10
145.0233098319
 20
44.3835582676
 30
0.0
 11
145.0233098319
 21
45.971034674
 31
0.0
  0
LINE
  5
101
330
1F
100
AcDbEntity
  8
1
  6
SLD-Gestrichelt
 62
   131
420
  8454143
370
     0
100
AcDbLine
 10
140.6525816956
 20
46.5247964708
 30
0.0
 11
140.6525816956
 21
43.8297964708
 31
0.0
  0
LINE
  5
102
330
1F
100
AcDbEntity
  8
1
  6
SLD-Gestrichelt
 62
   131
420
  8454143
370
     0
100
AcDbLine
 10
145.7525816956
 20
43.8297964708
 30
0.0
 11
145.7525816956
 21
46.5247964708
 31
0.0
  0
DIMENSION
  5
103
330
1F
100
AcDbEntity
  8
2
 62
     7
420
 16777215
100
AcDbDimension
  2
_D_2
 10
133.8045498956
 20
44.3119376874
 30
0.0
 11
127.1712798132
 21
37.6786676049
 31
0.0
 70
   164
  1
<>
 71
     1
 42
-1.0
 73
     0
 74
     0
 75
     0
  3
SLDDIMSTYLE2
100
AcDbRadialDimension
 15
133.3802858269
 25
43.8876736187
 35
0.0
 40
0.0
  0
DIMENSION
  5
10C
330
1F
100
AcDbEntity
  8
2
 62
     7
420
 16777215
100
AcDbDimension
  2
_D_3
 10
159.9575691907
 20
43.713510977
 30
0.0
 11
159.9575691907
 21
32.8947607334
 31
0.0
 70
   160
  1
<>
 71
     2
 42
-1.0
 73
     0
 74
     0
 75
     0
  3
SLDDIMSTYLE1
100
AcDbAlignedDimension
 13
153.4670306367
 23
46.6410819647
 33
0.0
 14
153.4670306367
 24
43.713510977
 34
0.0
 50
90.0
100
AcDbRotatedDimension
  0
ENDSEC
  0
SECTION
  2
OBJECTS
  0
DICTIONARY
  5
C
330
0
100
AcDbDictionary
281
     1
  3
ACAD_GROUP
350
D
  3
ACAD_LAYOUT
350
1A
  3
ACAD_MATERIAL
350
3B
  3
ACAD_MLEADERSTYLE
350
119
  3
ACAD_MLINESTYLE
350
17
  3
ACAD_PLOTSETTINGS
350
19
  3
ACAD_PLOTSTYLENAME
350
E
  3
ACAD_TABLESTYLE
350
118
  3
ACAD_VISUALSTYLE
350
2A
  0
DICTIONARY
  5
D
102
{ACAD_REACTORS
330
C
102
}
330
C
100
AcDbDictionary
281
     1
  0
DICTIONARY
  5
1A
102
{ACAD_REACTORS
330
C
102
}
330
C
100
AcDbDictionary
281
     1
  3
Layout1
350
1E
  3
Layout2
350
26
  3
Model
350
22
  0
DICTIONARY
  5
3B
102
{ACAD_REACTORS
330
C
102
}
330
C
100
AcDbDictionary
281
     1
  3
ByBlock
350
3D
  3
ByLayer
350
3C
  3
Global
350
3E
  0
DICTIONARY
  5
119
102
{ACAD_REACTORS
330
C
102
}
330
C
100
AcDbDictionary
281
     1
  0
DICTIONARY
  5
17
102
{ACAD_REACTORS
330
C
102
}
330
C
100
AcDbDictionary
281
     1
  3
Standard
350
18
  0
DICTIONARY
  5
19
102
{ACAD_REACTORS
330
C
102
}
330
C
100
AcDbDictionary
281
     1
  0
ACDBDICTIONARYWDFLT
  5
E
102
{ACAD_REACTORS
330
C
102
}
330
C
100
AcDbDictionary
281
     1
  3
Normal
350
F
100
AcDbDictionaryWithDefault
340
F
  0
DICTIONARY
  5
118
102
{ACAD_REACTORS
330
C
102
}
330
C
100
AcDbDictionary
281
     1
  0
DICTIONARY
  5
2A
102
{ACAD_REACTORS
330
C
102
}
330
C
100
AcDbDictionary
281
     1
  3
2dWireframe
350
2F
  3
3D Hidden
350
31
  3
3dWireframe
350
30
  3
Basic
350
32
  3
Brighten
350
36
  3
ColorChange
350
3A
  3
Conceptual
350
34
  3
Dim
350
35
  3
Facepattern
350
39
  3
Flat
350
2B
  3
FlatWithEdges
350
2C
  3
Gouraud
350
2D
  3
GouraudWithEdges
350
2E
  3
Linepattern
350
38
  3
Realistic
350
33
  3
Thicken
350
37
  0
LAYOUT
  5
1E
102
{ACAD_REACTORS
330
1A
102
}
330
1A
100
AcDbPlotSettings
  1

  2
none_device
  4

  6

 40
0.0
 41
0.0
 42
0.0
 43
0.0
 44
0.0
 45
0.0
 46
0.0
 47
0.0
 48
0.0
 49
0.0
140
0.0
141
0.0
142
1.0
143
1.0
 70
   688
 72
     0
 73
     0
 74
     5
  7

 75
    16
 76
     0
 77
     2
 78
   300
147
1.0
148
0.0
149
0.0
100
AcDbLayout
  1
Layout1
 70
     1
 71
     1
 10
0.0
 20
0.0
 11
420.0
 21
297.0
 12
0.0
 22
0.0
 32
0.0
 14
1.0000000000E+20
 24
1.0000000000E+20
 34
1.0000000000E+20
 15
-1.0000000000E+20
 25
-1.0000000000E+20
 35
-1.0000000000E+20
146
0.0
 13
0.0
 23
0.0
 33
0.0
 16
1.0
 26
0.0
 36
0.0
 17
0.0
 27
1.0
 37
0.0
 76
     0
330
1B
  0
LAYOUT
  5
26
102
{ACAD_REACTORS
330
1A
102
}
330
1A
100
AcDbPlotSettings
  1

  2
none_device
  4

  6

 40
0.0
 41
0.0
 42
0.0
 43
0.0
 44
0.0
 45
0.0
 46
0.0
 47
0.0
 48
0.0
 49
0.0
140
0.0
141
0.0
142
1.0
143
1.0
 70
   688
 72
     0
 73
     0
 74
     5
  7

 75
    16
 76
     0
 77
     2
 78
   300
147
1.0
148
0.0
149
0.0
100
AcDbLayout
  1
Layout2
 70
     1
 71
     2
 10
0.0
 20
0.0
 11
0.0
 21
0.0
 12
0.0
 22
0.0
 32
0.0
 14
0.0
 24
0.0
 34
0.0
 15
0.0
 25
0.0
 35
0.0
146
0.0
 13
0.0
 23
0.0
 33
0.0
 16
1.0
 26
0.0
 36
0.0
 17
0.0
 27
1.0
 37
0.0
 76
     0
330
23
  0
LAYOUT
  5
22
102
{ACAD_REACTORS
330
1A
102
}
330
1A
100
AcDbPlotSettings
  1

  2
none_device
  4

  6

 40
0.0
 41
0.0
 42
0.0
 43
0.0
 44
0.0
 45
0.0
 46
0.0
 47
0.0
 48
0.0
 49
0.0
140
0.0
141
0.0
142
1.0
143
1.0
 70
  1712
 72
     0
 73
     0
 74
     0
  7

 75
     0
 76
     0
 77
     2
 78
   300
147
1.0
148
0.0
149
0.0
100
AcDbLayout
  1
Model
 70
     1
 71
     0
 10
0.0
 20
0.0
 11
297.0
 21
210.0
 12
0.0
 22
0.0
 32
0.0
 14
0.0
 24
0.0
 34
0.0
 15
297.0
 25
210.0
 35
0.0
146
0.0
 13
0.0
 23
0.0
 33
0.0
 16
1.0
 26
0.0
 36
0.0
 17
0.0
 27
1.0
 37
0.0
 76
     0
330
1F
331
29
  0
MATERIAL
  5
3D
102
{ACAD_REACTORS
330
3B
102
}
330
3B
100
AcDbMaterial
  1
ByBlock
 72
     1
 94
      127
  0
MATERIAL
  5
3C
102
{ACAD_REACTORS
330
3B
102
}
330
3B
100
AcDbMaterial
  1
ByLayer
 72
     1
 94
      127
  0
MATERIAL
  5
3E
102
{ACAD_REACTORS
330
3B
102
}
330
3B
100
AcDbMaterial
  1
Global
 72
     1
 94
      127
  0
MLINESTYLE
  5
18
102
{ACAD_REACTORS
330
17
102
}
330
17
100
AcDbMlineStyle
  2
Standard
 70
     0
  3

 62
   256
 51
90.0
 52
90.0
 71
     2
 49
0.5
 62
   256
  6
BYLAYER
 49
-0.5
 62
   256
  6
BYLAYER
  0
ACDBPLACEHOLDER
  5
F
102
{ACAD_REACTORS
330
E
102
}
330
E
  0
VISUALSTYLE
  5
2F
102
{ACAD_REACTORS
330
2A
102
}
330
2A
100
AcDbVisualStyle
  2
2dWireframe
 70
     4
 71
     0
 72
     2
 73
     0
 90
        0
 40
-0.6
 41
-30.0
 62
     5
 63
     7
421
 16777215
 74
     1
 91
        4
 64
     7
 65
   257
 75
     1
175
     1
 42
1.0
 92
        0
 66
   257
 43
1.0
 76
     1
 77
     6
 78
     2
 67
     7
 79
     5
170
     0
171
     0
290
     0
174
     0
 93
        1
 44
0.0
173
     0
291
     0
 45
0.0
  0
VISUALSTYLE
  5
31
102
{ACAD_REACTORS
330
2A
102
}
330
2A
100
AcDbVisualStyle
  2
3D Hidden
 70
     6
 71
     1
 72
     2
 73
     2
 90
        0
 40
-0.6
 41
-30.0
 62
     5
 63
     7
421
 16777215
 74
     2
 91
        2
 64
     7
 65
   257
 75
     2
175
     1
 42
40.0
 92
        0
 66
   257
 43
1.0
 76
     1
 77
     6
 78
     2
 67
     7
 79
     3
170
     0
171
     0
290
     0
174
     0
 93
        1
 44
0.0
173
     0
291
     0
 45
0.0
  0
VISUALSTYLE
  5
30
102
{ACAD_REACTORS
330
2A
102
}
330
2A
100
AcDbVisualStyle
  2
3dWireframe
 70
     5
 71
     0
 72
     2
 73
     0
 90
        0
 40
-0.6
 41
-30.0
 62
     5
 63
     7
421
 16777215
 74
     1
 91
        4
 64
     7
 65
   257
 75
     1
175
     1
 42
1.0
 92
        0
 66
   257
 43
1.0
 76
     1
 77
     6
 78
     2
 67
     7
 79
     5
170
     0
171
     0
290
     0
174
     0
 93
        1
 44
0.0
173
     0
291
     0
 45
0.0
  0
VISUALSTYLE
  5
32
102
{ACAD_REACTORS
330
2A
102
}
330
2A
100
AcDbVisualStyle
  2
Basic
 70
     7
 71
     1
 72
     0
 73
     1
 90
        0
 40
-0.6
 41
-30.0
 62
     5
 63
     7
421
 16777215
 74
     0
 91
        4
 64
     7
 65
   257
 75
     1
175
     1
 42
1.0
 92
        8
 66
     7
 43
1.0
 76
     1
 77
     6
 78
     2
 67
     7
 79
     5
170
     0
171
     0
290
     0
174
     0
 93
        1
 44
0.0
173
     0
291
     1
 45
0.0
  0
VISUALSTYLE
  5
36
102
{ACAD_REACTORS
330
2A
102
}
330
2A
100
AcDbVisualStyle
  2
Brighten
 70
    12
 71
     2
 72
     2
 73
     0
 90
        0
 40
-0.6
 41
-30.0
 62
     5
 63
     7
421
 16777215
 74
     1
 91
        4
 64
     7
 65
   257
 75
     1
175
     1
 42
1.0
 92
        8
 66
     7
 43
1.0
 76
     1
 77
     6
 78
     2
 67
     7
 79
     5
170
     0
171
     0
290
     0
174
     0
 93
        1
 44
50.0
173
     0
291
     1
 45
0.0
  0
VISUALSTYLE
  5
3A
102
{ACAD_REACTORS
330
2A
102
}
330
2A
100
AcDbVisualStyle
  2
ColorChange
 70
    16
 71
     2
 72
     2
 73
     3
 90
        0
 40
-0.6
 41
-30.0
 62
     5
 63
     8
421
  8421504
 74
     1
 91
        4
 64
     7
 65
   257
 75
     1
175
     1
 42
1.0
 92
        8
 66
     8
424
  8421504
 43
1.0
 76
     1
 77
     6
 78
     2
 67
     7
 79
     5
170
     0
171
     0
290
     0
174
     0
 93
        1
 44
0.0
173
     0
291
     1
 45
0.0
  0
VISUALSTYLE
  5
34
102
{ACAD_REACTORS
330
2A
102
}
330
2A
100
AcDbVisualStyle
  2
Conceptual
 70
     9
 71
     3
 72
     2
 73
     0
 90
        0
 40
-0.6
 41
-30.0
 62
     5
 63
     7
421
 16777215
 74
     2
 91
        2
 64
     7
 65
   257
 75
     1
175
     1
 42
40.0
 92
        8
 66
     7
 43
1.0
 76
     1
 77
     6
 78
     2
 67
     7
 79
     3
170
     0
171
     0
290
     0
174
     0
 93
        1
 44
0.0
173
     0
291
     0
 45
0.0
  0
VISUALSTYLE
  5
35
102
{ACAD_REACTORS
330
2A
102
}
330
2A
100
AcDbVisualStyle
  2
Dim
 70
    11
 71
     2
 72
     2
 73
     0
 90
        0
 40
-0.6
 41
-30.0
 62
     5
 63
     7
421
 16777215
 74
     1
 91
        4
 64
     7
 65
   257
 75
     1
175
     1
 42
1.0
 92
        8
 66
     7
 43
1.0
 76
     1
 77
     6
 78
     2
 67
     7
 79
     5
170
     0
171
     0
290
     0
174
     0
 93
        1
 44
-50.0
173
     0
291
     1
 45
0.0
  0
VISUALSTYLE
  5
39
102
{ACAD_REACTORS
330
2A
102
}
330
2A
100
AcDbVisualStyle
  2
Facepattern
 70
    15
 71
     2
 72
     2
 73
     0
 90
        0
 40
-0.6
 41
-30.0
 62
     5
 63
     7
421
 16777215
 74
     1
 91
        4
 64
     7
 65
   257
 75
     1
175
     1
 42
1.0
 92
        8
 66
     7
 43
1.0
 76
     1
 77
     6
 78
     2
 67
     7
 79
     5
170
     0
171
     0
290
     0
174
     0
 93
        1
 44
0.0
173
     0
291
     1
 45
0.0
  0
VISUALSTYLE
  5
2B
102
{ACAD_REACTORS
330
2A
102
}
330
2A
100
AcDbVisualStyle
  2
Flat
 70
     0
 71
     2
 72
     1
 73
     1
 90
        2
 40
-0.6
 41
30.0
 62
     5
 63
     7
421
 16777215
 74
     0
 91
        4
 64
     7
 65
   257
 75
     1
175
     1
 42
1.0
 92
        8
 66
     7
 43
1.0
 76
     1
 77
     6
 78
     2
 67
     7
 79
     5
170
     0
171
     0
290
     0
174
     0
 93
       13
 44
0.0
173
     0
291
     1
 45
0.0
  0
VISUALSTYLE
  5
2C
102
{ACAD_REACTORS
330
2A
102
}
330
2A
100
AcDbVisualStyle
  2
FlatWithEdges
 70
     1
 71
     2
 72
     1
 73
     1
 90
        2
 40
-0.6
 41
30.0
 62
     5
 63
     7
421
 16777215
 74
     1
 91
        4
 64
     7
 65
   257
 75
     1
175
     1
 42
1.0
 92
        0
 66
   257
 43
1.0
 76
     1
 77
     6
 78
     2
 67
     7
 79
     5
170
     0
171
     0
290
     0
174
     0
 93
       13
 44
0.0
173
     0
291
     1
 45
0.0
  0
VISUALSTYLE
  5
2D
102
{ACAD_REACTORS
330
2A
102
}
330
2A
100
AcDbVisualStyle
  2
Gouraud
 70
     2
 71
     2
 72
     2
 73
     1
 90
        2
 40
-0.6
 41
30.0
 62
     5
 63
     7
421
 16777215
 74
     0
 91
        4
 64
     7
 65
   257
 75
     1
175
     1
 42
1.0
 92
        0
 66
     7
 43
1.0
 76
     1
 77
     6
 78
     2
 67
     7
 79
     5
170
     0
171
     0
290
     0
174
     0
 93
       13
 44
0.0
173
     0
291
     1
 45
0.0
  0
VISUALSTYLE
  5
2E
102
{ACAD_REACTORS
330
2A
102
}
330
2A
100
AcDbVisualStyle
  2
GouraudWithEdges
 70
     3
 71
     2
 72
     2
 73
     1
 90
        2
 40
-0.6
 41
30.0
 62
     5
 63
     7
421
 16777215
 74
     1
 91
        4
 64
     7
 65
   257
 75
     1
175
     1
 42
1.0
 92
        0
 66
   257
 43
1.0
 76
     1
 77
     6
 78
     2
 67
     7
 79
     5
170
     0
171
     0
290
     0
174
     0
 93
       13
 44
0.0
173
     0
291
     1
 45
0.0
  0
VISUALSTYLE
  5
38
102
{ACAD_REACTORS
330
2A
102
}
330
2A
100
AcDbVisualStyle
  2
Linepattern
 70
    14
 71
     2
 72
     2
 73
     0
 90
        0
 40
-0.6
 41
-30.0
 62
     5
 63
     7
421
 16777215
 74
     1
 91
        4
 64
     7
 65
   257
 75
     7
175
     7
 42
1.0
 92
        8
 66
     7
 43
1.0
 76
     1
 77
     6
 78
     2
 67
     7
 79
     5
170
     0
171
     0
290
     0
174
     0
 93
        1
 44
0.0
173
     0
291
     1
 45
0.0
  0
VISUALSTYLE
  5
33
102
{ACAD_REACTORS
330
2A
102
}
330
2A
100
AcDbVisualStyle
  2
Realistic
 70
     8
 71
     2
 72
     2
 73
     0
 90
        0
 40
-0.6
 41
-30.0
 62
     5
 63
     7
421
 16777215
 74
     1
 91
        0
 64
     7
 65
   257
 75
     1
175
     1
 42
1.0
 92
        8
 66
     8
424
  7895160
 43
1.0
 76
     1
 77
     6
 78
     2
 67
     7
 79
     5
170
     0
171
     0
290
     0
174
     0
 93
       13
 44
0.0
173
     0
291
     0
 45
0.0
  0
VISUALSTYLE
  5
37
102
{ACAD_REACTORS
330
2A
102
}
330
2A
100
AcDbVisualStyle
  2
Thicken
 70
    13
 71
     2
 72
     2
 73
     0
 90
        0
 40
-0.6
 41
-30.0
 62
     5
 63
     7
421
 16777215
 74
     1
 91
        4
 64
     7
 65
   257
 75
     1
175
     1
 42
1.0
 92
       12
 66
     7
 43
1.0
 76
     1
 77
     6
 78
     2
 67
     7
 79
     5
170
     0
171
     0
290
     0
174
     0
 93
        1
 44
0.0
173
     0
291
     1
 45
0.0
  0
ENDSEC
  0
EOF
