  0
SECTION
  2
HEADER
  9
$ACADVER
  1
AC1018
  9
$ACADMAINTVER
 70
     0
  9
$DWGCODEPAGE
  3
ANSI_1252
  9
$INSBASE
 10
0.0
 20
0.0
 30
0.0
  9
$EXTMIN
 10
0.0
 20
0.0
 30
0.0
  9
$EXTMAX
 10
297.0
 20
210.0
 30
0.0
  9
$LIMMIN
 10
0.0
 20
0.0
  9
$LIMMAX
 10
297.0
 20
210.0
  9
$ORTHOMODE
 70
     0
  9
$REGENMODE
 70
     1
  9
$FILLMODE
 70
     1
  9
$QTEXTMODE
 70
     0
  9
$MIRRTEXT
 70
     1
  9
$LTSCALE
 40
1.0
  9
$ATTMODE
 70
     1
  9
$TEXTSIZE
 40
3.5
  9
$TRACEWID
 40
1.0
  9
$TEXTSTYLE
  7
Standard
  9
$CLAYER
  8
0
  9
$CELTYPE
  6
ByLayer
  9
$CECOLOR
 62
   256
  9
$CELTSCALE
 40
1.0
  9
$DISPSILH
 70
     0
  9
$DIMSCALE
 40
1.0
  9
$DIMASZ
 40
3.302
  9
$DIMEXO
 40
1.0
  9
$DIMDLI
 40
3.75
  9
$DIMRND
 40
0.0
  9
$DIMDLE
 40
0.0
  9
$DIMEXE
 40
1.0
  9
$DIMTP
 40
0.0
  9
$DIMTM
 40
0.0
  9
$DIMTXT
 40
3.5
  9
$DIMCEN
 40
2.5
  9
$DIMTSZ
 40
0.0
  9
$DIMTOL
 70
     0
  9
$DIMLIM
 70
     0
  9
$DIMTIH
 70
     1
  9
$DIMTOH
 70
     1
  9
$DIMSE1
 70
     0
  9
$DIMSE2
 70
     0
  9
$DIMTAD
 70
     1
  9
$DIMZIN
 70
     0
  9
$DIMBLK
  1

  9
$DIMASO
 70
     1
  9
$DIMSHO
 70
     1
  9
$DIMPOST
  1

  9
$DIMAPOST
  1

  9
$DIMALT
 70
     0
  9
$DIMALTD
 70
     3
  9
$DIMALTF
 40
0.0393700787
  9
$DIMLFAC
 40
1.0
  9
$DIMTOFL
 70
     1
  9
$DIMTVP
 40
0.0
  9
$DIMTIX
 70
     0
  9
$DIMSOXD
 70
     0
  9
$DIMSAH
 70
     0
  9
$DIMBLK1
  1

  9
$DIMBLK2
  1

  9
$DIMSTYLE
  2
ISO-25
  9
$DIMCLRD
 70
     0
  9
$DIMCLRE
 70
     0
  9
$DIMCLRT
 70
     0
  9
$DIMTFAC
 40
1.0
  9
$DIMGAP
 40
1.524
  9
$DIMJUST
 70
     0
  9
$DIMSD1
 70
     0
  9
$DIMSD2
 70
     0
  9
$DIMTOLJ
 70
     0
  9
$DIMTZIN
 70
     0
  9
$DIMALTZ
 70
     0
  9
$DIMALTTZ
 70
     0
  9
$DIMUPT
 70
     0
  9
$DIMDEC
 70
     2
  9
$DIMTDEC
 70
     2
  9
$DIMALTU
 70
     2
  9
$DIMALTTD
 70
     3
  9
$DIMTXSTY
  7
Standard
  9
$DIMAUNIT
 70
     0
  9
$DIMADEC
 70
     2
  9
$DIMALTRND
 40
0.0
  9
$DIMAZIN
 70
     0
  9
$DIMDSEP
 70
    44
  9
$DIMATFIT
 70
     3
  9
$DIMFRAC
 70
     0
  9
$DIMLDRBLK
  1

  9
$DIMLUNIT
 70
     2
  9
$DIMLWD
 70
    -2
  9
$DIMLWE
 70
    -2
  9
$DIMTMOVE
 70
     0
  9
$LUNITS
 70
     2
  9
$LUPREC
 70
     2
  9
$SKETCHINC
 40
1.0
  9
$FILLETRAD
 40
10.0
  9
$AUNITS
 70
     0
  9
$AUPREC
 70
     2
  9
$MENU
  1
.
  9
$ELEVATION
 40
0.0
  9
$PELEVATION
 40
0.0
  9
$THICKNESS
 40
0.0
  9
$LIMCHECK
 70
     0
  9
$CHAMFERA
 40
0.0
  9
$CHAMFERB
 40
0.0
  9
$CHAMFERC
 40
0.0
  9
$CHAMFERD
 40
0.0
  9
$SKPOLY
 70
     0
  9
$TDCREATE
 40
2457109.623002268
  9
$TDUCREATE
 40
2457109.581335602
  9
$TDUPDATE
 40
2457109.623002789
  9
$TDUUPDATE
 40
2457109.581336122
  9
$TDINDWG
 40
0.0000000116
  9
$TDUSRTIMER
 40
0.0000000116
  9
$USRTIMER
 70
     1
  9
$ANGBASE
 50
0.0
  9
$ANGDIR
 70
     0
  9
$PDMODE
 70
     0
  9
$PDSIZE
 40
-1.0
  9
$PLINEWID
 40
0.0
  9
$SPLFRAME
 70
     0
  9
$SPLINETYPE
 70
     6
  9
$SPLINESEGS
 70
     8
  9
$HANDSEED
  5
172
  9
$SURFTAB1
 70
     6
  9
$SURFTAB2
 70
     6
  9
$SURFTYPE
 70
     6
  9
$SURFU
 70
     6
  9
$SURFV
 70
     6
  9
$UCSBASE
  2

  9
$UCSNAME
  2

  9
$UCSORG
 10
0.0
 20
0.0
 30
0.0
  9
$UCSXDIR
 10
1.0
 20
0.0
 30
0.0
  9
$UCSYDIR
 10
0.0
 20
1.0
 30
0.0
  9
$UCSORTHOREF
  2

  9
$UCSORTHOVIEW
 70
     0
  9
$UCSORGTOP
 10
0.0
 20
0.0
 30
0.0
  9
$UCSORGBOTTOM
 10
0.0
 20
0.0
 30
0.0
  9
$UCSORGLEFT
 10
0.0
 20
0.0
 30
0.0
  9
$UCSORGRIGHT
 10
0.0
 20
0.0
 30
0.0
  9
$UCSORGFRONT
 10
0.0
 20
0.0
 30
0.0
  9
$UCSORGBACK
 10
0.0
 20
0.0
 30
0.0
  9
$PUCSBASE
  2

  9
$PUCSNAME
  2

  9
$PUCSORG
 10
0.0
 20
0.0
 30
0.0
  9
$PUCSXDIR
 10
1.0
 20
0.0
 30
0.0
  9
$PUCSYDIR
 10
0.0
 20
1.0
 30
0.0
  9
$PUCSORTHOREF
  2

  9
$PUCSORTHOVIEW
 70
     0
  9
$PUCSORGTOP
 10
0.0
 20
0.0
 30
0.0
  9
$PUCSORGBOTTOM
 10
0.0
 20
0.0
 30
0.0
  9
$PUCSORGLEFT
 10
0.0
 20
0.0
 30
0.0
  9
$PUCSORGRIGHT
 10
0.0
 20
0.0
 30
0.0
  9
$PUCSORGFRONT
 10
0.0
 20
0.0
 30
0.0
  9
$PUCSORGBACK
 10
0.0
 20
0.0
 30
0.0
  9
$USERI1
 70
     0
  9
$USERI2
 70
     0
  9
$USERI3
 70
     0
  9
$USERI4
 70
     0
  9
$USERI5
 70
     0
  9
$USERR1
 40
0.0
  9
$USERR2
 40
0.0
  9
$USERR3
 40
0.0
  9
$USERR4
 40
0.0
  9
$USERR5
 40
0.0
  9
$WORLDVIEW
 70
     1
  9
$SHADEDGE
 70
     3
  9
$SHADEDIF
 70
    70
  9
$TILEMODE
 70
     1
  9
$MAXACTVP
 70
    64
  9
$PINSBASE
 10
0.0
 20
0.0
 30
0.0
  9
$PLIMCHECK
 70
     0
  9
$PEXTMIN
 10
1.0000000000E+20
 20
1.0000000000E+20
 30
1.0000000000E+20
  9
$PEXTMAX
 10
-1.0000000000E+20
 20
-1.0000000000E+20
 30
-1.0000000000E+20
  9
$PLIMMIN
 10
0.0
 20
0.0
  9
$PLIMMAX
 10
420.0
 20
297.0
  9
$UNITMODE
 70
     0
  9
$VISRETAIN
 70
     1
  9
$PLINEGEN
 70
     0
  9
$PSLTSCALE
 70
     1
  9
$TREEDEPTH
 70
  3020
  9
$CMLSTYLE
  2
Standard
  9
$CMLJUST
 70
     0
  9
$CMLSCALE
 40
20.0
  9
$PROXYGRAPHICS
 70
     1
  9
$MEASUREMENT
 70
     1
  9
$CELWEIGHT
370
    -1
  9
$ENDCAPS
280
     0
  9
$JOINSTYLE
280
     0
  9
$LWDISPLAY
290
     1
  9
$INSUNITS
 70
     4
  9
$HYPERLINKBASE
  1

  9
$STYLESHEET
  1

  9
$XEDIT
290
     1
  9
$CEPSNTYPE
380
     0
  9
$PSTYLEMODE
290
     1
  9
$FINGERPRINTGUID
  2
{8575C923-4EA9-42EE-A55B-5980D0D41858}
  9
$VERSIONGUID
  2
{FAEB1C32-E019-11D5-929B-00C0DF256EC4}
  9
$EXTNAMES
290
     1
  9
$PSVPSCALE
 40
0.0
  9
$OLESTARTUP
290
     0
  9
$SORTENTS
280
   127
  9
$INDEXCTL
280
     0
  9
$HIDETEXT
280
     1
  9
$XCLIPFRAME
290
     0
  9
$HALOGAP
280
     0
  9
$OBSCOLOR
 70
   257
  9
$OBSLTYPE
280
     0
  9
$INTERSECTIONDISPLAY
280
     0
  9
$INTERSECTIONCOLOR
 70
   257
  9
$DIMASSOC
280
     2
  9
$PROJECTNAME
  1

  0
ENDSEC
  0
SECTION
  2
CLASSES
  0
CLASS
  1
ACDBDICTIONARYWDFLT
  2
AcDbDictionaryWithDefault
  3
ObjectDBX Classes
 90
        0
 91
        4
280
     0
281
     0
  0
CLASS
  1
VISUALSTYLE
  2
AcDbVisualStyle
  3
ObjectDBX Classes
 90
     4095
 91
        4
280
     0
281
     0
  0
CLASS
  1
MATERIAL
  2
AcDbMaterial
  3
ObjectDBX Classes
 90
     1153
 91
        4
280
     0
281
     0
  0
CLASS
  1
SCALE
  2
AcDbScale
  3
ObjectDBX Classes
 90
     1153
 91
        4
280
     0
281
     0
  0
CLASS
  1
TABLESTYLE
  2
AcDbTableStyle
  3
ObjectDBX Classes
 90
     4095
 91
        4
280
     0
281
     0
  0
CLASS
  1
MLEADERSTYLE
  2
AcDbMLeaderStyle
  3
ACDB_MLEADERSTYLE_CLASS
 90
     4095
 91
        4
280
     0
281
     0
  0
CLASS
  1
SUN
  2
AcDbSun
  3
SCENEOE
 90
     1153
 91
        4
280
     0
281
     0
  0
CLASS
  1
DICTIONARYVAR
  2
AcDbDictionaryVar
  3
ObjectDBX Classes
 90
        0
 91
        4
280
     0
281
     0
  0
CLASS
  1
CELLSTYLEMAP
  2
AcDbCellStyleMap
  3
ObjectDBX Classes
 90
     1152
 91
        4
280
     0
281
     0
  0
ENDSEC
  0
SECTION
  2
TABLES
  0
TABLE
  2
VPORT
  5
8
330
0
100
AcDbSymbolTable
 70
     1
  0
VPORT
  5
29
330
8
100
AcDbSymbolTableRecord
100
AcDbViewportTableRecord
  2
*Active
 70
     0
 10
0.0
 20
0.0
 11
1.0
 21
1.0
 12
148.5
 22
105.0
 13
0.0
 23
0.0
 14
10.0
 24
10.0
 15
10.0
 25
10.0
 16
0.0
 26
0.0
 36
1.0
 17
0.0
 27
0.0
 37
0.0
 40
210.0
 41
1.4142857143
 42
50.0
 43
0.0
 44
0.0
 50
0.0
 51
0.0
 71
     0
 72
  2000
 73
     1
 74
     3
 75
     0
 76
     0
 77
     0
 78
     0
281
     0
 65
     1
110
0.0
120
0.0
130
0.0
111
1.0
121
0.0
131
0.0
112
0.0
122
1.0
132
0.0
 79
     0
146
0.0
  0
ENDTAB
  0
TABLE
  2
LTYPE
  5
5
330
0
100
AcDbSymbolTable
 70
     8
  0
LTYPE
  5
14
330
5
100
AcDbSymbolTableRecord
100
AcDbLinetypeTableRecord
  2
ByBlock
 70
     0
  3

 72
    65
 73
     0
 40
0.0
  0
LTYPE
  5
15
330
5
100
AcDbSymbolTableRecord
100
AcDbLinetypeTableRecord
  2
ByLayer
 70
     0
  3

 72
    65
 73
     0
 40
0.0
  0
LTYPE
  5
16
330
5
100
AcDbSymbolTableRecord
100
AcDbLinetypeTableRecord
  2
Continuous
 70
     0
  3
Solid line
 72
    65
 73
     0
 40
0.0
  0
LTYPE
  5
6E
330
5
100
AcDbSymbolTableRecord
100
AcDbLinetypeTableRecord
  2
SLD-Durchgehend
 70
     0
  3
SolidWorks Line Style
 72
    65
 73
     0
 40
0.0
  0
LTYPE
  5
6F
330
5
100
AcDbSymbolTableRecord
100
AcDbLinetypeTableRecord
  2
SLD-Gestrichelt
 70
     0
  3
SolidWorks Line Style
 72
    65
 73
     2
 40
1.905
 49
1.27
 74
     0
 49
-0.635
 74
     0
  0
LTYPE
  5
70
330
5
100
AcDbSymbolTableRecord
100
AcDbLinetypeTableRecord
  2
SLD-Phantom
 70
     0
  3
SolidWorks Line Style
 72
    65
 73
     6
 40
12.7
 49
6.35
 74
     0
 49
-1.27
 74
     0
 49
1.27
 74
     0
 49
-1.27
 74
     0
 49
1.27
 74
     0
 49
-1.27
 74
     0
  0
LTYPE
  5
71
330
5
100
AcDbSymbolTableRecord
100
AcDbLinetypeTableRecord
  2
SLD-Kette
 70
     0
  3
SolidWorks Line Style
 72
    65
 73
     4
 40
10.16
 49
6.35
 74
     0
 49
-1.27
 74
     0
 49
1.27
 74
     0
 49
-1.27
 74
     0
  0
LTYPE
  5
72
330
5
100
AcDbSymbolTableRecord
100
AcDbLinetypeTableRecord
  2
SLD-Punktstrich
 70
     0
  3
SolidWorks Line Style
 72
    65
 73
     4
 40
19.05
 49
15.24
 74
     0
 49
-1.27
 74
     0
 49
1.27
 74
     0
 49
-1.27
 74
     0
  0
LTYPE
  5
73
330
5
100
AcDbSymbolTableRecord
100
AcDbLinetypeTableRecord
  2
SLD-Naht
 70
     0
  3
SolidWorks Line Style
 72
    65
 73
     2
 40
0.635
 49
0.0
 74
     0
 49
-0.635
 74
     0
  0
LTYPE
  5
74
330
5
100
AcDbSymbolTableRecord
100
AcDbLinetypeTableRecord
  2
SLD-Dicke-Dünne-Kette
 70
     0
  3
SolidWorks Line Style
 72
    65
 73
     4
 40
10.16
 49
6.35
 74
     0
 49
-1.27
 74
     0
 49
1.27
 74
     0
 49
-1.27
 74
     0
  0
ENDTAB
  0
TABLE
  2
LAYER
  5
2
330
0
100
AcDbSymbolTable
 70
     3
  0
LAYER
  5
10
330
2
100
AcDbSymbolTableRecord
100
AcDbLayerTableRecord
  2
0
 70
     0
 62
     7
  6
Continuous
370
    -3
390
F
  0
LAYER
  5
75
330
2
100
AcDbSymbolTableRecord
100
AcDbLayerTableRecord
  2
1
 70
     0
 62
     4
  6
Continuous
370
    -1
390
F
  0
LAYER
  5
76
330
2
100
AcDbSymbolTableRecord
100
AcDbLayerTableRecord
  2
2
 70
     0
 62
     7
  6
SLD-Durchgehend
370
    -3
390
F
  0
ENDTAB
  0
TABLE
  2
STYLE
  5
3
330
0
100
AcDbSymbolTable
 70
     2
  0
STYLE
  5
11
330
3
100
AcDbSymbolTableRecord
100
AcDbTextStyleTableRecord
  2
Standard
 70
     0
 40
0.0
 41
1.0
 50
0.0
 71
     0
 42
3.5
  3
txt
  4

  0
STYLE
  5
B5
330
3
100
AcDbSymbolTableRecord
100
AcDbTextStyleTableRecord
  2
SLDTEXTSTYLE0
 70
     0
 40
0.0
 41
0.75
 50
0.0
 71
     0
 42
3.5
  3
TXT
  4

  0
ENDTAB
  0
TABLE
  2
VIEW
  5
6
330
0
100
AcDbSymbolTable
 70
     0
  0
ENDTAB
  0
TABLE
  2
UCS
  5
7
330
0
100
AcDbSymbolTable
 70
     0
  0
ENDTAB
  0
TABLE
  2
APPID
  5
9
330
0
100
AcDbSymbolTable
 70
     2
  0
APPID
  5
12
330
9
100
AcDbSymbolTableRecord
100
AcDbRegAppTableRecord
  2
ACAD
 70
     0
  0
APPID
  5
16C
330
9
100
AcDbSymbolTableRecord
100
AcDbRegAppTableRecord
  2
ACAD_MLEADERVER
 70
     0
  0
ENDTAB
  0
TABLE
  2
DIMSTYLE
  5
A
330
0
100
AcDbSymbolTable
 70
     3
100
AcDbDimStyleTable
  0
DIMSTYLE
105
27
330
A
100
AcDbSymbolTableRecord
100
AcDbDimStyleTableRecord
  2
ISO-25
 70
     0
 41
2.5
 42
0.625
 43
3.75
 44
1.25
 73
     0
 74
     0
 77
     1
 78
     8
140
2.5
141
2.5
143
0.0393700787
147
0.625
171
     3
172
     1
178
     0
271
     2
272
     2
274
     3
278
    44
283
     0
284
     8
340
11
  0
DIMSTYLE
105
B6
102
{ACAD_REACTORS
330
B4
330
C0
330
D7
330
13F
330
149
330
153
330
15D
102
}
330
A
100
AcDbSymbolTableRecord
100
AcDbDimStyleTableRecord
  2
SLDDIMSTYLE0
 70
     0
 41
3.302
 44
0.0
 45
0.000000001
 73
     0
 74
     0
 77
     1
 78
    12
 79
     3
140
3.5
147
0.875
173
     1
178
     0
271
     2
272
     2
276
     2
284
    12
340
B5
  0
DIMSTYLE
105
CB
102
{ACAD_REACTORS
330
CA
102
}
330
A
100
AcDbSymbolTableRecord
100
AcDbDimStyleTableRecord
  2
SLDDIMSTYLE1
 70
     0
 41
3.302
 44
0.0
 45
0.000000001
 73
     0
 74
     0
 77
     1
 78
    12
 79
     3
140
3.5
147
0.875
172
     1
173
     1
178
     0
271
     2
272
     2
276
     2
284
    12
289
     0
340
B5
  0
ENDTAB
  0
TABLE
  2
BLOCK_RECORD
  5
1
330
0
100
AcDbSymbolTable
 70
     9
  0
BLOCK_RECORD
  5
1F
330
1
100
AcDbSymbolTableRecord
100
AcDbBlockTableRecord
  2
*Model_Space
340
22
  0
BLOCK_RECORD
  5
1B
330
1
100
AcDbSymbolTableRecord
100
AcDbBlockTableRecord
  2
*Paper_Space
340
1E
  0
BLOCK_RECORD
  5
23
330
1
100
AcDbSymbolTableRecord
100
AcDbBlockTableRecord
  2
*Paper_Space0
340
26
  0
BLOCK_RECORD
  5
B7
330
1
100
AcDbSymbolTableRecord
100
AcDbBlockTableRecord
  2
_D
340
0
  0
BLOCK_RECORD
  5
C1
330
1
100
AcDbSymbolTableRecord
100
AcDbBlockTableRecord
  2
_D_1
340
0
  0
BLOCK_RECORD
  5
CC
330
1
100
AcDbSymbolTableRecord
100
AcDbBlockTableRecord
  2
_D_2
340
0
  0
BLOCK_RECORD
  5
D8
330
1
100
AcDbSymbolTableRecord
100
AcDbBlockTableRecord
  2
_D_3
340
0
  0
BLOCK_RECORD
  5
140
330
1
100
AcDbSymbolTableRecord
100
AcDbBlockTableRecord
  2
_D_4
340
0
  0
BLOCK_RECORD
  5
14A
330
1
100
AcDbSymbolTableRecord
100
AcDbBlockTableRecord
  2
_D_5
340
0
  0
BLOCK_RECORD
  5
154
330
1
100
AcDbSymbolTableRecord
100
AcDbBlockTableRecord
  2
_D_6
340
0
  0
BLOCK_RECORD
  5
15E
330
1
100
AcDbSymbolTableRecord
100
AcDbBlockTableRecord
  2
_D_7
340
0
  0
ENDTAB
  0
ENDSEC
  0
SECTION
  2
BLOCKS
  0
BLOCK
  5
20
330
1F
100
AcDbEntity
  8
0
100
AcDbBlockBegin
  2
*Model_Space
 70
     0
 10
0.0
 20
0.0
 30
0.0
  3
*Model_Space
  1

  0
ENDBLK
  5
21
330
1F
100
AcDbEntity
  8
0
100
AcDbBlockEnd
  0
BLOCK
  5
1C
330
1B
100
AcDbEntity
 67
     1
  8
0
100
AcDbBlockBegin
  2
*Paper_Space
 70
     0
 10
0.0
 20
0.0
 30
0.0
  3
*Paper_Space
  1

  0
ENDBLK
  5
1D
330
1B
100
AcDbEntity
 67
     1
  8
0
100
AcDbBlockEnd
  0
BLOCK
  5
24
330
23
100
AcDbEntity
  8
0
100
AcDbBlockBegin
  2
*Paper_Space0
 70
     0
 10
0.0
 20
0.0
 30
0.0
  3
*Paper_Space0
  1

  0
ENDBLK
  5
25
330
23
100
AcDbEntity
  8
0
100
AcDbBlockEnd
  0
BLOCK
  5
B8
330
B7
100
AcDbEntity
  8
0
100
AcDbBlockBegin
  2
_D
 70
     0
 10
0.0
 20
0.0
 30
0.0
  3
_D
  1

  0
SOLID
  5
BA
330
B7
100
AcDbEntity
  8
2
 62
     7
420
 16777215
100
AcDbTrace
 10
9.9987742495
 20
25.0003479427
 30
0.0
 11
9.4907742495
 21
21.6983479427
 31
0.0
 12
10.5067742495
 22
21.6983479427
 32
0.0
 13
10.5067742495
 23
21.6983479427
 33
0.0
  0
SOLID
  5
BB
330
B7
100
AcDbEntity
  8
2
 62
     7
420
 16777215
100
AcDbTrace
 10
9.9987742495
 20
0.0003479427
 30
0.0
 11
10.5067742495
 21
3.3023479427
 31
0.0
 12
9.4907742495
 22
3.3023479427
 32
0.0
 13
9.4907742495
 23
3.3023479427
 33
0.0
  0
LINE
  5
BC
330
B7
100
AcDbEntity
  8
2
 62
     7
420
 16777215
100
AcDbLine
 10
0.9987742495
 20
25.0003479427
 30
0.0
 11
10.9987742495
 21
25.0003479427
 31
0.0
  0
LINE
  5
BD
330
B7
100
AcDbEntity
  8
2
 62
     7
420
 16777215
100
AcDbLine
 10
0.9987742495
 20
0.0003479427
 30
0.0
 11
10.9987742495
 21
0.0003479427
 31
0.0
  0
LINE
  5
BE
330
B7
100
AcDbEntity
  8
2
 62
     7
420
 16777215
100
AcDbLine
 10
9.9987742495
 20
25.0003479427
 30
0.0
 11
9.9987742495
 21
0.0003479427
 31
0.0
  0
MTEXT
  5
BF
330
B7
100
AcDbEntity
  8
2
 62
     7
420
 16777215
100
AcDbMText
 10
5.4870373349
 20
9.9142367492
 30
0.0
 40
3.5
 41
0.0
 71
     1
 72
     1
  1
25
  7
SLDTEXTSTYLE0
 11
-7.044195017643634E-15
 21
1.0
 31
0.0
 73
     1
 44
1.0
  0
ENDBLK
  5
B9
330
B7
100
AcDbEntity
  8
0
100
AcDbBlockEnd
  0
BLOCK
  5
C2
330
C1
100
AcDbEntity
  8
0
100
AcDbBlockBegin
  2
_D_1
 70
     0
 10
0.0
 20
0.0
 30
0.0
  3
_D_1
  1

  0
SOLID
  5
C4
330
C1
100
AcDbEntity
  8
2
 62
     7
420
 16777215
100
AcDbTrace
 10
-0.0012257505
 20
-9.9996520573
 30
0.0
 11
-3.3032257505
 21
-9.4916520573
 31
0.0
 12
-3.3032257505
 22
-10.5076520573
 32
0.0
 13
-3.3032257505
 23
-10.5076520573
 33
0.0
  0
SOLID
  5
C5
330
C1
100
AcDbEntity
  8
2
 62
     7
420
 16777215
100
AcDbTrace
 10
-115.0012257505
 20
-9.9996520573
 30
0.0
 11
-111.6992257505
 21
-10.5076520573
 31
0.0
 12
-111.6992257505
 22
-9.4916520573
 32
0.0
 13
-111.6992257505
 23
-9.4916520573
 33
0.0
  0
LINE
  5
C6
330
C1
100
AcDbEntity
  8
2
 62
     7
420
 16777215
100
AcDbLine
 10
-0.0012257505
 20
-0.9996520573
 30
0.0
 11
-0.0012257505
 21
-10.9996520573
 31
0.0
  0
LINE
  5
C7
330
C1
100
AcDbEntity
  8
2
 62
     7
420
 16777215
100
AcDbLine
 10
-115.0012257505
 20
-0.9996520573
 30
0.0
 11
-115.0012257505
 21
-10.9996520573
 31
0.0
  0
LINE
  5
C8
330
C1
100
AcDbEntity
  8
2
 62
     7
420
 16777215
100
AcDbLine
 10
-0.0012257505
 20
-9.9996520573
 30
0.0
 11
-115.0012257505
 21
-9.9996520573
 31
0.0
  0
MTEXT
  5
C9
330
C1
100
AcDbEntity
  8
2
 62
     7
420
 16777215
100
AcDbMText
 10
-61.3803924244
 20
-5.4879151427
 30
0.0
 40
3.5
 41
0.0
 71
     1
 72
     1
  1
115
  7
SLDTEXTSTYLE0
 73
     1
 44
1.0
  0
ENDBLK
  5
C3
330
C1
100
AcDbEntity
  8
0
100
AcDbBlockEnd
  0
BLOCK
  5
CD
330
CC
100
AcDbEntity
  8
0
100
AcDbBlockBegin
  2
_D_2
 70
     0
 10
0.0
 20
0.0
 30
0.0
  3
_D_2
  1

  0
SOLID
  5
CF
330
CC
100
AcDbEntity
  8
2
 62
     7
420
 16777215
100
AcDbTrace
 10
-125.0012257505
 20
23.2003479427
 30
0.0
 11
-124.4932257505
 21
26.5023479427
 31
0.0
 12
-125.5092257505
 22
26.5023479427
 32
0.0
 13
-125.5092257505
 23
26.5023479427
 33
0.0
  0
SOLID
  5
D0
330
CC
100
AcDbEntity
  8
2
 62
     7
420
 16777215
100
AcDbTrace
 10
-125.0012257505
 20
0.0003479427
 30
0.0
 11
-125.5092257505
 21
-3.3016520573
 31
0.0
 12
-124.4932257505
 22
-3.3016520573
 32
0.0
 13
-124.4932257505
 23
-3.3016520573
 33
0.0
  0
LINE
  5
D1
330
CC
100
AcDbEntity
  8
2
 62
     7
420
 16777215
100
AcDbLine
 10
-116.0012257505
 20
23.2003479427
 30
0.0
 11
-126.0012257505
 21
23.2003479427
 31
0.0
  0
LINE
  5
D2
330
CC
100
AcDbEntity
  8
2
 62
     7
420
 16777215
100
AcDbLine
 10
-116.0012257505
 20
0.0003479427
 30
0.0
 11
-126.0012257505
 21
0.0003479427
 31
0.0
  0
LINE
  5
D3
330
CC
100
AcDbEntity
  8
2
 62
     7
420
 16777215
100
AcDbLine
 10
-125.0012257505
 20
23.2003479427
 30
0.0
 11
-125.0012257505
 21
29.5503479427
 31
0.0
  0
LINE
  5
D4
330
CC
100
AcDbEntity
  8
2
 62
     7
420
 16777215
100
AcDbLine
 10
-125.0012257505
 20
23.2003479427
 30
0.0
 11
-125.0012257505
 21
0.0003479427
 31
0.0
  0
LINE
  5
D5
330
CC
100
AcDbEntity
  8
2
 62
     7
420
 16777215
100
AcDbLine
 10
-125.0012257505
 20
0.0003479427
 30
0.0
 11
-125.0012257505
 21
-6.3496520573
 31
0.0
  0
MTEXT
  5
D6
330
CC
100
AcDbEntity
  8
2
 62
     7
420
 16777215
100
AcDbMText
 10
-129.5129626651
 20
5.7815976991
 30
0.0
 40
3.5
 41
0.0
 71
     1
 72
     1
  1
23,20
  7
SLDTEXTSTYLE0
 11
-7.044195017643634E-15
 21
1.0
 31
0.0
 73
     1
 44
1.0
  0
ENDBLK
  5
CE
330
CC
100
AcDbEntity
  8
0
100
AcDbBlockEnd
  0
BLOCK
  5
D9
330
D8
100
AcDbEntity
  8
0
100
AcDbBlockBegin
  2
_D_3
 70
     0
 10
0.0
 20
0.0
 30
0.0
  3
_D_3
  1

  0
SOLID
  5
DB
330
D8
100
AcDbEntity
  8
2
 62
     7
420
 16777215
100
AcDbTrace
 10
-131.0012257505
 20
0.0003479427
 30
0.0
 11
-130.4932257505
 21
3.3023479427
 31
0.0
 12
-131.5092257505
 22
3.3023479427
 32
0.0
 13
-131.5092257505
 23
3.3023479427
 33
0.0
  0
SOLID
  5
DC
330
D8
100
AcDbEntity
  8
2
 62
     7
420
 16777215
100
AcDbTrace
 10
-131.0012257505
 20
28.0003479427
 30
0.0
 11
-131.5092257505
 21
24.6983479427
 31
0.0
 12
-130.4932257505
 22
24.6983479427
 32
0.0
 13
-130.4932257505
 23
24.6983479427
 33
0.0
  0
LINE
  5
DD
330
D8
100
AcDbEntity
  8
2
 62
     7
420
 16777215
100
AcDbLine
 10
-116.0012257505
 20
0.0003479427
 30
0.0
 11
-132.0012257505
 21
0.0003479427
 31
0.0
  0
LINE
  5
DE
330
D8
100
AcDbEntity
  8
2
 62
     7
420
 16777215
100
AcDbLine
 10
-1.0012257505
 20
28.0003479427
 30
0.0
 11
-132.0012257505
 21
28.0003479427
 31
0.0
  0
LINE
  5
DF
330
D8
100
AcDbEntity
  8
2
 62
     7
420
 16777215
100
AcDbLine
 10
-131.0012257505
 20
0.0003479427
 30
0.0
 11
-131.0012257505
 21
28.0003479427
 31
0.0
  0
MTEXT
  5
E0
330
D8
100
AcDbEntity
  8
2
 62
     7
420
 16777215
100
AcDbMText
 10
-135.5129626651
 20
11.4142367492
 30
0.0
 40
3.5
 41
0.0
 71
     1
 72
     1
  1
28
  7
SLDTEXTSTYLE0
 11
6.123233995736766E-17
 21
1.0
 31
0.0
 73
     1
 44
1.0
  0
ENDBLK
  5
DA
330
D8
100
AcDbEntity
  8
0
100
AcDbBlockEnd
  0
BLOCK
  5
141
330
140
100
AcDbEntity
  8
0
100
AcDbBlockBegin
  2
_D_4
 70
     0
 10
0.0
 20
0.0
 30
0.0
  3
_D_4
  1

  0
SOLID
  5
143
330
140
100
AcDbEntity
  8
2
 62
     7
420
 16777215
100
AcDbTrace
 10
9.9987742495
 20
73.9887787853
 30
0.0
 11
10.5067742495
 21
77.2907787853
 31
0.0
 12
9.4907742495
 22
77.2907787853
 32
0.0
 13
9.4907742495
 23
77.2907787853
 33
0.0
  0
SOLID
  5
144
330
140
100
AcDbEntity
  8
2
 62
     7
420
 16777215
100
AcDbTrace
 10
9.9987742495
 20
98.9887787853
 30
0.0
 11
9.4907742495
 21
95.6867787853
 31
0.0
 12
10.5067742495
 22
95.6867787853
 32
0.0
 13
10.5067742495
 23
95.6867787853
 33
0.0
  0
LINE
  5
145
330
140
100
AcDbEntity
  8
2
 62
     7
420
 16777215
100
AcDbLine
 10
0.9987742495
 20
73.9887787853
 30
0.0
 11
10.9987742495
 21
73.9887787853
 31
0.0
  0
LINE
  5
146
330
140
100
AcDbEntity
  8
2
 62
     7
420
 16777215
100
AcDbLine
 10
0.9987742495
 20
98.9887787853
 30
0.0
 11
10.9987742495
 21
98.9887787853
 31
0.0
  0
LINE
  5
147
330
140
100
AcDbEntity
  8
2
 62
     7
420
 16777215
100
AcDbLine
 10
9.9987742495
 20
73.9887787853
 30
0.0
 11
9.9987742495
 21
98.9887787853
 31
0.0
  0
MTEXT
  5
148
330
140
100
AcDbEntity
  8
2
 62
     7
420
 16777215
100
AcDbMText
 10
5.4870373349
 20
83.9026675918
 30
0.0
 40
3.5
 41
0.0
 71
     1
 72
     1
  1
25
  7
SLDTEXTSTYLE0
 11
6.123233995736766E-17
 21
1.0
 31
0.0
 73
     1
 44
1.0
  0
ENDBLK
  5
142
330
140
100
AcDbEntity
  8
0
100
AcDbBlockEnd
  0
BLOCK
  5
14B
330
14A
100
AcDbEntity
  8
0
100
AcDbBlockBegin
  2
_D_5
 70
     0
 10
0.0
 20
0.0
 30
0.0
  3
_D_5
  1

  0
SOLID
  5
14D
330
14A
100
AcDbEntity
  8
2
 62
     7
420
 16777215
100
AcDbTrace
 10
-125.0012257505
 20
98.9887787853
 30
0.0
 11
-125.5092257505
 21
95.6867787853
 31
0.0
 12
-124.4932257505
 22
95.6867787853
 32
0.0
 13
-124.4932257505
 23
95.6867787853
 33
0.0
  0
SOLID
  5
14E
330
14A
100
AcDbEntity
  8
2
 62
     7
420
 16777215
100
AcDbTrace
 10
-125.0012257505
 20
73.9887787853
 30
0.0
 11
-124.4932257505
 21
77.2907787853
 31
0.0
 12
-125.5092257505
 22
77.2907787853
 32
0.0
 13
-125.5092257505
 23
77.2907787853
 33
0.0
  0
LINE
  5
14F
330
14A
100
AcDbEntity
  8
2
 62
     7
420
 16777215
100
AcDbLine
 10
-116.0012257505
 20
98.9887787853
 30
0.0
 11
-126.0012257505
 21
98.9887787853
 31
0.0
  0
LINE
  5
150
330
14A
100
AcDbEntity
  8
2
 62
     7
420
 16777215
100
AcDbLine
 10
-116.0012257505
 20
73.9887787853
 30
0.0
 11
-126.0012257505
 21
73.9887787853
 31
0.0
  0
LINE
  5
151
330
14A
100
AcDbEntity
  8
2
 62
     7
420
 16777215
100
AcDbLine
 10
-125.0012257505
 20
98.9887787853
 30
0.0
 11
-125.0012257505
 21
73.9887787853
 31
0.0
  0
MTEXT
  5
152
330
14A
100
AcDbEntity
  8
2
 62
     7
420
 16777215
100
AcDbMText
 10
-129.5129626651
 20
83.9026675918
 30
0.0
 40
3.5
 41
0.0
 71
     1
 72
     1
  1
25
  7
SLDTEXTSTYLE0
 11
-7.044195017643634E-15
 21
1.0
 31
0.0
 73
     1
 44
1.0
  0
ENDBLK
  5
14C
330
14A
100
AcDbEntity
  8
0
100
AcDbBlockEnd
  0
BLOCK
  5
155
330
154
100
AcDbEntity
  8
0
100
AcDbBlockBegin
  2
_D_6
 70
     0
 10
0.0
 20
0.0
 30
0.0
  3
_D_6
  1

  0
SOLID
  5
157
330
154
100
AcDbEntity
  8
2
 62
     7
420
 16777215
100
AcDbTrace
 10
-131.0012257505
 20
106.0574973741
 30
0.0
 11
-131.5092257505
 21
102.7554973741
 31
0.0
 12
-130.4932257505
 22
102.7554973741
 32
0.0
 13
-130.4932257505
 23
102.7554973741
 33
0.0
  0
SOLID
  5
158
330
154
100
AcDbEntity
  8
2
 62
     7
420
 16777215
100
AcDbTrace
 10
-131.0012257505
 20
73.9887787853
 30
0.0
 11
-130.4932257505
 21
77.2907787853
 31
0.0
 12
-131.5092257505
 22
77.2907787853
 32
0.0
 13
-131.5092257505
 23
77.2907787853
 33
0.0
  0
LINE
  5
159
330
154
100
AcDbEntity
  8
2
 62
     7
420
 16777215
100
AcDbLine
 10
-85.0051231663
 20
106.0574973741
 30
0.0
 11
-132.0012257505
 21
106.0574973741
 31
0.0
  0
LINE
  5
15A
330
154
100
AcDbEntity
  8
2
 62
     7
420
 16777215
100
AcDbLine
 10
-116.0012257505
 20
73.9887787853
 30
0.0
 11
-132.0012257505
 21
73.9887787853
 31
0.0
  0
LINE
  5
15B
330
154
100
AcDbEntity
  8
2
 62
     7
420
 16777215
100
AcDbLine
 10
-131.0012257505
 20
106.0574973741
 30
0.0
 11
-131.0012257505
 21
73.9887787853
 31
0.0
  0
MTEXT
  5
15C
330
154
100
AcDbEntity
  8
2
 62
     7
420
 16777215
100
AcDbMText
 10
-135.5129626651
 20
84.2043878361
 30
0.0
 40
3.5
 41
0.0
 71
     1
 72
     1
  1
32,07
  7
SLDTEXTSTYLE0
 11
-7.044195017643634E-15
 21
1.0
 31
0.0
 73
     1
 44
1.0
  0
ENDBLK
  5
156
330
154
100
AcDbEntity
  8
0
100
AcDbBlockEnd
  0
BLOCK
  5
15F
330
15E
100
AcDbEntity
  8
0
100
AcDbBlockBegin
  2
_D_7
 70
     0
 10
0.0
 20
0.0
 30
0.0
  3
_D_7
  1

  0
SOLID
  5
161
330
15E
100
AcDbEntity
  8
2
 62
     7
420
 16777215
100
AcDbTrace
 10
-115.0012257505
 20
116.1224607057
 30
0.0
 11
-111.6992257505
 21
115.6144607057
 31
0.0
 12
-111.6992257505
 22
116.6304607057
 32
0.0
 13
-111.6992257505
 23
116.6304607057
 33
0.0
  0
SOLID
  5
162
330
15E
100
AcDbEntity
  8
2
 62
     7
420
 16777215
100
AcDbTrace
 10
-70.0012257505
 20
116.1224607057
 30
0.0
 11
-73.3032257505
 21
116.6304607057
 31
0.0
 12
-73.3032257505
 22
115.6144607057
 32
0.0
 13
-73.3032257505
 23
115.6144607057
 33
0.0
  0
LINE
  5
163
330
15E
100
AcDbEntity
  8
2
 62
     7
420
 16777215
100
AcDbLine
 10
-115.0012257505
 20
99.9887787853
 30
0.0
 11
-115.0012257505
 21
117.1224607057
 31
0.0
  0
LINE
  5
164
330
15E
100
AcDbEntity
  8
2
 62
     7
420
 16777215
100
AcDbLine
 10
-70.0012257505
 20
103.2887787853
 30
0.0
 11
-70.0012257505
 21
117.1224607057
 31
0.0
  0
LINE
  5
165
330
15E
100
AcDbEntity
  8
2
 62
     7
420
 16777215
100
AcDbLine
 10
-115.0012257505
 20
116.1224607057
 30
0.0
 11
-70.0012257505
 21
116.1224607057
 31
0.0
  0
MTEXT
  5
166
330
15E
100
AcDbEntity
  8
2
 62
     7
420
 16777215
100
AcDbMText
 10
-95.087336944
 20
120.6341976203
 30
0.0
 40
3.5
 41
0.0
 71
     1
 72
     1
  1
45
  7
SLDTEXTSTYLE0
 73
     1
 44
1.0
  0
ENDBLK
  5
160
330
15E
100
AcDbEntity
  8
0
100
AcDbBlockEnd
  0
ENDSEC
  0
SECTION
  2
ENTITIES
  0
LINE
  5
77
330
1F
100
AcDbEntity
  8
0
  6
SLD-Punktstrich
 62
     7
100
AcDbLine
 10
-0.0012257505
 20
0.0003479427
 30
0.0
 11
-115.0012257505
 21
0.0003479427
 31
0.0
  0
LINE
  5
78
330
1F
100
AcDbEntity
  8
0
  6
SLD-Punktstrich
 62
     7
100
AcDbLine
 10
-115.0012257505
 20
23.2003479427
 30
0.0
 11
-70.0012257505
 21
23.2003479427
 31
0.0
  0
POINT
  5
79
330
1F
100
AcDbEntity
  8
1
 62
     4
420
    65535
100
AcDbPoint
 10
-115.0012257505
 20
0.0003479427
 30
0.0
  0
POINT
  5
7A
330
1F
100
AcDbEntity
  8
1
 62
     4
420
    65535
100
AcDbPoint
 10
-70.0012257505
 20
0.0003479427
 30
0.0
  0
POINT
  5
7B
330
1F
100
AcDbEntity
  8
1
 62
     4
420
    65535
100
AcDbPoint
 10
-115.0012257505
 20
23.2003479427
 30
0.0
  0
POINT
  5
7C
330
1F
100
AcDbEntity
  8
1
 62
     4
420
    65535
100
AcDbPoint
 10
-0.0012257505
 20
28.0003479427
 30
0.0
  0
LINE
  5
7D
330
1F
100
AcDbEntity
  8
1
 62
     4
420
    65535
100
AcDbLine
 10
-98.1253222122
 20
20.6003479427
 30
0.0
 11
-89.5012257505
 21
20.6003479427
 31
0.0
  0
LINE
  5
7E
330
1F
100
AcDbEntity
  8
1
 62
     4
420
    65535
100
AcDbLine
 10
-108.1145514268
 20
25.3503479427
 30
0.0
 11
-107.0357954875
 21
25.3503479427
 31
0.0
  0
LINE
  5
7F
330
1F
100
AcDbEntity
  8
1
 62
     4
420
    65535
100
AcDbLine
 10
-107.166423753
 20
25.0533746761
 30
0.0
 11
-107.462503162
 21
25.0533746761
 31
0.0
  0
LINE
  5
80
330
1F
100
AcDbEntity
  8
1
 62
     4
420
    65535
100
AcDbLine
 10
-108.1145514268
 20
25.3503479427
 30
0.0
 11
-107.462503162
 21
25.0533746761
 31
0.0
  0
ELLIPSE
  5
81
330
1F
100
AcDbEntity
  8
1
 62
     4
420
    65535
100
AcDbEllipse
 10
-114.5012257505
 20
25.6747732215
 30
0.0
 11
-0.1805172466099094
 21
0.4705112055602428
 31
0.0
210
0.0
220
0.0
230
1.0
 40
0.9909992059
 41
5.876444642339846
 42
7.484604664717727
  0
LINE
  5
82
330
1F
100
AcDbEntity
  8
1
 62
     4
420
    65535
100
AcDbLine
 10
-114.4825482492
 20
26.1776709158
 30
0.0
 11
-111.0142477387
 21
26.0260338319
 31
0.0
  0
LINE
  5
83
330
1F
100
AcDbEntity
  8
1
 62
     4
420
    65535
100
AcDbLine
 10
-111.0142477387
 20
26.0260338319
 30
0.0
 11
-110.0235309136
 21
25.4575276197
 31
0.0
  0
ELLIPSE
  5
84
330
1F
100
AcDbEntity
  8
1
 62
     4
420
    65535
100
AcDbEllipse
 10
-109.6210792863
 20
26.1503479427
 30
0.0
 11
0.8049032546068985
 21
0.0
 31
0.0
210
0.0
220
0.0
230
1.0
 40
0.9939082684
 41
4.188790204786423
 42
4.712388980384704
  0
LINE
  5
85
330
1F
100
AcDbEntity
  8
1
 62
     4
420
    65535
100
AcDbLine
 10
-109.6210792863
 20
25.3503479427
 30
0.0
 11
-108.1145514268
 21
25.3503479427
 31
0.0
  0
LINE
  5
86
330
1F
100
AcDbEntity
  8
1
 62
     4
420
    65535
100
AcDbLine
 10
-107.462503162
 20
25.0533746761
 30
0.0
 11
-112.3234012642
 21
23.3305752045
 31
0.0
  0
ELLIPSE
  5
87
330
1F
100
AcDbEntity
  8
1
 62
     4
420
    65535
100
AcDbEllipse
 10
-109.2242698539
 20
23.2003479427
 30
0.0
 11
3.27770547326142
 21
0.0
 31
0.0
210
0.0
220
0.0
230
1.0
 40
0.1220365903
 41
2.809980095710853
 42
3.473205211468799
  0
LINE
  5
88
330
1F
100
AcDbEntity
  8
1
 62
     4
420
    65535
100
AcDbLine
 10
-112.3234012642
 20
23.0701206809
 30
0.0
 11
-107.462503162
 21
21.3473212093
 31
0.0
  0
LINE
  5
89
330
1F
100
AcDbEntity
  8
1
 62
     4
420
    65535
100
AcDbLine
 10
-107.462503162
 20
21.3473212093
 30
0.0
 11
-108.1145514268
 21
21.0503479427
 31
0.0
  0
LINE
  5
8A
330
1F
100
AcDbEntity
  8
1
 62
     4
420
    65535
100
AcDbLine
 10
-108.1145514268
 20
21.0503479427
 30
0.0
 11
-109.6210792863
 21
21.0503479427
 31
0.0
  0
ELLIPSE
  5
8B
330
1F
100
AcDbEntity
  8
1
 62
     4
420
    65535
100
AcDbEllipse
 10
-109.6210792863
 20
20.2503479427
 30
0.0
 11
0.8049032546068985
 21
0.0
 31
0.0
210
0.0
220
0.0
230
1.0
 40
0.9939082684
 41
1.570796326794897
 42
2.094395102393183
  0
LINE
  5
8C
330
1F
100
AcDbEntity
  8
1
 62
     4
420
    65535
100
AcDbLine
 10
-110.0235309136
 20
20.9431682657
 30
0.0
 11
-111.0142477387
 21
20.3746620535
 31
0.0
  0
LINE
  5
8D
330
1F
100
AcDbEntity
  8
1
 62
     4
420
    65535
100
AcDbLine
 10
-111.0142477387
 20
20.3746620535
 30
0.0
 11
-114.4825482492
 21
20.2230249695
 31
0.0
  0
ELLIPSE
  5
8E
330
1F
100
AcDbEntity
  8
1
 62
     4
420
    65535
100
AcDbEllipse
 10
-114.5012257505
 20
20.7259226639
 30
0.0
 11
0.180517246609881
 21
0.4705112055602428
 31
0.0
210
0.0
220
0.0
230
1.0
 40
0.9909992059
 41
1.940173296051612
 42
3.548333318429503
  0
LINE
  5
8F
330
1F
100
AcDbEntity
  8
1
 62
     4
420
    65535
100
AcDbLine
 10
-115.0012257505
 20
20.7228784821
 30
0.0
 11
-115.0012257505
 21
25.6778174033
 31
0.0
  0
LINE
  5
90
330
1F
100
AcDbEntity
  8
1
 62
     4
420
    65535
100
AcDbLine
 10
-107.166423753
 20
21.3473212093
 30
0.0
 11
-107.462503162
 21
21.3473212093
 31
0.0
  0
LINE
  5
91
330
1F
100
AcDbEntity
  8
1
 62
     4
420
    65535
100
AcDbLine
 10
-107.0357954875
 20
21.0503479427
 30
0.0
 11
-108.1145514268
 21
21.0503479427
 31
0.0
  0
ELLIPSE
  5
92
330
1F
100
AcDbEntity
  8
1
 62
     4
420
    65535
100
AcDbEllipse
 10
-91.551175702
 20
20.7259226639
 30
0.0
 11
-0.06225037182363734
 21
0.4996944893389886
 31
0.0
210
0.0
220
0.0
230
1.0
 40
0.9756541283
 41
2.977230681303533
 42
4.401382937489634
  0
LINE
  5
93
330
1F
100
AcDbEntity
  8
1
 62
     4
420
    65535
100
AcDbLine
 10
-91.5695352061
 20
20.2230249695
 30
0.0
 11
-94.9787855267
 21
20.3746620535
 31
0.0
  0
LINE
  5
94
330
1F
100
AcDbEntity
  8
1
 62
     4
420
    65535
100
AcDbLine
 10
-94.9787855267
 20
20.3746620535
 30
0.0
 11
-95.3653846814
 21
20.6003479427
 31
0.0
  0
LINE
  5
95
330
1F
100
AcDbEntity
  8
1
 62
     4
420
    65535
100
AcDbLine
 10
-94.9787855267
 20
26.0260338319
 30
0.0
 11
-91.5695352061
 21
26.1776709158
 31
0.0
  0
ELLIPSE
  5
96
330
1F
100
AcDbEntity
  8
1
 62
     4
420
    65535
100
AcDbEllipse
 10
-91.551175702
 20
25.6747732215
 30
0.0
 11
0.06225037182362314
 21
0.4996944893389852
 31
0.0
210
0.0
220
0.0
230
1.0
 40
0.9756541283
 41
5.716728463469744
 42
6.447547279465842
  0
LINE
  5
97
330
1F
100
AcDbEntity
  8
1
 62
     4
420
    65535
100
AcDbLine
 10
-95.268957582
 20
25.9004388999
 30
0.0
 11
-94.9787855267
 21
26.0260338319
 31
0.0
  0
LINE
  5
98
330
1F
100
AcDbEntity
  8
1
 62
     4
420
    65535
100
AcDbLine
 10
-94.9787855267
 20
20.3746620535
 30
0.0
 11
-95.5002057567
 21
20.6003479427
 31
0.0
  0
ELLIPSE
  5
99
330
1F
100
AcDbEntity
  8
1
 62
     4
420
    65535
100
AcDbEllipse
 10
-921.8192206409
 20
175.9003479427
 30
0.0
 11
2269.28782807084
 21
-49.13347876571164
 31
0.0
210
0.0
220
0.0
230
1.0
 40
0.0624533988
 41
5.079146869297989
 42
5.086685184881986
  0
SPLINE
  5
9A
330
1F
100
AcDbEntity
  8
1
 62
     4
420
    65535
100
AcDbSpline
210
0.0
220
0.0
230
1.0
 70
     8
 71
     3
 72
    14
 73
    10
 74
     0
 42
0.000000001
 43
0.00000001
 40
0.0
 40
0.0
 40
0.0
 40
0.0
 40
0.1593188720945757
 40
0.3186360683317561
 40
0.482499665190649
 40
0.6463604207281005
 40
0.7854026441836285
 40
0.9244434629142928
 40
1.0
 40
1.0
 40
1.0
 40
1.0
 10
-106.702045247694
 20
27.99835336520923
 30
0.0
 10
-107.2785575279005
 20
27.87176039421856
 30
0.0
 10
-108.4315760240451
 20
27.61857578385451
 30
0.0
 10
-109.9293090190878
 20
27.2576718358463
 30
0.0
 10
-111.2385865892313
 20
26.92200650563097
 30
0.0
 10
-112.2758852508112
 20
26.63550713946956
 30
0.0
 10
-113.0501297909178
 20
26.4042432493326
 30
0.0
 10
-113.5495813852934
 20
26.24324953043873
 30
0.0
 10
-113.7305472318616
 20
26.17249137093106
 30
0.0
 10
-113.7942626147723
 20
26.14757847541742
 30
0.0
  0
LINE
  5
9B
330
1F
100
AcDbEntity
  8
1
 62
     4
420
    65535
100
AcDbLine
 10
-72.999231173
 20
27.9983533652
 30
0.0
 11
-106.7020452477
 21
27.9983533652
 31
0.0
  0
LINE
  5
9C
330
1F
100
AcDbEntity
  8
1
 62
     4
420
    65535
100
AcDbLine
 10
-70.948327522
 20
25.9474497142
 30
0.0
 11
-72.999231173
 21
27.9983533652
 31
0.0
  0
SPLINE
  5
9D
330
1F
100
AcDbEntity
  8
1
 62
     4
420
    65535
100
AcDbSpline
210
0.0
220
0.0
230
1.0
 70
     8
 71
     3
 72
    26
 73
    22
 74
     0
 42
0.000000001
 43
0.00000001
 40
0.0
 40
0.0
 40
0.0
 40
0.0
 40
0.1250000000000018
 40
0.1250000000000018
 40
0.2500000000000036
 40
0.2500000000000036
 40
0.3125000000000039
 40
0.3125000000000039
 40
0.3750000000000043
 40
0.3750000000000043
 40
0.500000000000005
 40
0.500000000000005
 40
0.5625000000000048
 40
0.5625000000000048
 40
0.6250000000000046
 40
0.6250000000000046
 40
0.750000000000003
 40
0.750000000000003
 40
0.8750000000000016
 40
0.8750000000000016
 40
1.0
 40
1.0
 40
1.0
 40
1.0
 10
-106.7902538094459
 20
25.90171712705047
 30
0.0
 10
-105.4973568775127
 20
25.90557811910393
 30
0.0
 10
-104.1573517283701
 20
25.91710787193085
 30
0.0
 10
-101.3858265921018
 20
25.94665488095291
 30
0.0
 10
-99.95430345592689
 20
25.96469583040096
 30
0.0
 10
-97.73683510562881
 20
25.9914106025325
 30
0.0
 10
-96.98319153535353
 20
26.00029950946756
 30
0.0
 10
-95.46640418100063
 20
26.01708309206583
 30
0.0
 10
-94.70454631646379
 20
26.02496546865106
 30
0.0
 10
-92.4088151314315
 20
26.04625230576686
 30
0.0
 10
-90.86482583040707
 20
26.05723539973629
 30
0.0
 10
-88.5287359084697
 20
26.0667877892045
 30
0.0
 10
-87.7466777780347
 20
26.06883395667373
 30
0.0
 10
-86.17573442061334
 20
26.07048268217147
 30
0.0
 10
-85.38521857439514
 20
26.07008130061856
 30
0.0
 10
-83.01388366708083
 20
26.06516999360966
 30
0.0
 10
-81.45445777216973
 20
26.05696266551128
 30
0.0
 10
-78.37691870882232
 20
26.03311132355607
 30
0.0
 10
-76.85880987123859
 20
26.01746053519181
 30
0.0
 10
-73.86444051727344
 20
25.98305501941655
 30
0.0
 10
-72.38269115456745
 20
25.96422117635491
 30
0.0
 10
-70.94832752200351
 20
25.94744971421226
 30
0.0
  0
LINE
  5
9E
330
1F
100
AcDbEntity
  8
1
 62
     4
420
    65535
100
AcDbLine
 10
-70.0012257505
 20
25.0003479427
 30
0.0
 11
-70.948327522
 21
25.9474497142
 31
0.0
  0
LINE
  5
9F
330
1F
100
AcDbEntity
  8
1
 62
     4
420
    65535
100
AcDbLine
 10
-70.0012257505
 20
25.0003479427
 30
0.0
 11
-70.0012257505
 21
0.0003479427
 31
0.0
  0
LINE
  5
A0
330
1F
100
AcDbEntity
  8
1
 62
     4
420
    65535
100
AcDbLine
 10
-70.0012257505
 20
0.0003479427
 30
0.0
 11
-84.0051231663
 21
0.0003479427
 31
0.0
  0
LINE
  5
A1
330
1F
100
AcDbEntity
  8
1
 62
     4
420
    65535
100
AcDbLine
 10
-84.0051231663
 20
0.0003479427
 30
0.0
 11
-89.5012257505
 21
6.5503479427
 31
0.0
  0
LINE
  5
A2
330
1F
100
AcDbEntity
  8
1
 62
     4
420
    65535
100
AcDbLine
 10
-89.5012257505
 20
6.5503479427
 30
0.0
 11
-89.5012257505
 21
20.9257572977
 31
0.0
  0
SPLINE
  5
A3
330
1F
100
AcDbEntity
  8
1
 62
     4
420
    65535
100
AcDbSpline
210
0.0
220
0.0
230
1.0
 70
     8
 71
     3
 72
    16
 73
    12
 74
     0
 42
0.000000001
 43
0.00000001
 40
0.0
 40
0.0
 40
0.0
 40
0.0
 40
0.2499999999999993
 40
0.2499999999999993
 40
0.4999999999999987
 40
0.4999999999999987
 40
0.6249999999999984
 40
0.6249999999999984
 40
0.7499999999999982
 40
0.7499999999999982
 40
1.0
 40
1.0
 40
1.0
 40
1.0
 10
-89.50122575049087
 20
20.92575729769003
 30
0.0
 10
-91.06309565434633
 20
20.9121791146933
 30
0.0
 10
-92.59805014989618
 20
20.88949975042064
 30
0.0
 10
-95.61640225559763
 20
20.83244855508759
 30
0.0
 10
-97.09979315876731
 20
20.7980617182587
 30
0.0
 10
-99.2859623815323
 20
20.74522373404352
 30
0.0
 10
-100.0081798590247
 20
20.72743004349821
 30
0.0
 10
-101.43931625159
 20
20.69313403072471
 30
0.0
 10
-102.1462538439457
 20
20.67668812259426
 30
0.0
 10
-104.2227870625476
 20
20.63266296884127
 30
0.0
 10
-105.5556386083405
 20
20.61010239947706
 30
0.0
 10
-106.8367987866042
 20
20.60281495810568
 30
0.0
  0
ELLIPSE
  5
A4
330
1F
100
AcDbEntity
  8
1
 62
     4
420
    65535
100
AcDbEllipse
 10
-86.1668677482
 20
101.8073742908
 30
0.0
 11
-2.846780002733354
 21
104.5470247748097
 31
0.0
210
0.0
220
0.0
230
1.0
 40
0.3432643429
 41
2.424325029453854
 42
2.450849165549446
  0
LINE
  5
A5
330
1F
100
AcDbEntity
  8
1
 62
     4
420
    65535
100
AcDbLine
 10
-107.6112257505
 20
24.0227807842
 30
0.0
 11
-107.6112257505
 21
22.3779151012
 31
0.0
  0
ELLIPSE
  5
A6
330
1F
100
AcDbEntity
  8
1
 62
     4
420
    65535
100
AcDbEllipse
 10
-86.1668677482
 20
-55.4066784054
 30
0.0
 11
2.84678000273334
 21
104.5470247748095
 31
0.0
210
0.0
220
0.0
230
1.0
 40
0.3432643429
 41
0.6891652070338179
 42
0.7172676241359399
  0
ELLIPSE
  5
A7
330
1F
100
AcDbEntity
  8
1
 62
     4
420
    65535
100
AcDbEllipse
 10
-468.3357071501
 20
95.6003479427
 30
0.0
 11
1134.643914035418
 21
-24.5667393828553
 31
0.0
210
0.0
220
0.0
230
1.0
 40
0.0624533988
 41
5.037994298080494
 42
5.046105243657859
  0
LINE
  5
A8
330
1F
100
AcDbEntity
  8
1
 62
     4
420
    65535
100
AcDbLine
 10
-69.2012257505
 20
25.0003479427
 30
0.0
 11
-69.2012257505
 21
0.0003479427
 31
0.0
  0
LINE
  5
A9
330
1F
100
AcDbEntity
  8
1
 62
     4
420
    65535
100
AcDbLine
 10
-70.0012257505
 20
25.0003479427
 30
0.0
 11
-69.2012257505
 21
25.0003479427
 31
0.0
  0
LINE
  5
AA
330
1F
100
AcDbEntity
  8
1
 62
     4
420
    65535
100
AcDbLine
 10
-69.2012257505
 20
0.0003479427
 30
0.0
 11
-70.0012257505
 21
0.0003479427
 31
0.0
  0
LINE
  5
AB
330
1F
100
AcDbEntity
  8
1
 62
     4
420
    65535
100
AcDbLine
 10
-1.0012257505
 20
0.0003479427
 30
0.0
 11
-1.0012257505
 21
25.0003479427
 31
0.0
  0
LINE
  5
AC
330
1F
100
AcDbEntity
  8
1
 62
     4
420
    65535
100
AcDbLine
 10
-1.0012257505
 20
25.0003479427
 30
0.0
 11
-0.0012257505
 21
24.0003479427
 31
0.0
  0
LINE
  5
AD
330
1F
100
AcDbEntity
  8
1
 62
     4
420
    65535
100
AcDbLine
 10
-0.0012257505
 20
24.0003479427
 30
0.0
 11
-0.0012257505
 21
1.0003479427
 31
0.0
  0
LINE
  5
AE
330
1F
100
AcDbEntity
  8
1
 62
     4
420
    65535
100
AcDbLine
 10
-1.0012257505
 20
0.0003479427
 30
0.0
 11
-0.0012257505
 21
1.0003479427
 31
0.0
  0
LINE
  5
AF
330
1F
100
AcDbEntity
  8
1
 62
     4
420
    65535
100
AcDbLine
 10
-69.2012257505
 20
25.0003479427
 30
0.0
 11
-1.0012257505
 21
25.0003479427
 31
0.0
  0
LINE
  5
B0
330
1F
100
AcDbEntity
  8
1
 62
     4
420
    65535
100
AcDbLine
 10
-69.2012257505
 20
0.0003479427
 30
0.0
 11
-1.0012257505
 21
0.0003479427
 31
0.0
  0
ELLIPSE
  5
B1
330
1F
100
AcDbEntity
  8
1
 62
     4
420
    65535
100
AcDbEllipse
 10
189.3055480195
 20
95.6003479427
 30
0.0
 11
1134.643914035422
 21
24.56673938285607
 31
0.0
210
0.0
220
0.0
230
1.0
 40
0.0624533988
 41
4.443775337110738
 42
4.446908659279433
  0
LINE
  5
B2
330
1F
100
AcDbEntity
  8
1
 62
     4
420
    65535
100
AcDbLine
 10
-107.6112257505
 20
23.3305752045
 30
0.0
 11
-112.3234012642
 21
23.3305752045
 31
0.0
  0
LINE
  5
B3
330
1F
100
AcDbEntity
  8
1
 62
     4
420
    65535
100
AcDbLine
 10
-107.6112257505
 20
23.0701206809
 30
0.0
 11
-112.3234012642
 21
23.0701206809
 31
0.0
  0
DIMENSION
  5
B4
330
1F
100
AcDbEntity
  8
2
 62
     7
420
 16777215
100
AcDbDimension
  2
_D
 10
9.9987742495
 20
0.0003479427
 30
0.0
 11
9.9987742495
 21
12.5003479427
 31
0.0
 70
   160
  1
<>
 71
     2
 42
-1.0
  3
SLDDIMSTYLE0
100
AcDbAlignedDimension
 13
-0.0012257505
 23
25.0003479427
 33
0.0
 14
-0.0012257505
 24
0.0003479427
 34
0.0
 50
90.0
100
AcDbRotatedDimension
  0
DIMENSION
  5
C0
330
1F
100
AcDbEntity
  8
2
 62
     7
420
 16777215
100
AcDbDimension
  2
_D_1
 10
-115.0012257505
 20
-9.9996520573
 30
0.0
 11
-57.5012257505
 21
-9.9996520573
 31
0.0
 70
   160
  1
<>
 71
     2
 42
-1.0
  3
SLDDIMSTYLE0
100
AcDbAlignedDimension
 13
-0.0012257505
 23
0.0003479427
 33
0.0
 14
-115.0012257505
 24
0.0003479427
 34
0.0
 50
0.0
100
AcDbRotatedDimension
  0
DIMENSION
  5
CA
330
1F
100
AcDbEntity
  8
2
 62
     7
420
 16777215
100
AcDbDimension
  2
_D_2
 10
-125.0012257505
 20
0.0003479427
 30
0.0
 11
-125.0012257505
 21
11.6003479427
 31
0.0
 70
   160
  1
<>
 71
     2
 42
-1.0
  3
SLDDIMSTYLE1
100
AcDbAlignedDimension
 13
-115.0012257505
 23
23.2003479427
 33
0.0
 14
-115.0012257505
 24
0.0003479427
 34
0.0
 50
90.0
100
AcDbRotatedDimension
  0
DIMENSION
  5
D7
330
1F
100
AcDbEntity
  8
2
 62
     7
420
 16777215
100
AcDbDimension
  2
_D_3
 10
-131.0012257505
 20
28.0003479427
 30
0.0
 11
-131.0012257505
 21
14.0003479427
 31
0.0
 70
   160
  1
<>
 71
     2
 42
-1.0
  3
SLDDIMSTYLE0
100
AcDbAlignedDimension
 13
-115.0012257505
 23
0.0003479427
 33
0.0
 14
-0.0012257505
 24
28.0003479427
 34
0.0
 50
90.0
100
AcDbRotatedDimension
  0
LINE
  5
E1
330
1F
100
AcDbEntity
  8
0
  6
SLD-Punktstrich
 62
     7
100
AcDbLine
 10
-0.0012257505
 20
73.9887787853
 30
0.0
 11
-115.0012257505
 21
73.9887787853
 31
0.0
  0
LINE
  5
E2
330
1F
100
AcDbEntity
  8
0
  6
SLD-Punktstrich
 62
     7
100
AcDbLine
 10
-115.0012257505
 20
98.9887787853
 30
0.0
 11
-70.0012257505
 21
95.8420722479
 31
0.0
  0
POINT
  5
E3
330
1F
100
AcDbEntity
  8
1
 62
     4
420
    65535
100
AcDbPoint
 10
-115.0012257505
 20
73.9887787853
 30
0.0
  0
POINT
  5
E4
330
1F
100
AcDbEntity
  8
1
 62
     4
420
    65535
100
AcDbPoint
 10
-70.0012257505
 20
73.9887787853
 30
0.0
  0
POINT
  5
E5
330
1F
100
AcDbEntity
  8
1
 62
     4
420
    65535
100
AcDbPoint
 10
-115.0012257505
 20
98.9887787853
 30
0.0
  0
LINE
  5
E6
330
1F
100
AcDbEntity
  8
1
 62
     4
420
    65535
100
AcDbLine
 10
-93.5163875186
 20
97.7921573215
 30
0.0
 11
-92.9575463915
 21
97.7530793431
 31
0.0
  0
LINE
  5
E7
330
1F
100
AcDbEntity
  8
1
 62
     4
420
    65535
100
AcDbLine
 10
-114.4825482492
 20
99.0159615213
 30
0.0
 11
-114.2313356592
 21
96.6258333849
 31
0.0
  0
SPLINE
  5
E8
330
1F
100
AcDbEntity
  8
1
 62
     4
420
    65535
100
AcDbSpline
210
0.0
220
0.0
230
1.0
 70
     8
 71
     3
 72
     8
 73
     4
 74
     0
 42
0.000000001
 43
0.00000001
 40
0.0
 40
0.0
 40
0.0
 40
0.0
 40
0.0000322265560634
 40
0.0000322265560634
 40
0.0000322265560634
 40
0.0000322265560634
 10
-114.2313356592155
 20
96.6258333848907
 30
0.0
 10
-114.24205291261
 20
96.62527171744027
 30
0.0
 10
-114.2527844506335
 20
96.62452206022425
 30
0.0
 10
-114.263482473623
 20
96.62358739278207
 30
0.0
  0
SPLINE
  5
E9
330
1F
100
AcDbEntity
  8
1
 62
     4
420
    65535
100
AcDbSpline
210
0.0
220
0.0
230
1.0
 70
     8
 71
     3
 72
    10
 73
     6
 74
     0
 42
0.000000001
 43
0.00000001
 40
0.0
 40
0.0
 40
0.0
 40
0.0
 40
0.5
 40
0.5
 40
1.0
 40
1.0
 40
1.0
 40
1.0
 10
-114.263482473623
 20
96.62358739278207
 30
0.0
 10
-114.399647825218
 20
96.61169086563737
 30
0.0
 10
-114.531478902856
 20
96.63868737269657
 30
0.0
 10
-114.7157495198264
 20
96.73168046170142
 30
0.0
 10
-114.770857098395
 20
96.79696747043886
 30
0.0
 10
-114.7777636859018
 20
96.8626792611172
 30
0.0
  0
LINE
  5
EA
330
1F
100
AcDbEntity
  8
1
 62
     4
420
    65535
100
AcDbLine
 10
-114.7777636859
 20
96.8626792611
 30
0.0
 11
-115.0012257505
 21
98.9887787853
 31
0.0
  0
LINE
  5
EB
330
1F
100
AcDbEntity
  8
1
 62
     4
420
    65535
100
AcDbLine
 10
-115.0012257505
 20
98.9887787853
 30
0.0
 11
-114.4825482492
 21
99.0159615213
 31
0.0
  0
LINE
  5
EC
330
1F
100
AcDbEntity
  8
1
 62
     4
420
    65535
100
AcDbLine
 10
-91.5695352061
 20
97.4137275672
 30
0.0
 11
-91.0596885443
 21
97.3146234155
 31
0.0
  0
LINE
  5
ED
330
1F
100
AcDbEntity
  8
1
 62
     4
420
    65535
100
AcDbLine
 10
-91.0596885443
 20
97.3146234155
 30
0.0
 11
-91.1767704577
 21
96.8450335092
 31
0.0
  0
SPLINE
  5
EE
330
1F
100
AcDbEntity
  8
1
 62
     4
420
    65535
100
AcDbSpline
210
0.0
220
0.0
230
1.0
 70
     8
 71
     3
 72
    10
 73
     6
 74
     0
 42
0.000000001
 43
0.00000001
 40
0.0
 40
0.0
 40
0.0
 40
0.0
 40
0.5
 40
0.5
 40
1.0
 40
1.0
 40
1.0
 40
1.0
 10
-92.11942317472813
 20
95.07512392252247
 30
0.0
 10
-91.9862386515476
 20
95.04439261733727
 30
0.0
 10
-91.85193335729203
 20
95.05277905636795
 30
0.0
 10
-91.65651391273389
 20
95.11922162984402
 30
0.0
 10
-91.59285644182239
 20
95.1762037775145
 30
0.0
 10
-91.57687175512602
 20
95.24031485414486
 30
0.0
  0
SPLINE
  5
EF
330
1F
100
AcDbEntity
  8
1
 62
     4
420
    65535
100
AcDbSpline
210
0.0
220
0.0
230
1.0
 70
     8
 71
     3
 72
     8
 73
     4
 74
     0
 42
0.000000001
 43
0.00000001
 40
0.0
 40
0.0
 40
0.0
 40
0.0
 40
0.0000322265560634
 40
0.0000322265560634
 40
0.0000322265560634
 40
0.0000322265560634
 10
-92.11942317472813
 20
95.07512392252247
 30
0.0
 10
-92.129887004727
 20
95.07753837087893
 30
0.0
 10
-92.14040977204077
 20
95.07977427390746
 30
0.0
 10
-92.15094455686115
 20
95.08182202863755
 30
0.0
  0
LINE
  5
F0
330
1F
100
AcDbEntity
  8
1
 62
     4
420
    65535
100
AcDbLine
 10
-92.1509445569
 20
95.0818220286
 30
0.0
 11
-91.5695352061
 21
97.4137275672
 31
0.0
  0
LINE
  5
F1
330
1F
100
AcDbEntity
  8
1
 62
     4
420
    65535
100
AcDbLine
 10
-110.6908742109
 20
96.811381107
 30
0.0
 11
-111.0142477387
 21
99.197727449
 31
0.0
  0
LINE
  5
F2
330
1F
100
AcDbEntity
  8
1
 62
     4
420
    65535
100
AcDbLine
 10
-114.2313356592
 20
96.6258333849
 30
0.0
 11
-110.6908742109
 21
96.811381107
 31
0.0
  0
LINE
  5
F3
330
1F
100
AcDbEntity
  8
1
 62
     4
420
    65535
100
AcDbLine
 10
-111.0142477387
 20
99.197727449
 30
0.0
 11
-114.4825482492
 21
99.0159615213
 31
0.0
  0
LINE
  5
F4
330
1F
100
AcDbEntity
  8
1
 62
     4
420
    65535
100
AcDbLine
 10
-94.9787855267
 20
98.0764186984
 30
0.0
 11
-95.6311272259
 21
95.7583010117
 31
0.0
  0
LINE
  5
F5
330
1F
100
AcDbEntity
  8
1
 62
     4
420
    65535
100
AcDbLine
 10
-95.6311272259
 20
95.7583010117
 30
0.0
 11
-92.1509445569
 21
95.0818220286
 31
0.0
  0
LINE
  5
F6
330
1F
100
AcDbEntity
  8
1
 62
     4
420
    65535
100
AcDbLine
 10
-91.5695352061
 20
97.4137275672
 30
0.0
 11
-94.9787855267
 21
98.0764186984
 31
0.0
  0
LINE
  5
F7
330
1F
100
AcDbEntity
  8
1
 62
     4
420
    65535
100
AcDbLine
 10
-110.215329194
 20
96.5068055218
 30
0.0
 11
-110.0235309136
 21
99.2496487177
 31
0.0
  0
SPLINE
  5
F8
330
1F
100
AcDbEntity
  8
1
 62
     4
420
    65535
100
AcDbSpline
210
0.0
220
0.0
230
1.0
 70
     8
 71
     3
 72
    10
 73
     6
 74
     0
 42
0.000000001
 43
0.00000001
 40
0.0
 40
0.0
 40
0.0
 40
0.0
 40
0.5
 40
0.5
 40
1.0
 40
1.0
 40
1.0
 40
1.0
 10
-110.6908742108951
 20
96.81138110703444
 30
0.0
 10
-110.603136900285
 20
96.7792202472462
 30
0.0
 10
-110.5184131247211
 20
96.74016473617702
 30
0.0
 10
-110.3577788499684
 20
96.6418898645012
 30
0.0
 10
-110.2806808541426
 20
96.58199756837675
 30
0.0
 10
-110.2153291939698
 20
96.50680552180282
 30
0.0
  0
LINE
  5
F9
330
1F
100
AcDbEntity
  8
1
 62
     4
420
    65535
100
AcDbLine
 10
-110.0235309136
 20
99.2496487177
 30
0.0
 11
-111.0142477387
 21
99.197727449
 31
0.0
  0
SPLINE
  5
FA
330
1F
100
AcDbEntity
  8
1
 62
     4
420
    65535
100
AcDbSpline
210
0.0
220
0.0
230
1.0
 70
     8
 71
     3
 72
    10
 73
     6
 74
     0
 42
0.000000001
 43
0.00000001
 40
0.0
 40
0.0
 40
0.0
 40
0.0
 40
0.5
 40
0.5
 40
1.0
 40
1.0
 40
1.0
 40
1.0
 10
-96.14443300006029
 20
95.52287260977485
 30
0.0
 10
-96.06960887693766
 20
95.58792796051537
 30
0.0
 10
-95.98574965916157
 20
95.63620767128238
 30
0.0
 10
-95.81268683829639
 20
95.7115003277826
 30
0.0
 10
-95.7223428046248
 20
95.73869472286312
 30
0.0
 10
-95.63112722587661
 20
95.75830101169633
 30
0.0
  0
LINE
  5
FB
330
1F
100
AcDbEntity
  8
1
 62
     4
420
    65535
100
AcDbLine
 10
-96.1444330001
 20
95.5228726098
 30
0.0
 11
-95.9526347197
 21
98.2657158056
 31
0.0
  0
LINE
  5
FC
330
1F
100
AcDbEntity
  8
1
 62
     4
420
    65535
100
AcDbLine
 10
-94.9787855267
 20
98.0764186984
 30
0.0
 11
-95.9526347197
 21
98.2657158056
 31
0.0
  0
SPLINE
  5
FD
330
1F
100
AcDbEntity
  8
1
 62
     4
420
    65535
100
AcDbSpline
210
0.0
220
0.0
230
1.0
 70
     8
 71
     3
 72
    10
 73
     6
 74
     0
 42
0.000000001
 43
0.00000001
 40
0.0
 40
0.0
 40
0.0
 40
0.0
 40
0.5
 40
0.5
 40
1.0
 40
1.0
 40
1.0
 40
1.0
 10
-96.14443300006029
 20
95.52287260977485
 30
0.0
 10
-96.2116512491957
 20
95.46443013706445
 30
0.0
 10
-96.28120148147445
 20
95.4048888808918
 30
0.0
 10
-96.42398469367575
 20
95.28343459032254
 30
0.0
 10
-96.49808911338212
 20
95.22080416260873
 30
0.0
 10
-96.57083017730398
 20
95.15934369569015
 30
0.0
  0
SPLINE
  5
FE
330
1F
100
AcDbEntity
  8
1
 62
     4
420
    65535
100
AcDbSpline
210
0.0
220
0.0
230
1.0
 70
     8
 71
     3
 72
    12
 73
     8
 74
     0
 42
0.000000001
 43
0.00000001
 40
0.0
 40
0.0
 40
0.0
 40
0.0
 40
0.249999999999996
 40
0.249999999999996
 40
0.499999999999992
 40
0.499999999999992
 40
1.0
 40
1.0
 40
1.0
 40
1.0
 10
-92.34859791063155
 20
94.21187305095161
 30
0.0
 10
-92.32480760903375
 20
94.30150548224474
 30
0.0
 10
-92.30156761007507
 20
94.38905850496137
 30
0.0
 10
-92.25616053645491
 20
94.56011163213392
 30
0.0
 10
-92.23428099928645
 20
94.64252840168805
 30
0.0
 10
-92.17422633829564
 20
94.86873260130527
 30
0.0
 10
-92.14093526779429
 20
94.9941103410281
 30
0.0
 10
-92.11942317472746
 20
95.07512392252498
 30
0.0
  0
SPLINE
  5
FF
330
1F
100
AcDbEntity
  8
1
 62
     4
420
    65535
100
AcDbSpline
210
0.0
220
0.0
230
1.0
 70
     8
 71
     3
 72
     8
 73
     4
 74
     0
 42
0.000000001
 43
0.00000001
 40
0.0
 40
0.0
 40
0.0
 40
0.0
 40
1.0
 40
1.0
 40
1.0
 40
1.0
 10
-92.34859791063153
 20
94.21187305095164
 30
0.0
 10
-93.75808326255842
 20
94.51837972567219
 30
0.0
 10
-95.16586514045613
 20
94.83270487514899
 30
0.0
 10
-96.57083017730398
 20
95.15934369569015
 30
0.0
  0
LINE
  5
100
330
1F
100
AcDbEntity
  8
1
 62
     4
420
    65535
100
AcDbLine
 10
-91.8634500475
 20
94.0909121032
 30
0.0
 11
-92.3485979106
 21
94.211873051
 31
0.0
  0
SPLINE
  5
101
330
1F
100
AcDbEntity
  8
1
 62
     4
420
    65535
100
AcDbSpline
210
0.0
220
0.0
230
1.0
 70
     8
 71
     3
 72
    12
 73
     8
 74
     0
 42
0.000000001
 43
0.00000001
 40
0.0
 40
0.0
 40
0.0
 40
0.0
 40
0.25
 40
0.25
 40
0.5
 40
0.5
 40
1.0
 40
1.0
 40
1.0
 40
1.0
 10
-114.263482473623
 20
96.62358739278196
 30
0.0
 10
-114.2584694894678
 20
96.58198557351614
 30
0.0
 10
-114.2522218741899
 20
96.53013524296868
 30
0.0
 10
-114.2373209158048
 20
96.4064551291487
 30
0.0
 10
-114.2287237338356
 20
96.33509120366442
 30
0.0
 10
-114.2007522220796
 20
96.10287313142376
 30
0.0
 10
-114.1788473554165
 20
95.92097904727487
 30
0.0
 10
-114.1566793511986
 20
95.73684266069473
 30
0.0
  0
LINE
  5
102
330
1F
100
AcDbEntity
  8
1
 62
     4
420
    65535
100
AcDbLine
 10
-114.1566793512
 20
95.7368426607
 30
0.0
 11
-114.6539402989
 21
95.6845784291
 31
0.0
  0
SPLINE
  5
103
330
1F
100
AcDbEntity
  8
1
 62
     4
420
    65535
100
AcDbSpline
210
0.0
220
0.0
230
1.0
 70
    24
 71
     3
 72
    12
 73
     8
 74
     0
 42
0.000000001
 43
0.00000001
 40
0.0
 40
0.0
 40
0.0
 40
0.0
 40
0.2500000000000008
 40
0.2500000000000008
 40
0.5000000000000017
 40
0.5000000000000017
 40
1.0
 40
1.0
 40
1.0
 40
1.0
 10
-114.6539402988827
 20
95.68457842906092
 30
0.0
 10
-114.6659304300232
 20
95.79865690658579
 30
0.0
 10
-114.6776896142134
 20
95.91053807065494
 30
0.0
 10
-114.7007631981006
 20
96.13006855702334
 30
0.0
 10
-114.7121702369845
 20
96.23859928230841
 30
0.0
 10
-114.7440756889932
 20
96.54215938079508
 30
0.0
 10
-114.7630373107112
 20
96.72256716046408
 30
0.0
 10
-114.7777636859011
 20
96.86267926110969
 30
0.0
  0
SPLINE
  5
104
330
1F
100
AcDbEntity
  8
1
 62
     4
420
    65535
100
AcDbSpline
210
0.0
220
0.0
230
1.0
 70
     8
 71
     3
 72
    10
 73
     6
 74
     0
 42
0.000000001
 43
0.00000001
 40
0.0
 40
0.0
 40
0.0
 40
0.0
 40
0.5
 40
0.5
 40
1.0
 40
1.0
 40
1.0
 40
1.0
 10
-110.2153291939698
 20
96.5068055218029
 30
0.0
 10
-110.1568987283691
 20
96.43957683504622
 30
0.0
 10
-110.0963118954266
 20
96.3709355087869
 30
0.0
 10
-109.9718214098747
 20
96.2307916206174
 30
0.0
 10
-109.907154640125
 20
96.15845736603659
 30
0.0
 10
-109.8436751310056
 20
96.08747142872289
 30
0.0
  0
SPLINE
  5
105
330
1F
100
AcDbEntity
  8
1
 62
     4
420
    65535
100
AcDbSpline
210
0.0
220
0.0
230
1.0
 70
     8
 71
     3
 72
     8
 73
     4
 74
     0
 42
0.000000001
 43
0.00000001
 40
0.0
 40
0.0
 40
0.0
 40
0.0
 40
1.0
 40
1.0
 40
1.0
 40
1.0
 10
-109.8436751310056
 20
96.08747142872289
 30
0.0
 10
-111.2804239742574
 20
95.95954499895625
 30
0.0
 10
-112.7182573855377
 20
95.84420369852958
 30
0.0
 10
-114.1566793511986
 20
95.73684266069473
 30
0.0
  0
LINE
  5
106
330
1F
100
AcDbEntity
  8
1
 62
     4
420
    65535
100
AcDbLine
 10
-109.843675131
 20
96.0874714287
 30
0.0
 11
-109.6210792863
 21
99.2707403137
 31
0.0
  0
LINE
  5
107
330
1F
100
AcDbEntity
  8
1
 62
     4
420
    65535
100
AcDbLine
 10
-109.6210792863
 20
99.2707403137
 30
0.0
 11
-110.0235309136
 21
99.2496487177
 31
0.0
  0
LINE
  5
108
330
1F
100
AcDbEntity
  8
1
 62
     4
420
    65535
100
AcDbLine
 10
-96.5708301773
 20
95.1593436957
 30
0.0
 11
-96.3482343326
 21
98.3426125807
 31
0.0
  0
LINE
  5
109
330
1F
100
AcDbEntity
  8
1
 62
     4
420
    65535
100
AcDbLine
 10
-95.9526347197
 20
98.2657158056
 30
0.0
 11
-96.3482343326
 21
98.3426125807
 31
0.0
  0
LINE
  5
10A
330
1F
100
AcDbEntity
  8
1
 62
     4
420
    65535
100
AcDbLine
 10
-114.2553710109
 20
94.6531964807
 30
0.0
 11
-114.5725317911
 21
94.9100282164
 31
0.0
  0
LINE
  5
10B
330
1F
100
AcDbEntity
  8
1
 62
     4
420
    65535
100
AcDbLine
 10
-114.1566793512
 20
95.7368426607
 30
0.0
 11
-114.0425433769
 21
94.6509114035
 31
0.0
  0
ELLIPSE
  5
10C
330
1F
100
AcDbEntity
  8
1
 62
     4
420
    65535
100
AcDbEllipse
 10
-114.0283231815
 20
94.5156152821
 30
0.0
 11
0.5065547249025855
 21
-0.04212881124344393
 31
0.0
210
0.0
220
0.0
230
1.0
 40
0.263265937
 41
1.62075729444404
 42
2.057340652834436
  0
LINE
  5
10D
330
1F
100
AcDbEntity
  8
1
 62
     4
420
    65535
100
AcDbLine
 10
-114.5725317911
 20
94.9100282164
 30
0.0
 11
-114.6539402989
 21
95.6845784291
 31
0.0
  0
ELLIPSE
  5
10E
330
1F
100
AcDbEntity
  8
1
 62
     4
420
    65535
100
AcDbEllipse
 10
-92.6456669282
 20
93.0203942994
 30
0.0
 11
0.5074881664417319
 21
-0.02877997532225152
 31
0.0
210
0.0
220
0.0
230
1.0
 40
0.263265937
 41
1.084252000755447
 42
1.52083535914574
  0
LINE
  5
10F
330
1F
100
AcDbEntity
  8
1
 62
     4
420
    65535
100
AcDbLine
 10
-92.5018183136
 20
93.064869115
 30
0.0
 11
-92.4016811106
 21
93.1250376167
 31
0.0
  0
LINE
  5
110
330
1F
100
AcDbEntity
  8
1
 62
     4
420
    65535
100
AcDbLine
 10
-92.5018183136
 20
93.064869115
 30
0.0
 11
-114.1645821733
 21
94.5796771295
 31
0.0
  0
LINE
  5
111
330
1F
100
AcDbEntity
  8
1
 62
     4
420
    65535
100
AcDbLine
 10
-114.2553710109
 20
94.6531964807
 30
0.0
 11
-114.1645821733
 21
94.5796771295
 31
0.0
  0
LINE
  5
112
330
1F
100
AcDbEntity
  8
1
 62
     4
420
    65535
100
AcDbLine
 10
-114.0425433769
 20
94.6509114035
 30
0.0
 11
-92.612755542
 21
93.1523946596
 31
0.0
  0
LINE
  5
113
330
1F
100
AcDbEntity
  8
1
 62
     4
420
    65535
100
AcDbLine
 10
-97.8291125242
 20
98.6304661414
 30
0.0
 11
-108.1145514268
 21
99.3496940933
 31
0.0
  0
LINE
  5
114
330
1F
100
AcDbEntity
  8
1
 62
     4
420
    65535
100
AcDbLine
 10
-92.612755542
 20
93.1523946596
 30
0.0
 11
-92.3485979106
 21
94.211873051
 31
0.0
  0
LINE
  5
115
330
1F
100
AcDbEntity
  8
1
 62
     4
420
    65535
100
AcDbLine
 10
-96.3482343326
 20
98.3426125807
 30
0.0
 11
-97.8291125242
 21
98.6304661414
 31
0.0
  0
LINE
  5
116
330
1F
100
AcDbEntity
  8
1
 62
     4
420
    65535
100
AcDbLine
 10
-108.1145514268
 20
99.3496940933
 30
0.0
 11
-109.6210792863
 21
99.2707403137
 31
0.0
  0
LINE
  5
117
330
1F
100
AcDbEntity
  8
1
 62
     4
420
    65535
100
AcDbLine
 10
-98.4700592211
 20
98.7550535584
 30
0.0
 11
-107.462503162
 21
99.3838664948
 31
0.0
  0
LINE
  5
118
330
1F
100
AcDbEntity
  8
1
 62
     4
420
    65535
100
AcDbLine
 10
-97.8291125242
 20
98.6304661414
 30
0.0
 11
-98.4700592211
 21
98.7550535584
 31
0.0
  0
LINE
  5
119
330
1F
100
AcDbEntity
  8
1
 62
     4
420
    65535
100
AcDbLine
 10
-107.462503162
 20
99.3838664948
 30
0.0
 11
-108.1145514268
 21
99.3496940933
 31
0.0
  0
LINE
  5
11A
330
1F
100
AcDbEntity
  8
1
 62
     4
420
    65535
100
AcDbLine
 10
-92.0518628482
 20
93.3352296344
 30
0.0
 11
-92.4016811106
 21
93.1250376167
 31
0.0
  0
LINE
  5
11B
330
1F
100
AcDbEntity
  8
1
 62
     4
420
    65535
100
AcDbLine
 10
-84.0051231663
 20
98.2222559636
 30
0.0
 11
-84.0051231663
 21
106.0574973741
 31
0.0
  0
LINE
  5
11C
330
1F
100
AcDbEntity
  8
1
 62
     4
420
    65535
100
AcDbLine
 10
-89.5012257505
 20
97.9342174324
 30
0.0
 11
-84.0051231663
 21
98.2222559636
 31
0.0
  0
LINE
  5
11D
330
1F
100
AcDbEntity
  8
1
 62
     4
420
    65535
100
AcDbLine
 10
-89.5012257505
 20
97.9342174324
 30
0.0
 11
-89.5012257505
 21
105.9677122282
 31
0.0
  0
ARC
  5
11E
330
1F
100
AcDbEntity
  8
1
 62
     4
420
    65535
100
AcDbCircle
 10
-86.1668677482
 20
70.1224607057
 30
0.0
 40
35.99999999999997
100
AcDbArc
 50
86.5574056286
 51
95.3144125547
  0
LINE
  5
11F
330
1F
100
AcDbEntity
  8
1
 62
     4
420
    65535
100
AcDbLine
 10
-89.5012257505
 20
73.9887787853
 30
0.0
 11
-89.5012257505
 21
96.9328450864
 31
0.0
  0
LINE
  5
120
330
1F
100
AcDbEntity
  8
1
 62
     4
420
    65535
100
AcDbLine
 10
-84.0051231663
 20
97.2208836176
 30
0.0
 11
-89.5012257505
 21
96.9328450864
 31
0.0
  0
LINE
  5
121
330
1F
100
AcDbEntity
  8
1
 62
     4
420
    65535
100
AcDbLine
 10
-84.0051231663
 20
73.9887787853
 30
0.0
 11
-84.0051231663
 21
97.2208836176
 31
0.0
  0
LINE
  5
122
330
1F
100
AcDbEntity
  8
1
 62
     4
420
    65535
100
AcDbLine
 10
-89.5012257505
 20
73.9887787853
 30
0.0
 11
-84.0051231663
 21
73.9887787853
 31
0.0
  0
LINE
  5
123
330
1F
100
AcDbEntity
  8
1
 62
     4
420
    65535
100
AcDbLine
 10
-76.6639596002
 20
97.6056176974
 30
0.0
 11
-84.0051231663
 21
97.2208836176
 31
0.0
  0
ARC
  5
124
330
1F
100
AcDbEntity
  8
1
 62
     4
420
    65535
100
AcDbCircle
 10
-74.3012257505
 20
98.1887787853
 30
0.0
 40
1.800000000000006
100
AcDbArc
 50
214.3970987789
 51
149.6012751089
  0
ARC
  5
125
330
1F
100
AcDbEntity
  8
1
 62
     4
420
    65535
100
AcDbCircle
 10
-86.1668677482
 20
70.1224607057
 30
0.0
 40
35.99999999999999
100
AcDbArc
 50
63.3175321809
 51
86.5574056286
  0
LINE
  5
126
330
1F
100
AcDbEntity
  8
1
 62
     4
420
    65535
100
AcDbLine
 10
-69.2012257505
 20
98.9887787853
 30
0.0
 11
-1.0012257505
 21
98.9887787853
 31
0.0
  0
LINE
  5
127
330
1F
100
AcDbEntity
  8
1
 62
     4
420
    65535
100
AcDbLine
 10
-1.0012257505
 20
73.9887787853
 30
0.0
 11
-1.0012257505
 21
98.9887787853
 31
0.0
  0
LINE
  5
128
330
1F
100
AcDbEntity
  8
1
 62
     4
420
    65535
100
AcDbLine
 10
-84.0051231663
 20
73.9887787853
 30
0.0
 11
-1.0012257505
 21
73.9887787853
 31
0.0
  0
LINE
  5
129
330
1F
100
AcDbEntity
  8
1
 62
     4
420
    65535
100
AcDbLine
 10
-84.0051231663
 20
98.2222559636
 30
0.0
 11
-76.6639596002
 21
98.6069900434
 31
0.0
  0
LINE
  5
12A
330
1F
100
AcDbEntity
  8
1
 62
     4
420
    65535
100
AcDbLine
 10
-70.0012257505
 20
99.7887787853
 30
0.0
 11
-70.0012257505
 21
102.2887787853
 31
0.0
  0
ARC
  5
12B
330
1F
100
AcDbEntity
  8
1
 62
     4
420
    65535
100
AcDbCircle
 10
-69.2012257505
 20
99.7887787853
 30
0.0
 40
0.7999999999999972
100
AcDbArc
 50
180.0
 51
270.0
  0
ARC
  5
12C
330
1F
100
AcDbEntity
  8
1
 62
     4
420
    65535
100
AcDbCircle
 10
-76.7162955564
 20
99.6056195782
 30
0.0
 40
1.000000000000011
100
AcDbArc
 50
273.0
 51
329.6012751089
  0
ARC
  5
12D
330
1F
100
AcDbEntity
  8
1
 62
     4
420
    65535
100
AcDbCircle
 10
-76.611623644
 20
96.6069881627
 30
0.0
 40
0.9999999999999997
100
AcDbArc
 50
34.3970987789
 51
93.0
  0
LINE
  5
12E
330
1F
100
AcDbEntity
  8
1
 62
     4
420
    65535
100
AcDbLine
 10
-0.0012257505
 20
97.9887787853
 30
0.0
 11
-0.0012257505
 21
74.9887787853
 31
0.0
  0
LINE
  5
12F
330
1F
100
AcDbEntity
  8
1
 62
     4
420
    65535
100
AcDbLine
 10
-1.0012257505
 20
98.9887787853
 30
0.0
 11
-0.0012257505
 21
97.9887787853
 31
0.0
  0
LINE
  5
130
330
1F
100
AcDbEntity
  8
1
 62
     4
420
    65535
100
AcDbLine
 10
-0.0012257505
 20
74.9887787853
 30
0.0
 11
-1.0012257505
 21
73.9887787853
 31
0.0
  0
LINE
  5
131
330
1F
100
AcDbEntity
  8
1
 62
     4
420
    65535
100
AcDbLine
 10
-92.1678620732
 20
92.8699821547
 30
0.0
 11
-91.1767704577
 21
96.8450335092
 31
0.0
  0
SPLINE
  5
132
330
1F
100
AcDbEntity
  8
1
 62
     4
420
    65535
100
AcDbSpline
210
0.0
220
0.0
230
1.0
 70
     8
 71
     3
 72
    16
 73
    12
 74
     0
 42
0.000000001
 43
0.00000001
 40
0.0
 40
0.0
 40
0.0
 40
0.0
 40
0.2500000000000002
 40
0.2500000000000002
 40
0.3750000000000001
 40
0.3750000000000001
 40
0.5000000000000001
 40
0.5000000000000001
 40
0.75
 40
0.75
 40
1.0
 40
1.0
 40
1.0
 40
1.0
 10
-114.1783046708732
 20
94.3719013840402
 30
0.0
 10
-114.1102226373147
 20
92.49162965339656
 30
0.0
 10
-113.8925215957643
 20
90.6437368293977
 30
0.0
 10
-113.35165633496
 20
87.91786840695073
 30
0.0
 10
-113.1354634722657
 20
87.01694020587493
 30
0.0
 10
-112.6307932018104
 20
85.23041386190552
 30
0.0
 10
-112.3407008620879
 20
84.34105026270171
 30
0.0
 10
-111.3770110218014
 20
81.74103206317301
 30
0.0
 10
-110.6092505614856
 20
80.08789331129432
 30
0.0
 10
-108.8360595215107
 20
76.92853417568595
 30
0.0
 10
-107.830612742032
 20
75.42236367069411
 30
0.0
 10
-106.7020452476941
 20
73.98877878530993
 30
0.0
  0
ELLIPSE
  5
133
330
1F
100
AcDbEntity
  8
1
 62
     4
420
    65535
100
AcDbEllipse
 10
189.3055480195
 20
98.9887787853
 30
0.0
 11
1134.64392820697
 21
-70.92832240914009
 31
0.0
210
0.0
220
0.0
230
1.0
 40
0.0214830971
 41
4.442965176568736
 42
4.463042596462516
  0
LINE
  5
134
330
1F
100
AcDbEntity
  8
1
 62
     4
420
    65535
100
AcDbLine
 10
-106.7020452477
 20
73.9887787853
 30
0.0
 11
-89.5012257505
 21
73.9887787853
 31
0.0
  0
LINE
  5
135
330
1F
100
AcDbEntity
  8
1
 62
     4
420
    65535
100
AcDbLine
 10
-89.5012257505
 20
96.9328450864
 30
0.0
 11
-91.1767704577
 21
96.8450335092
 31
0.0
  0
LINE
  5
136
330
1F
100
AcDbEntity
  8
1
 62
     4
420
    65535
100
AcDbLine
 10
-90.9237947258
 20
97.8596637516
 30
0.0
 11
-90.7706533757
 21
98.4738801584
 31
0.0
  0
ELLIPSE
  5
137
330
1F
100
AcDbEntity
  8
1
 62
     4
420
    65535
100
AcDbEllipse
 10
-468.3357071501
 20
98.9887787853
 30
0.0
 11
1134.643928206965
 21
-70.92832240914035
 31
0.0
210
0.0
220
0.0
230
1.0
 40
0.0214830971
 41
1.232909843681656
 42
1.247886158215203
  0
SPLINE
  5
138
330
1F
100
AcDbEntity
  8
1
 62
     4
420
    65535
100
AcDbSpline
210
0.0
220
0.0
230
1.0
 70
     8
 71
     3
 72
    16
 73
    12
 74
     0
 42
0.000000001
 43
0.00000001
 40
0.0
 40
0.0
 40
0.0
 40
0.0
 40
0.2499999999999993
 40
0.2499999999999993
 40
0.4999999999999987
 40
0.4999999999999987
 40
0.6249999999999984
 40
0.6249999999999984
 40
0.7499999999999982
 40
0.7499999999999982
 40
1.0
 40
1.0
 40
1.0
 40
1.0
 10
-89.50122575049086
 20
105.9677122281966
 30
0.0
 10
-91.06309565434631
 20
105.8224256646721
 30
0.0
 10
-92.59805014989617
 20
105.57713564903
 30
0.0
 10
-95.61640225559765
 20
104.8945814350273
 30
0.0
 10
-97.09979315876733
 20
104.4572932400805
 30
0.0
 10
-99.28596238153229
 20
103.65590299546
 30
0.0
 10
-100.0081798590247
 20
103.3644552642163
 30
0.0
 10
-101.4393162515901
 20
102.7317299383762
 30
0.0
 10
-102.1462538439457
 20
102.3911627591324
 30
0.0
 10
-104.2227870625476
 20
101.3061652090885
 30
0.0
 10
-105.5556386083405
 20
100.4955433430307
 30
0.0
 10
-106.8367987866042
 20
99.5970930336554
 30
0.0
  0
LINE
  5
139
330
1F
100
AcDbEntity
  8
1
 62
     4
420
    65535
100
AcDbLine
 10
-90.9237947258
 20
97.8596637516
 30
0.0
 11
-89.5012257505
 21
97.9342174324
 31
0.0
  0
ARC
  5
13A
330
1F
100
AcDbEntity
  8
1
 62
     4
420
    65535
100
AcDbCircle
 10
-86.1668677482
 20
70.1224607057
 30
0.0
 40
36.00000000000002
100
AcDbArc
 50
125.0411601646
 51
125.6844647201
  0
LINE
  5
13B
330
1F
100
AcDbEntity
  8
1
 62
     4
420
    65535
100
AcDbLine
 10
-90.9237947258
 20
97.8596637516
 30
0.0
 11
-92.7789723285
 21
97.7624380132
 31
0.0
  0
ARC
  5
13C
330
1F
100
AcDbEntity
  8
1
 62
     4
420
    65535
100
AcDbCircle
 10
-79.2012257505
 20
95.6383729381
 30
0.0
 40
35.00000000000002
100
AcDbArc
 50
181.7053340051
 51
182.0736948397
  0
LINE
  5
13D
330
1F
100
AcDbEntity
  8
1
 62
     4
420
    65535
100
AcDbLine
 10
-92.7789723285
 20
97.7624380132
 30
0.0
 11
-92.9575463915
 21
97.7530793431
 31
0.0
  0
LINE
  5
13E
330
1F
100
AcDbEntity
  8
1
 62
     4
420
    65535
100
AcDbLine
 10
-92.7789723285
 20
97.7624380132
 30
0.0
 11
-93.6919212359
 21
97.8262776198
 31
0.0
  0
DIMENSION
  5
13F
330
1F
100
AcDbEntity
  8
2
 62
     7
420
 16777215
100
AcDbDimension
  2
_D_4
 10
9.9987742495
 20
98.9887787853
 30
0.0
 11
9.9987742495
 21
86.4887787853
 31
0.0
 70
   160
  1
<>
 71
     2
 42
-1.0
  3
SLDDIMSTYLE0
100
AcDbAlignedDimension
 13
-0.0012257505
 23
73.9887787853
 33
0.0
 14
-0.0012257505
 24
98.9887787853
 34
0.0
 50
90.0
100
AcDbRotatedDimension
  0
DIMENSION
  5
149
330
1F
100
AcDbEntity
  8
2
 62
     7
420
 16777215
100
AcDbDimension
  2
_D_5
 10
-125.0012257505
 20
73.9887787853
 30
0.0
 11
-125.0012257505
 21
86.4887787853
 31
0.0
 70
   160
  1
<>
 71
     2
 42
-1.0
  3
SLDDIMSTYLE0
100
AcDbAlignedDimension
 13
-115.0012257505
 23
98.9887787853
 33
0.0
 14
-115.0012257505
 24
73.9887787853
 34
0.0
 50
90.0
100
AcDbRotatedDimension
  0
DIMENSION
  5
153
330
1F
100
AcDbEntity
  8
2
 62
     7
420
 16777215
100
AcDbDimension
  2
_D_6
 10
-131.0012257505
 20
73.9887787853
 30
0.0
 11
-131.0012257505
 21
90.0231380797
 31
0.0
 70
   160
  1
<>
 71
     2
 42
-1.0
  3
SLDDIMSTYLE0
100
AcDbAlignedDimension
 13
-84.0051231663
 23
106.0574973741
 33
0.0
 14
-115.0012257505
 24
73.9887787853
 34
0.0
 50
90.0
100
AcDbRotatedDimension
  0
DIMENSION
  5
15D
330
1F
100
AcDbEntity
  8
2
 62
     7
420
 16777215
100
AcDbDimension
  2
_D_7
 10
-70.0012257505
 20
116.1224607057
 30
0.0
 11
-92.5012257505
 21
116.1224607057
 31
0.0
 70
   160
  1
<>
 71
     2
 42
-1.0
  3
SLDDIMSTYLE0
100
AcDbAlignedDimension
 13
-115.0012257505
 23
98.9887787853
 33
0.0
 14
-70.0012257505
 24
102.2887787853
 34
0.0
100
AcDbRotatedDimension
  0
ENDSEC
  0
SECTION
  2
OBJECTS
  0
DICTIONARY
  5
C
330
0
100
AcDbDictionary
281
     1
  3
ACAD_DETAILVIEWSTYLE
350
170
  3
ACAD_GROUP
350
D
  3
ACAD_LAYOUT
350
1A
  3
ACAD_MATERIAL
350
43
  3
ACAD_MLEADERSTYLE
350
6B
  3
ACAD_MLINESTYLE
350
17
  3
ACAD_PLOTSETTINGS
350
19
  3
ACAD_PLOTSTYLENAME
350
E
  3
ACAD_SCALELIST
350
47
  3
ACAD_SECTIONVIEWSTYLE
350
171
  3
ACAD_TABLESTYLE
350
69
  3
ACDB_RECOMPOSE_DATA
350
16D
  3
AcDbVariableDictionary
350
167
  0
DICTIONARY
  5
170
102
{ACAD_REACTORS
330
C
102
}
330
C
100
AcDbDictionary
281
     1
  0
DICTIONARY
  5
D
102
{ACAD_REACTORS
330
C
102
}
330
C
100
AcDbDictionary
281
     1
  0
DICTIONARY
  5
1A
102
{ACAD_REACTORS
330
C
102
}
330
C
100
AcDbDictionary
281
     1
  3
Layout1
350
1E
  3
Layout2
350
26
  3
Model
350
22
  0
DICTIONARY
  5
43
102
{ACAD_REACTORS
330
C
102
}
330
C
100
AcDbDictionary
281
     1
  3
ByBlock
350
45
  3
ByLayer
350
44
  3
Global
350
46
  0
DICTIONARY
  5
6B
102
{ACAD_REACTORS
330
C
102
}
330
C
100
AcDbDictionary
281
     1
  3
Standard
350
6C
  0
DICTIONARY
  5
17
102
{ACAD_REACTORS
330
C
102
}
330
C
100
AcDbDictionary
281
     1
  3
Standard
350
18
  0
DICTIONARY
  5
19
102
{ACAD_REACTORS
330
C
102
}
330
C
100
AcDbDictionary
281
     1
  0
ACDBDICTIONARYWDFLT
  5
E
102
{ACAD_REACTORS
330
C
102
}
330
C
100
AcDbDictionary
281
     1
  3
Normal
350
F
100
AcDbDictionaryWithDefault
340
F
  0
DICTIONARY
  5
47
102
{ACAD_REACTORS
330
C
102
}
330
C
100
AcDbDictionary
281
     1
  3
A0
350
48
  3
A1
350
49
  3
A2
350
4A
  3
A3
350
4B
  3
A4
350
4C
  3
A5
350
4D
  3
A6
350
4E
  3
A7
350
4F
  3
A8
350
50
  3
A9
350
51
  3
B0
350
52
  3
B1
350
53
  3
B2
350
54
  3
B3
350
55
  3
B4
350
56
  3
B5
350
57
  3
B6
350
58
  3
B7
350
59
  3
B8
350
5A
  3
B9
350
5B
  3
C0
350
5C
  3
C1
350
5D
  3
C2
350
5E
  3
C3
350
5F
  3
C4
350
60
  3
C5
350
61
  3
C6
350
62
  3
C7
350
63
  3
C8
350
64
  3
C9
350
65
  3
D0
350
66
  3
D1
350
67
  3
D2
350
68
  0
DICTIONARY
  5
171
102
{ACAD_REACTORS
330
C
102
}
330
C
100
AcDbDictionary
281
     1
  0
DICTIONARY
  5
69
102
{ACAD_REACTORS
330
C
102
}
330
C
100
AcDbDictionary
281
     1
  3
Standard
350
6A
  0
XRECORD
  5
16D
102
{ACAD_REACTORS
330
C
102
}
330
C
100
AcDbXrecord
280
     1
 90
        1
330
6A
  0
DICTIONARY
  5
167
102
{ACAD_REACTORS
330
C
102
}
330
C
100
AcDbDictionary
281
     1
  3
CANNOSCALE
350
168
  3
CMLEADERSTYLE
350
16F
  3
CTABLESTYLE
350
16E
  0
LAYOUT
  5
1E
102
{ACAD_REACTORS
330
1A
102
}
330
1A
100
AcDbPlotSettings
  1

  2
none_device
  4

  6

 40
0.0
 41
0.0
 42
0.0
 43
0.0
 44
0.0
 45
0.0
 46
0.0
 47
0.0
 48
0.0
 49
0.0
140
0.0
141
0.0
142
1.0
143
1.0
 70
   688
 72
     1
 73
     0
 74
     5
  7

 75
    16
 76
     0
 77
     2
 78
   300
147
1.0
148
0.0
149
0.0
100
AcDbLayout
  1
Layout1
 70
     1
 71
     1
 10
0.0
 20
0.0
 11
420.0
 21
297.0
 12
0.0
 22
0.0
 32
0.0
 14
1.0000000000E+20
 24
1.0000000000E+20
 34
1.0000000000E+20
 15
-1.0000000000E+20
 25
-1.0000000000E+20
 35
-1.0000000000E+20
146
0.0
 13
0.0
 23
0.0
 33
0.0
 16
1.0
 26
0.0
 36
0.0
 17
0.0
 27
1.0
 37
0.0
 76
     0
330
1B
  0
LAYOUT
  5
26
102
{ACAD_REACTORS
330
1A
102
}
330
1A
100
AcDbPlotSettings
  1

  2
none_device
  4

  6

 40
0.0
 41
0.0
 42
0.0
 43
0.0
 44
0.0
 45
0.0
 46
0.0
 47
0.0
 48
0.0
 49
0.0
140
0.0
141
0.0
142
1.0
143
1.0
 70
   688
 72
     1
 73
     0
 74
     5
  7

 75
    16
 76
     0
 77
     2
 78
   300
147
1.0
148
0.0
149
0.0
100
AcDbLayout
  1
Layout2
 70
     1
 71
     2
 10
0.0
 20
0.0
 11
0.0
 21
0.0
 12
0.0
 22
0.0
 32
0.0
 14
0.0
 24
0.0
 34
0.0
 15
0.0
 25
0.0
 35
0.0
146
0.0
 13
0.0
 23
0.0
 33
0.0
 16
1.0
 26
0.0
 36
0.0
 17
0.0
 27
1.0
 37
0.0
 76
     0
330
23
  0
LAYOUT
  5
22
102
{ACAD_REACTORS
330
1A
102
}
330
1A
100
AcDbPlotSettings
  1

  2
none_device
  4
Letter_(8.50_x_11.00_Inches)
  6

 40
6.35
 41
6.35
 42
6.35000508
 43
6.35000508
 44
215.9
 45
279.4
 46
0.0
 47
0.0
 48
0.0
 49
0.0
140
0.0
141
0.0
142
1.0
143
1.0
 70
  1712
 72
     1
 73
     0
 74
     0
  7

 75
     0
 76
     0
 77
     2
 78
   300
147
1.0
148
0.0
149
0.0
100
AcDbLayout
  1
Model
 70
     1
 71
     0
 10
0.0
 20
0.0
 11
297.0
 21
210.0
 12
0.0
 22
0.0
 32
0.0
 14
0.0
 24
0.0
 34
0.0
 15
297.0
 25
210.0
 35
0.0
146
0.0
 13
0.0
 23
0.0
 33
0.0
 16
1.0
 26
0.0
 36
0.0
 17
0.0
 27
1.0
 37
0.0
 76
     0
330
1F
331
29
  0
MATERIAL
  5
45
102
{ACAD_REACTORS
330
43
102
}
330
43
100
AcDbMaterial
  1
ByBlock
  0
MATERIAL
  5
44
102
{ACAD_REACTORS
330
43
102
}
330
43
100
AcDbMaterial
  1
ByLayer
  0
MATERIAL
  5
46
102
{ACAD_REACTORS
330
43
102
}
330
43
100
AcDbMaterial
  1
Global
  0
MLEADERSTYLE
  5
6C
102
{ACAD_REACTORS
330
6B
102
}
330
6B
100
AcDbMLeaderStyle
170
     2
171
     1
172
     0
 90
        2
 40
0.0
 41
0.0
173
     1
 91
-1056964608
340
14
 92
       -2
290
     1
 42
2.0
291
     1
 43
8.0
  3
Standard
341
0
 44
4.0
300

342
11
174
     1
178
     6
175
     1
176
     0
 93
-1056964608
 45
4.0
292
     0
297
     0
 46
4.0
343
0
 94
-1056964608
 47
1.0
 49
1.0
140
1.0
293
     1
141
0.0
294
     1
177
     0
142
1.0
295
     0
296
     0
143
3.75
1001
ACAD_MLEADERVER
1070
     2
  0
MLINESTYLE
  5
18
102
{ACAD_REACTORS
330
17
102
}
330
17
100
AcDbMlineStyle
  2
Standard
 70
     0
  3

 62
   256
 51
90.0
 52
90.0
 71
     2
 49
0.5
 62
   256
  6
BYLAYER
 49
-0.5
 62
   256
  6
BYLAYER
  0
ACDBPLACEHOLDER
  5
F
102
{ACAD_REACTORS
330
E
102
}
330
E
  0
SCALE
  5
48
102
{ACAD_REACTORS
330
47
102
}
330
47
100
AcDbScale
 70
     0
300
1:1
140
1.0
141
1.0
290
     1
  0
SCALE
  5
49
102
{ACAD_REACTORS
330
47
102
}
330
47
100
AcDbScale
 70
     0
300
1:2
140
1.0
141
2.0
290
     0
  0
SCALE
  5
4A
102
{ACAD_REACTORS
330
47
102
}
330
47
100
AcDbScale
 70
     0
300
1:4
140
1.0
141
4.0
290
     0
  0
SCALE
  5
4B
102
{ACAD_REACTORS
330
47
102
}
330
47
100
AcDbScale
 70
     0
300
1:5
140
1.0
141
5.0
290
     0
  0
SCALE
  5
4C
102
{ACAD_REACTORS
330
47
102
}
330
47
100
AcDbScale
 70
     0
300
1:8
140
1.0
141
8.0
290
     0
  0
SCALE
  5
4D
102
{ACAD_REACTORS
330
47
102
}
330
47
100
AcDbScale
 70
     0
300
1:10
140
1.0
141
10.0
290
     0
  0
SCALE
  5
4E
102
{ACAD_REACTORS
330
47
102
}
330
47
100
AcDbScale
 70
     0
300
1:16
140
1.0
141
16.0
290
     0
  0
SCALE
  5
4F
102
{ACAD_REACTORS
330
47
102
}
330
47
100
AcDbScale
 70
     0
300
1:20
140
1.0
141
20.0
290
     0
  0
SCALE
  5
50
102
{ACAD_REACTORS
330
47
102
}
330
47
100
AcDbScale
 70
     0
300
1:30
140
1.0
141
30.0
290
     0
  0
SCALE
  5
51
102
{ACAD_REACTORS
330
47
102
}
330
47
100
AcDbScale
 70
     0
300
1:40
140
1.0
141
40.0
290
     0
  0
SCALE
  5
52
102
{ACAD_REACTORS
330
47
102
}
330
47
100
AcDbScale
 70
     0
300
1:50
140
1.0
141
50.0
290
     0
  0
SCALE
  5
53
102
{ACAD_REACTORS
330
47
102
}
330
47
100
AcDbScale
 70
     0
300
1:100
140
1.0
141
100.0
290
     0
  0
SCALE
  5
54
102
{ACAD_REACTORS
330
47
102
}
330
47
100
AcDbScale
 70
     0
300
2:1
140
2.0
141
1.0
290
     0
  0
SCALE
  5
55
102
{ACAD_REACTORS
330
47
102
}
330
47
100
AcDbScale
 70
     0
300
4:1
140
4.0
141
1.0
290
     0
  0
SCALE
  5
56
102
{ACAD_REACTORS
330
47
102
}
330
47
100
AcDbScale
 70
     0
300
8:1
140
8.0
141
1.0
290
     0
  0
SCALE
  5
57
102
{ACAD_REACTORS
330
47
102
}
330
47
100
AcDbScale
 70
     0
300
10:1
140
10.0
141
1.0
290
     0
  0
SCALE
  5
58
102
{ACAD_REACTORS
330
47
102
}
330
47
100
AcDbScale
 70
     0
300
100:1
140
100.0
141
1.0
290
     0
  0
SCALE
  5
59
102
{ACAD_REACTORS
330
47
102
}
330
47
100
AcDbScale
 70
     0
300
1/128" = 1'-0"
140
0.0078125
141
12.0
290
     0
  0
SCALE
  5
5A
102
{ACAD_REACTORS
330
47
102
}
330
47
100
AcDbScale
 70
     0
300
1/64" = 1'-0"
140
0.015625
141
12.0
290
     0
  0
SCALE
  5
5B
102
{ACAD_REACTORS
330
47
102
}
330
47
100
AcDbScale
 70
     0
300
1/32" = 1'-0"
140
0.03125
141
12.0
290
     0
  0
SCALE
  5
5C
102
{ACAD_REACTORS
330
47
102
}
330
47
100
AcDbScale
 70
     0
300
1/16" = 1'-0"
140
0.0625
141
12.0
290
     0
  0
SCALE
  5
5D
102
{ACAD_REACTORS
330
47
102
}
330
47
100
AcDbScale
 70
     0
300
3/32" = 1'-0"
140
0.09375
141
12.0
290
     0
  0
SCALE
  5
5E
102
{ACAD_REACTORS
330
47
102
}
330
47
100
AcDbScale
 70
     0
300
1/8" = 1'-0"
140
0.125
141
12.0
290
     0
  0
SCALE
  5
5F
102
{ACAD_REACTORS
330
47
102
}
330
47
100
AcDbScale
 70
     0
300
3/16" = 1'-0"
140
0.1875
141
12.0
290
     0
  0
SCALE
  5
60
102
{ACAD_REACTORS
330
47
102
}
330
47
100
AcDbScale
 70
     0
300
1/4" = 1'-0"
140
0.25
141
12.0
290
     0
  0
SCALE
  5
61
102
{ACAD_REACTORS
330
47
102
}
330
47
100
AcDbScale
 70
     0
300
3/8" = 1'-0"
140
0.375
141
12.0
290
     0
  0
SCALE
  5
62
102
{ACAD_REACTORS
330
47
102
}
330
47
100
AcDbScale
 70
     0
300
1/2" = 1'-0"
140
0.5
141
12.0
290
     0
  0
SCALE
  5
63
102
{ACAD_REACTORS
330
47
102
}
330
47
100
AcDbScale
 70
     0
300
3/4" = 1'-0"
140
0.75
141
12.0
290
     0
  0
SCALE
  5
64
102
{ACAD_REACTORS
330
47
102
}
330
47
100
AcDbScale
 70
     0
300
1" = 1'-0"
140
1.0
141
12.0
290
     0
  0
SCALE
  5
65
102
{ACAD_REACTORS
330
47
102
}
330
47
100
AcDbScale
 70
     0
300
1-1/2" = 1'-0"
140
1.5
141
12.0
290
     0
  0
SCALE
  5
66
102
{ACAD_REACTORS
330
47
102
}
330
47
100
AcDbScale
 70
     0
300
3" = 1'-0"
140
3.0
141
12.0
290
     0
  0
SCALE
  5
67
102
{ACAD_REACTORS
330
47
102
}
330
47
100
AcDbScale
 70
     0
300
6" = 1'-0"
140
6.0
141
12.0
290
     0
  0
SCALE
  5
68
102
{ACAD_REACTORS
330
47
102
}
330
47
100
AcDbScale
 70
     0
300
1'-0" = 1'-0"
140
12.0
141
12.0
290
     0
  0
TABLESTYLE
  5
6A
102
{ACAD_REACTORS
330
69
102
}
102
{ACAD_XDICTIONARY
360
169
102
}
330
69
100
AcDbTableStyle
  3
Standard
 70
     0
 71
     0
 40
0.06
 41
0.06
280
     0
281
     0
  7
Standard
140
4.5
170
     2
 62
     0
 63
   257
283
     0
274
    -2
284
     1
 64
     0
275
    -2
285
     1
 65
     0
276
    -2
286
     1
 66
     0
277
    -2
287
     1
 67
     0
278
    -2
288
     1
 68
     0
279
    -2
289
     1
 69
     0
  7
Standard
140
6.0
170
     5
 62
     0
 63
   257
283
     0
274
    -2
284
     1
 64
     0
275
    -2
285
     1
 65
     0
276
    -2
286
     1
 66
     0
277
    -2
287
     1
 67
     0
278
    -2
288
     1
 68
     0
279
    -2
289
     1
 69
     0
  7
Standard
140
4.5
170
     5
 62
     0
 63
   257
283
     0
274
    -2
284
     1
 64
     0
275
    -2
285
     1
 65
     0
276
    -2
286
     1
 66
     0
277
    -2
287
     1
 67
     0
278
    -2
288
     1
 68
     0
279
    -2
289
     1
 69
     0
  0
DICTIONARYVAR
  5
168
102
{ACAD_REACTORS
330
167
102
}
330
167
100
DictionaryVariables
280
     0
  1
1:1
  0
DICTIONARYVAR
  5
16F
102
{ACAD_REACTORS
330
167
102
}
330
167
100
DictionaryVariables
280
     0
  1
Standard
  0
DICTIONARYVAR
  5
16E
102
{ACAD_REACTORS
330
167
102
}
330
167
100
DictionaryVariables
280
     0
  1
Standard
  0
DICTIONARY
  5
169
330
6A
100
AcDbDictionary
280
     1
281
     1
  3
ACAD_ROUNDTRIP_2008_TABLESTYLE_CELLSTYLEMAP
360
16B
  3
ACAD_XREC_ROUNDTRIP
360
16A
  0
CELLSTYLEMAP
  5
16B
102
{ACAD_REACTORS
330
169
102
}
330
169
100
AcDbCellStyleMap
 90
        3
300
CELLSTYLE
  1
TABLEFORMAT_BEGIN
 90
        5
170
     1
 91
        0
 92
    32768
 62
   257
 93
        1
300
CONTENTFORMAT
  1
CONTENTFORMAT_BEGIN
 90
        0
 91
        0
 92
        4
 93
        0
300

 40
0.0
140
1.0
 94
        5
 62
     0
340
11
144
6.0
309
CONTENTFORMAT_END
171
     1
301
MARGIN
  1
CELLMARGIN_BEGIN
 40
1.5
 40
1.5
 40
1.5
 40
1.5
 40
1.5
 40
1.5
309
CELLMARGIN_END
 94
        6
 95
        1
302
GRIDFORMAT
  1
GRIDFORMAT_BEGIN
 90
        0
 91
        1
 62
     0
 92
       -2
340
14
 93
        0
 40
0.045
309
GRIDFORMAT_END
 95
        2
302
GRIDFORMAT
  1
GRIDFORMAT_BEGIN
 90
        0
 91
        1
 62
     0
 92
       -2
340
14
 93
        0
 40
0.045
309
GRIDFORMAT_END
 95
        4
302
GRIDFORMAT
  1
GRIDFORMAT_BEGIN
 90
        0
 91
        1
 62
     0
 92
       -2
340
14
 93
        0
 40
0.045
309
GRIDFORMAT_END
 95
        8
302
GRIDFORMAT
  1
GRIDFORMAT_BEGIN
 90
        0
 91
        1
 62
     0
 92
       -2
340
14
 93
        0
 40
0.045
309
GRIDFORMAT_END
 95
       16
302
GRIDFORMAT
  1
GRIDFORMAT_BEGIN
 90
        0
 91
        1
 62
     0
 92
       -2
340
14
 93
        0
 40
0.045
309
GRIDFORMAT_END
 95
       32
302
GRIDFORMAT
  1
GRIDFORMAT_BEGIN
 90
        0
 91
        1
 62
     0
 92
       -2
340
14
 93
        0
 40
0.045
309
GRIDFORMAT_END
309
TABLEFORMAT_END
  1
CELLSTYLE_BEGIN
 90
        1
 91
        1
300
_TITLE
309
CELLSTYLE_END
300
CELLSTYLE
  1
TABLEFORMAT_BEGIN
 90
        5
170
     1
 91
        0
 92
        0
 62
   257
 93
        1
300
CONTENTFORMAT
  1
CONTENTFORMAT_BEGIN
 90
        0
 91
        0
 92
        4
 93
        0
300

 40
0.0
140
1.0
 94
        5
 62
     0
340
11
144
4.5
309
CONTENTFORMAT_END
171
     1
301
MARGIN
  1
CELLMARGIN_BEGIN
 40
1.5
 40
1.5
 40
1.5
 40
1.5
 40
1.5
 40
1.5
309
CELLMARGIN_END
 94
        6
 95
        1
302
GRIDFORMAT
  1
GRIDFORMAT_BEGIN
 90
        0
 91
        1
 62
     0
 92
       -2
340
14
 93
        0
 40
0.045
309
GRIDFORMAT_END
 95
        2
302
GRIDFORMAT
  1
GRIDFORMAT_BEGIN
 90
        0
 91
        1
 62
     0
 92
       -2
340
14
 93
        0
 40
0.045
309
GRIDFORMAT_END
 95
        4
302
GRIDFORMAT
  1
GRIDFORMAT_BEGIN
 90
        0
 91
        1
 62
     0
 92
       -2
340
14
 93
        0
 40
0.045
309
GRIDFORMAT_END
 95
        8
302
GRIDFORMAT
  1
GRIDFORMAT_BEGIN
 90
        0
 91
        1
 62
     0
 92
       -2
340
14
 93
        0
 40
0.045
309
GRIDFORMAT_END
 95
       16
302
GRIDFORMAT
  1
GRIDFORMAT_BEGIN
 90
        0
 91
        1
 62
     0
 92
       -2
340
14
 93
        0
 40
0.045
309
GRIDFORMAT_END
 95
       32
302
GRIDFORMAT
  1
GRIDFORMAT_BEGIN
 90
        0
 91
        1
 62
     0
 92
       -2
340
14
 93
        0
 40
0.045
309
GRIDFORMAT_END
309
TABLEFORMAT_END
  1
CELLSTYLE_BEGIN
 90
        2
 91
        1
300
_HEADER
309
CELLSTYLE_END
300
CELLSTYLE
  1
TABLEFORMAT_BEGIN
 90
        5
170
     1
 91
        0
 92
        0
 62
   257
 93
        1
300
CONTENTFORMAT
  1
CONTENTFORMAT_BEGIN
 90
        0
 91
        0
 92
        4
 93
        0
300

 40
0.0
140
1.0
 94
        2
 62
     0
340
11
144
4.5
309
CONTENTFORMAT_END
171
     1
301
MARGIN
  1
CELLMARGIN_BEGIN
 40
1.5
 40
1.5
 40
1.5
 40
1.5
 40
1.5
 40
1.5
309
CELLMARGIN_END
 94
        6
 95
        1
302
GRIDFORMAT
  1
GRIDFORMAT_BEGIN
 90
        0
 91
        1
 62
     0
 92
       -2
340
14
 93
        0
 40
0.045
309
GRIDFORMAT_END
 95
        2
302
GRIDFORMAT
  1
GRIDFORMAT_BEGIN
 90
        0
 91
        1
 62
     0
 92
       -2
340
14
 93
        0
 40
0.045
309
GRIDFORMAT_END
 95
        4
302
GRIDFORMAT
  1
GRIDFORMAT_BEGIN
 90
        0
 91
        1
 62
     0
 92
       -2
340
14
 93
        0
 40
0.045
309
GRIDFORMAT_END
 95
        8
302
GRIDFORMAT
  1
GRIDFORMAT_BEGIN
 90
        0
 91
        1
 62
     0
 92
       -2
340
14
 93
        0
 40
0.045
309
GRIDFORMAT_END
 95
       16
302
GRIDFORMAT
  1
GRIDFORMAT_BEGIN
 90
        0
 91
        1
 62
     0
 92
       -2
340
14
 93
        0
 40
0.045
309
GRIDFORMAT_END
 95
       32
302
GRIDFORMAT
  1
GRIDFORMAT_BEGIN
 90
        0
 91
        1
 62
     0
 92
       -2
340
14
 93
        0
 40
0.045
309
GRIDFORMAT_END
309
TABLEFORMAT_END
  1
CELLSTYLE_BEGIN
 90
        3
 91
        2
300
_DATA
309
CELLSTYLE_END
  0
XRECORD
  5
16A
102
{ACAD_REACTORS
330
169
102
}
330
169
100
AcDbXrecord
280
     1
102
ACAD_ROUNDTRIP_PRE2007_TABLESTYLE
 90
        4
 91
        0
  1

 92
        4
 93
        0
  2

 94
        4
 95
        0
  3

  0
ENDSEC
  0
EOF
