  0
SECTION
  2
HEADER
  9
$ACADVER
  1
AC1018
  9
$ACADMAINTVER
 70
     0
  9
$DWGCODEPAGE
  3
ANSI_1252
  9
$INSBASE
 10
0.0
 20
0.0
 30
0.0
  9
$EXTMIN
 10
0.0
 20
0.0
 30
0.0
  9
$EXTMAX
 10
297.0
 20
210.0
 30
0.0
  9
$LIMMIN
 10
0.0
 20
0.0
  9
$LIMMAX
 10
297.0
 20
210.0
  9
$ORTHOMODE
 70
     0
  9
$REGENMODE
 70
     1
  9
$FILLMODE
 70
     1
  9
$QTEXTMODE
 70
     0
  9
$MIRRTEXT
 70
     1
  9
$LTSCALE
 40
1.0
  9
$ATTMODE
 70
     1
  9
$TEXTSIZE
 40
3.5
  9
$TRACEWID
 40
1.0
  9
$TEXTSTYLE
  7
Standard
  9
$CLAYER
  8
0
  9
$CELTYPE
  6
ByLayer
  9
$CECOLOR
 62
   256
  9
$CELTSCALE
 40
1.0
  9
$DISPSILH
 70
     0
  9
$DIMSCALE
 40
1.0
  9
$DIMASZ
 40
3.302
  9
$DIMEXO
 40
1.0
  9
$DIMDLI
 40
3.75
  9
$DIMRND
 40
0.0
  9
$DIMDLE
 40
0.0
  9
$DIMEXE
 40
1.0
  9
$DIMTP
 40
0.0
  9
$DIMTM
 40
0.0
  9
$DIMTXT
 40
3.5
  9
$DIMCEN
 40
2.5
  9
$DIMTSZ
 40
0.0
  9
$DIMTOL
 70
     0
  9
$DIMLIM
 70
     0
  9
$DIMTIH
 70
     1
  9
$DIMTOH
 70
     1
  9
$DIMSE1
 70
     0
  9
$DIMSE2
 70
     0
  9
$DIMTAD
 70
     1
  9
$DIMZIN
 70
     0
  9
$DIMBLK
  1

  9
$DIMASO
 70
     1
  9
$DIMSHO
 70
     1
  9
$DIMPOST
  1

  9
$DIMAPOST
  1

  9
$DIMALT
 70
     0
  9
$DIMALTD
 70
     3
  9
$DIMALTF
 40
0.0393700787
  9
$DIMLFAC
 40
1.0
  9
$DIMTOFL
 70
     1
  9
$DIMTVP
 40
0.0
  9
$DIMTIX
 70
     0
  9
$DIMSOXD
 70
     0
  9
$DIMSAH
 70
     0
  9
$DIMBLK1
  1

  9
$DIMBLK2
  1

  9
$DIMSTYLE
  2
ISO-25
  9
$DIMCLRD
 70
     0
  9
$DIMCLRE
 70
     0
  9
$DIMCLRT
 70
     0
  9
$DIMTFAC
 40
1.0
  9
$DIMGAP
 40
1.524
  9
$DIMJUST
 70
     0
  9
$DIMSD1
 70
     0
  9
$DIMSD2
 70
     0
  9
$DIMTOLJ
 70
     0
  9
$DIMTZIN
 70
     0
  9
$DIMALTZ
 70
     0
  9
$DIMALTTZ
 70
     0
  9
$DIMUPT
 70
     0
  9
$DIMDEC
 70
     2
  9
$DIMTDEC
 70
     2
  9
$DIMALTU
 70
     2
  9
$DIMALTTD
 70
     3
  9
$DIMTXSTY
  7
Standard
  9
$DIMAUNIT
 70
     0
  9
$DIMADEC
 70
     2
  9
$DIMALTRND
 40
0.0
  9
$DIMAZIN
 70
     0
  9
$DIMDSEP
 70
    44
  9
$DIMATFIT
 70
     3
  9
$DIMFRAC
 70
     0
  9
$DIMLDRBLK
  1

  9
$DIMLUNIT
 70
     2
  9
$DIMLWD
 70
    -2
  9
$DIMLWE
 70
    -2
  9
$DIMTMOVE
 70
     0
  9
$LUNITS
 70
     2
  9
$LUPREC
 70
     2
  9
$SKETCHINC
 40
1.0
  9
$FILLETRAD
 40
10.0
  9
$AUNITS
 70
     0
  9
$AUPREC
 70
     2
  9
$MENU
  1
.
  9
$ELEVATION
 40
0.0
  9
$PELEVATION
 40
0.0
  9
$THICKNESS
 40
0.0
  9
$LIMCHECK
 70
     0
  9
$CHAMFERA
 40
0.0
  9
$CHAMFERB
 40
0.0
  9
$CHAMFERC
 40
0.0
  9
$CHAMFERD
 40
0.0
  9
$SKPOLY
 70
     0
  9
$TDCREATE
 40
2457106.383720058
  9
$TDUCREATE
 40
2457106.342053391
  9
$TDUPDATE
 40
2457106.383720555
  9
$TDUUPDATE
 40
2457106.342053889
  9
$TDINDWG
 40
0.0000000116
  9
$TDUSRTIMER
 40
0.0000000116
  9
$USRTIMER
 70
     1
  9
$ANGBASE
 50
0.0
  9
$ANGDIR
 70
     0
  9
$PDMODE
 70
     0
  9
$PDSIZE
 40
-1.0
  9
$PLINEWID
 40
0.0
  9
$SPLFRAME
 70
     0
  9
$SPLINETYPE
 70
     6
  9
$SPLINESEGS
 70
     8
  9
$HANDSEED
  5
15D
  9
$SURFTAB1
 70
     6
  9
$SURFTAB2
 70
     6
  9
$SURFTYPE
 70
     6
  9
$SURFU
 70
     6
  9
$SURFV
 70
     6
  9
$UCSBASE
  2

  9
$UCSNAME
  2

  9
$UCSORG
 10
0.0
 20
0.0
 30
0.0
  9
$UCSXDIR
 10
1.0
 20
0.0
 30
0.0
  9
$UCSYDIR
 10
0.0
 20
1.0
 30
0.0
  9
$UCSORTHOREF
  2

  9
$UCSORTHOVIEW
 70
     0
  9
$UCSORGTOP
 10
0.0
 20
0.0
 30
0.0
  9
$UCSORGBOTTOM
 10
0.0
 20
0.0
 30
0.0
  9
$UCSORGLEFT
 10
0.0
 20
0.0
 30
0.0
  9
$UCSORGRIGHT
 10
0.0
 20
0.0
 30
0.0
  9
$UCSORGFRONT
 10
0.0
 20
0.0
 30
0.0
  9
$UCSORGBACK
 10
0.0
 20
0.0
 30
0.0
  9
$PUCSBASE
  2

  9
$PUCSNAME
  2

  9
$PUCSORG
 10
0.0
 20
0.0
 30
0.0
  9
$PUCSXDIR
 10
1.0
 20
0.0
 30
0.0
  9
$PUCSYDIR
 10
0.0
 20
1.0
 30
0.0
  9
$PUCSORTHOREF
  2

  9
$PUCSORTHOVIEW
 70
     0
  9
$PUCSORGTOP
 10
0.0
 20
0.0
 30
0.0
  9
$PUCSORGBOTTOM
 10
0.0
 20
0.0
 30
0.0
  9
$PUCSORGLEFT
 10
0.0
 20
0.0
 30
0.0
  9
$PUCSORGRIGHT
 10
0.0
 20
0.0
 30
0.0
  9
$PUCSORGFRONT
 10
0.0
 20
0.0
 30
0.0
  9
$PUCSORGBACK
 10
0.0
 20
0.0
 30
0.0
  9
$USERI1
 70
     0
  9
$USERI2
 70
     0
  9
$USERI3
 70
     0
  9
$USERI4
 70
     0
  9
$USERI5
 70
     0
  9
$USERR1
 40
0.0
  9
$USERR2
 40
0.0
  9
$USERR3
 40
0.0
  9
$USERR4
 40
0.0
  9
$USERR5
 40
0.0
  9
$WORLDVIEW
 70
     1
  9
$SHADEDGE
 70
     3
  9
$SHADEDIF
 70
    70
  9
$TILEMODE
 70
     1
  9
$MAXACTVP
 70
    64
  9
$PINSBASE
 10
0.0
 20
0.0
 30
0.0
  9
$PLIMCHECK
 70
     0
  9
$PEXTMIN
 10
1.0000000000E+20
 20
1.0000000000E+20
 30
1.0000000000E+20
  9
$PEXTMAX
 10
-1.0000000000E+20
 20
-1.0000000000E+20
 30
-1.0000000000E+20
  9
$PLIMMIN
 10
0.0
 20
0.0
  9
$PLIMMAX
 10
420.0
 20
297.0
  9
$UNITMODE
 70
     0
  9
$VISRETAIN
 70
     1
  9
$PLINEGEN
 70
     0
  9
$PSLTSCALE
 70
     1
  9
$TREEDEPTH
 70
  3020
  9
$CMLSTYLE
  2
Standard
  9
$CMLJUST
 70
     0
  9
$CMLSCALE
 40
20.0
  9
$PROXYGRAPHICS
 70
     1
  9
$MEASUREMENT
 70
     1
  9
$CELWEIGHT
370
    -1
  9
$ENDCAPS
280
     0
  9
$JOINSTYLE
280
     0
  9
$LWDISPLAY
290
     1
  9
$INSUNITS
 70
     4
  9
$HYPERLINKBASE
  1

  9
$STYLESHEET
  1

  9
$XEDIT
290
     1
  9
$CEPSNTYPE
380
     0
  9
$PSTYLEMODE
290
     1
  9
$FINGERPRINTGUID
  2
{D646F600-4392-448A-8924-771F281CC18B}
  9
$VERSIONGUID
  2
{FAEB1C32-E019-11D5-929B-00C0DF256EC4}
  9
$EXTNAMES
290
     1
  9
$PSVPSCALE
 40
0.0
  9
$OLESTARTUP
290
     0
  9
$SORTENTS
280
   127
  9
$INDEXCTL
280
     0
  9
$HIDETEXT
280
     1
  9
$XCLIPFRAME
290
     0
  9
$HALOGAP
280
     0
  9
$OBSCOLOR
 70
   257
  9
$OBSLTYPE
280
     0
  9
$INTERSECTIONDISPLAY
280
     0
  9
$INTERSECTIONCOLOR
 70
   257
  9
$DIMASSOC
280
     2
  9
$PROJECTNAME
  1

  0
ENDSEC
  0
SECTION
  2
CLASSES
  0
CLASS
  1
ACDBDICTIONARYWDFLT
  2
AcDbDictionaryWithDefault
  3
ObjectDBX Classes
 90
        0
 91
        4
280
     0
281
     0
  0
CLASS
  1
VISUALSTYLE
  2
AcDbVisualStyle
  3
ObjectDBX Classes
 90
     4095
 91
        4
280
     0
281
     0
  0
CLASS
  1
MATERIAL
  2
AcDbMaterial
  3
ObjectDBX Classes
 90
     1153
 91
        4
280
     0
281
     0
  0
CLASS
  1
SCALE
  2
AcDbScale
  3
ObjectDBX Classes
 90
     1153
 91
        4
280
     0
281
     0
  0
CLASS
  1
TABLESTYLE
  2
AcDbTableStyle
  3
ObjectDBX Classes
 90
     4095
 91
        4
280
     0
281
     0
  0
CLASS
  1
MLEADERSTYLE
  2
AcDbMLeaderStyle
  3
ACDB_MLEADERSTYLE_CLASS
 90
     4095
 91
        4
280
     0
281
     0
  0
CLASS
  1
SUN
  2
AcDbSun
  3
SCENEOE
 90
     1153
 91
        4
280
     0
281
     0
  0
CLASS
  1
DICTIONARYVAR
  2
AcDbDictionaryVar
  3
ObjectDBX Classes
 90
        0
 91
        4
280
     0
281
     0
  0
CLASS
  1
CELLSTYLEMAP
  2
AcDbCellStyleMap
  3
ObjectDBX Classes
 90
     1152
 91
        4
280
     0
281
     0
  0
ENDSEC
  0
SECTION
  2
TABLES
  0
TABLE
  2
VPORT
  5
8
330
0
100
AcDbSymbolTable
 70
     1
  0
VPORT
  5
29
330
8
100
AcDbSymbolTableRecord
100
AcDbViewportTableRecord
  2
*Active
 70
     0
 10
0.0
 20
0.0
 11
1.0
 21
1.0
 12
148.5
 22
105.0
 13
0.0
 23
0.0
 14
10.0
 24
10.0
 15
10.0
 25
10.0
 16
0.0
 26
0.0
 36
1.0
 17
0.0
 27
0.0
 37
0.0
 40
210.0
 41
1.4142857143
 42
50.0
 43
0.0
 44
0.0
 50
0.0
 51
0.0
 71
     0
 72
  2000
 73
     1
 74
     3
 75
     0
 76
     0
 77
     0
 78
     0
281
     0
 65
     1
110
0.0
120
0.0
130
0.0
111
1.0
121
0.0
131
0.0
112
0.0
122
1.0
132
0.0
 79
     0
146
0.0
  0
ENDTAB
  0
TABLE
  2
LTYPE
  5
5
330
0
100
AcDbSymbolTable
 70
     8
  0
LTYPE
  5
14
330
5
100
AcDbSymbolTableRecord
100
AcDbLinetypeTableRecord
  2
ByBlock
 70
     0
  3

 72
    65
 73
     0
 40
0.0
  0
LTYPE
  5
15
330
5
100
AcDbSymbolTableRecord
100
AcDbLinetypeTableRecord
  2
ByLayer
 70
     0
  3

 72
    65
 73
     0
 40
0.0
  0
LTYPE
  5
16
330
5
100
AcDbSymbolTableRecord
100
AcDbLinetypeTableRecord
  2
Continuous
 70
     0
  3
Solid line
 72
    65
 73
     0
 40
0.0
  0
LTYPE
  5
6E
330
5
100
AcDbSymbolTableRecord
100
AcDbLinetypeTableRecord
  2
SLD-Durchgehend
 70
     0
  3
SolidWorks Line Style
 72
    65
 73
     0
 40
0.0
  0
LTYPE
  5
6F
330
5
100
AcDbSymbolTableRecord
100
AcDbLinetypeTableRecord
  2
SLD-Gestrichelt
 70
     0
  3
SolidWorks Line Style
 72
    65
 73
     2
 40
1.905
 49
1.27
 74
     0
 49
-0.635
 74
     0
  0
LTYPE
  5
70
330
5
100
AcDbSymbolTableRecord
100
AcDbLinetypeTableRecord
  2
SLD-Phantom
 70
     0
  3
SolidWorks Line Style
 72
    65
 73
     6
 40
12.7
 49
6.35
 74
     0
 49
-1.27
 74
     0
 49
1.27
 74
     0
 49
-1.27
 74
     0
 49
1.27
 74
     0
 49
-1.27
 74
     0
  0
LTYPE
  5
71
330
5
100
AcDbSymbolTableRecord
100
AcDbLinetypeTableRecord
  2
SLD-Kette
 70
     0
  3
SolidWorks Line Style
 72
    65
 73
     4
 40
10.16
 49
6.35
 74
     0
 49
-1.27
 74
     0
 49
1.27
 74
     0
 49
-1.27
 74
     0
  0
LTYPE
  5
72
330
5
100
AcDbSymbolTableRecord
100
AcDbLinetypeTableRecord
  2
SLD-Punktstrich
 70
     0
  3
SolidWorks Line Style
 72
    65
 73
     4
 40
19.05
 49
15.24
 74
     0
 49
-1.27
 74
     0
 49
1.27
 74
     0
 49
-1.27
 74
     0
  0
LTYPE
  5
73
330
5
100
AcDbSymbolTableRecord
100
AcDbLinetypeTableRecord
  2
SLD-Naht
 70
     0
  3
SolidWorks Line Style
 72
    65
 73
     2
 40
0.635
 49
0.0
 74
     0
 49
-0.635
 74
     0
  0
LTYPE
  5
74
330
5
100
AcDbSymbolTableRecord
100
AcDbLinetypeTableRecord
  2
SLD-Dicke-Dünne-Kette
 70
     0
  3
SolidWorks Line Style
 72
    65
 73
     4
 40
10.16
 49
6.35
 74
     0
 49
-1.27
 74
     0
 49
1.27
 74
     0
 49
-1.27
 74
     0
  0
ENDTAB
  0
TABLE
  2
LAYER
  5
2
330
0
100
AcDbSymbolTable
 70
     3
  0
LAYER
  5
10
330
2
100
AcDbSymbolTableRecord
100
AcDbLayerTableRecord
  2
0
 70
     0
 62
     7
  6
Continuous
370
    -3
390
F
  0
LAYER
  5
75
330
2
100
AcDbSymbolTableRecord
100
AcDbLayerTableRecord
  2
1
 70
     0
 62
     4
  6
Continuous
370
    -1
390
F
  0
LAYER
  5
76
330
2
100
AcDbSymbolTableRecord
100
AcDbLayerTableRecord
  2
2
 70
     0
 62
     7
  6
SLD-Durchgehend
370
    -3
390
F
  0
ENDTAB
  0
TABLE
  2
STYLE
  5
3
330
0
100
AcDbSymbolTable
 70
     2
  0
STYLE
  5
11
330
3
100
AcDbSymbolTableRecord
100
AcDbTextStyleTableRecord
  2
Standard
 70
     0
 40
0.0
 41
1.0
 50
0.0
 71
     0
 42
3.5
  3
txt
  4

  0
STYLE
  5
B0
330
3
100
AcDbSymbolTableRecord
100
AcDbTextStyleTableRecord
  2
SLDTEXTSTYLE0
 70
     0
 40
0.0
 41
0.75
 50
0.0
 71
     0
 42
3.5
  3
TXT
  4

  0
ENDTAB
  0
TABLE
  2
VIEW
  5
6
330
0
100
AcDbSymbolTable
 70
     0
  0
ENDTAB
  0
TABLE
  2
UCS
  5
7
330
0
100
AcDbSymbolTable
 70
     0
  0
ENDTAB
  0
TABLE
  2
APPID
  5
9
330
0
100
AcDbSymbolTable
 70
     2
  0
APPID
  5
12
330
9
100
AcDbSymbolTableRecord
100
AcDbRegAppTableRecord
  2
ACAD
 70
     0
  0
APPID
  5
157
330
9
100
AcDbSymbolTableRecord
100
AcDbRegAppTableRecord
  2
ACAD_MLEADERVER
 70
     0
  0
ENDTAB
  0
TABLE
  2
DIMSTYLE
  5
A
330
0
100
AcDbSymbolTable
 70
     3
100
AcDbDimStyleTable
  0
DIMSTYLE
105
27
330
A
100
AcDbSymbolTableRecord
100
AcDbDimStyleTableRecord
  2
ISO-25
 70
     0
 41
2.5
 42
0.625
 43
3.75
 44
1.25
 73
     0
 74
     0
 77
     1
 78
     8
140
2.5
141
2.5
143
0.0393700787
147
0.625
171
     3
172
     1
178
     0
271
     2
272
     2
274
     3
278
    44
283
     0
284
     8
340
11
  0
DIMSTYLE
105
B1
102
{ACAD_REACTORS
330
AF
330
BB
330
C5
330
12A
330
134
330
13E
330
148
102
}
330
A
100
AcDbSymbolTableRecord
100
AcDbDimStyleTableRecord
  2
SLDDIMSTYLE0
 70
     0
 41
3.302
 44
0.0
 45
0.000000001
 73
     0
 74
     0
 77
     1
 78
    12
 79
     3
140
3.5
147
0.875
173
     1
178
     0
271
     2
272
     2
276
     2
284
    12
340
B0
  0
DIMSTYLE
105
D0
102
{ACAD_REACTORS
330
CF
102
}
330
A
100
AcDbSymbolTableRecord
100
AcDbDimStyleTableRecord
  2
SLDDIMSTYLE1
 70
     0
 41
3.302
 44
0.0
 45
0.000000001
 73
     0
 74
     0
 77
     1
 78
    12
 79
     3
140
3.5
147
0.875
172
     1
173
     1
178
     0
271
     2
272
     2
276
     2
284
    12
289
     0
340
B0
  0
ENDTAB
  0
TABLE
  2
BLOCK_RECORD
  5
1
330
0
100
AcDbSymbolTable
 70
     9
  0
BLOCK_RECORD
  5
1F
330
1
100
AcDbSymbolTableRecord
100
AcDbBlockTableRecord
  2
*Model_Space
340
22
  0
BLOCK_RECORD
  5
1B
330
1
100
AcDbSymbolTableRecord
100
AcDbBlockTableRecord
  2
*Paper_Space
340
1E
  0
BLOCK_RECORD
  5
23
330
1
100
AcDbSymbolTableRecord
100
AcDbBlockTableRecord
  2
*Paper_Space0
340
26
  0
BLOCK_RECORD
  5
B2
330
1
100
AcDbSymbolTableRecord
100
AcDbBlockTableRecord
  2
_D
340
0
  0
BLOCK_RECORD
  5
BC
330
1
100
AcDbSymbolTableRecord
100
AcDbBlockTableRecord
  2
_D_1
340
0
  0
BLOCK_RECORD
  5
C6
330
1
100
AcDbSymbolTableRecord
100
AcDbBlockTableRecord
  2
_D_2
340
0
  0
BLOCK_RECORD
  5
D1
330
1
100
AcDbSymbolTableRecord
100
AcDbBlockTableRecord
  2
_D_3
340
0
  0
BLOCK_RECORD
  5
12B
330
1
100
AcDbSymbolTableRecord
100
AcDbBlockTableRecord
  2
_D_4
340
0
  0
BLOCK_RECORD
  5
135
330
1
100
AcDbSymbolTableRecord
100
AcDbBlockTableRecord
  2
_D_5
340
0
  0
BLOCK_RECORD
  5
13F
330
1
100
AcDbSymbolTableRecord
100
AcDbBlockTableRecord
  2
_D_6
340
0
  0
BLOCK_RECORD
  5
149
330
1
100
AcDbSymbolTableRecord
100
AcDbBlockTableRecord
  2
_D_7
340
0
  0
ENDTAB
  0
ENDSEC
  0
SECTION
  2
BLOCKS
  0
BLOCK
  5
20
330
1F
100
AcDbEntity
  8
0
100
AcDbBlockBegin
  2
*Model_Space
 70
     0
 10
0.0
 20
0.0
 30
0.0
  3
*Model_Space
  1

  0
ENDBLK
  5
21
330
1F
100
AcDbEntity
  8
0
100
AcDbBlockEnd
  0
BLOCK
  5
1C
330
1B
100
AcDbEntity
 67
     1
  8
0
100
AcDbBlockBegin
  2
*Paper_Space
 70
     0
 10
0.0
 20
0.0
 30
0.0
  3
*Paper_Space
  1

  0
ENDBLK
  5
1D
330
1B
100
AcDbEntity
 67
     1
  8
0
100
AcDbBlockEnd
  0
BLOCK
  5
24
330
23
100
AcDbEntity
  8
0
100
AcDbBlockBegin
  2
*Paper_Space0
 70
     0
 10
0.0
 20
0.0
 30
0.0
  3
*Paper_Space0
  1

  0
ENDBLK
  5
25
330
23
100
AcDbEntity
  8
0
100
AcDbBlockEnd
  0
BLOCK
  5
B3
330
B2
100
AcDbEntity
  8
0
100
AcDbBlockBegin
  2
_D
 70
     0
 10
0.0
 20
0.0
 30
0.0
  3
_D
  1

  0
SOLID
  5
B5
330
B2
100
AcDbEntity
  8
2
 62
     7
420
 16777215
100
AcDbTrace
 10
9.9987742495
 20
25.0003479427
 30
0.0
 11
9.4907742495
 21
21.6983479427
 31
0.0
 12
10.5067742495
 22
21.6983479427
 32
0.0
 13
10.5067742495
 23
21.6983479427
 33
0.0
  0
SOLID
  5
B6
330
B2
100
AcDbEntity
  8
2
 62
     7
420
 16777215
100
AcDbTrace
 10
9.9987742495
 20
0.0003479427
 30
0.0
 11
10.5067742495
 21
3.3023479427
 31
0.0
 12
9.4907742495
 22
3.3023479427
 32
0.0
 13
9.4907742495
 23
3.3023479427
 33
0.0
  0
LINE
  5
B7
330
B2
100
AcDbEntity
  8
2
 62
     7
420
 16777215
100
AcDbLine
 10
0.9987742495
 20
25.0003479427
 30
0.0
 11
10.9987742495
 21
25.0003479427
 31
0.0
  0
LINE
  5
B8
330
B2
100
AcDbEntity
  8
2
 62
     7
420
 16777215
100
AcDbLine
 10
0.9987742495
 20
0.0003479427
 30
0.0
 11
10.9987742495
 21
0.0003479427
 31
0.0
  0
LINE
  5
B9
330
B2
100
AcDbEntity
  8
2
 62
     7
420
 16777215
100
AcDbLine
 10
9.9987742495
 20
25.0003479427
 30
0.0
 11
9.9987742495
 21
0.0003479427
 31
0.0
  0
MTEXT
  5
BA
330
B2
100
AcDbEntity
  8
2
 62
     7
420
 16777215
100
AcDbMText
 10
5.4870373349
 20
9.9142367492
 30
0.0
 40
3.5
 41
0.0
 71
     1
 72
     1
  1
25
  7
SLDTEXTSTYLE0
 11
-7.044195017643634E-15
 21
1.0
 31
0.0
 73
     1
 44
1.0
  0
ENDBLK
  5
B4
330
B2
100
AcDbEntity
  8
0
100
AcDbBlockEnd
  0
BLOCK
  5
BD
330
BC
100
AcDbEntity
  8
0
100
AcDbBlockBegin
  2
_D_1
 70
     0
 10
0.0
 20
0.0
 30
0.0
  3
_D_1
  1

  0
SOLID
  5
BF
330
BC
100
AcDbEntity
  8
2
 62
     7
420
 16777215
100
AcDbTrace
 10
-0.0012257505
 20
-9.9996520573
 30
0.0
 11
-3.3032257505
 21
-9.4916520573
 31
0.0
 12
-3.3032257505
 22
-10.5076520573
 32
0.0
 13
-3.3032257505
 23
-10.5076520573
 33
0.0
  0
SOLID
  5
C0
330
BC
100
AcDbEntity
  8
2
 62
     7
420
 16777215
100
AcDbTrace
 10
-115.0012257505
 20
-9.9996520573
 30
0.0
 11
-111.6992257505
 21
-10.5076520573
 31
0.0
 12
-111.6992257505
 22
-9.4916520573
 32
0.0
 13
-111.6992257505
 23
-9.4916520573
 33
0.0
  0
LINE
  5
C1
330
BC
100
AcDbEntity
  8
2
 62
     7
420
 16777215
100
AcDbLine
 10
-0.0012257505
 20
-0.9996520573
 30
0.0
 11
-0.0012257505
 21
-10.9996520573
 31
0.0
  0
LINE
  5
C2
330
BC
100
AcDbEntity
  8
2
 62
     7
420
 16777215
100
AcDbLine
 10
-115.0012257505
 20
-0.9996520573
 30
0.0
 11
-115.0012257505
 21
-10.9996520573
 31
0.0
  0
LINE
  5
C3
330
BC
100
AcDbEntity
  8
2
 62
     7
420
 16777215
100
AcDbLine
 10
-0.0012257505
 20
-9.9996520573
 30
0.0
 11
-115.0012257505
 21
-9.9996520573
 31
0.0
  0
MTEXT
  5
C4
330
BC
100
AcDbEntity
  8
2
 62
     7
420
 16777215
100
AcDbMText
 10
-61.3803924244
 20
-5.4879151427
 30
0.0
 40
3.5
 41
0.0
 71
     1
 72
     1
  1
115
  7
SLDTEXTSTYLE0
 73
     1
 44
1.0
  0
ENDBLK
  5
BE
330
BC
100
AcDbEntity
  8
0
100
AcDbBlockEnd
  0
BLOCK
  5
C7
330
C6
100
AcDbEntity
  8
0
100
AcDbBlockBegin
  2
_D_2
 70
     0
 10
0.0
 20
0.0
 30
0.0
  3
_D_2
  1

  0
SOLID
  5
C9
330
C6
100
AcDbEntity
  8
2
 62
     7
420
 16777215
100
AcDbTrace
 10
-131.0012257505
 20
0.0003479427
 30
0.0
 11
-130.4932257505
 21
3.3023479427
 31
0.0
 12
-131.5092257505
 22
3.3023479427
 32
0.0
 13
-131.5092257505
 23
3.3023479427
 33
0.0
  0
SOLID
  5
CA
330
C6
100
AcDbEntity
  8
2
 62
     7
420
 16777215
100
AcDbTrace
 10
-131.0012257505
 20
34.0003479427
 30
0.0
 11
-131.5092257505
 21
30.6983479427
 31
0.0
 12
-130.4932257505
 22
30.6983479427
 32
0.0
 13
-130.4932257505
 23
30.6983479427
 33
0.0
  0
LINE
  5
CB
330
C6
100
AcDbEntity
  8
2
 62
     7
420
 16777215
100
AcDbLine
 10
-116.0012257505
 20
0.0003479427
 30
0.0
 11
-132.0012257505
 21
0.0003479427
 31
0.0
  0
LINE
  5
CC
330
C6
100
AcDbEntity
  8
2
 62
     7
420
 16777215
100
AcDbLine
 10
-109.8387255541
 20
34.0003479427
 30
0.0
 11
-132.0012257505
 21
34.0003479427
 31
0.0
  0
LINE
  5
CD
330
C6
100
AcDbEntity
  8
2
 62
     7
420
 16777215
100
AcDbLine
 10
-131.0012257505
 20
0.0003479427
 30
0.0
 11
-131.0012257505
 21
34.0003479427
 31
0.0
  0
MTEXT
  5
CE
330
C6
100
AcDbEntity
  8
2
 62
     7
420
 16777215
100
AcDbMText
 10
-135.5129626651
 20
14.4142367492
 30
0.0
 40
3.5
 41
0.0
 71
     1
 72
     1
  1
34
  7
SLDTEXTSTYLE0
 11
6.123233995736766E-17
 21
1.0
 31
0.0
 73
     1
 44
1.0
  0
ENDBLK
  5
C8
330
C6
100
AcDbEntity
  8
0
100
AcDbBlockEnd
  0
BLOCK
  5
D2
330
D1
100
AcDbEntity
  8
0
100
AcDbBlockBegin
  2
_D_3
 70
     0
 10
0.0
 20
0.0
 30
0.0
  3
_D_3
  1

  0
SOLID
  5
D4
330
D1
100
AcDbEntity
  8
2
 62
     7
420
 16777215
100
AcDbTrace
 10
-125.0012257505
 20
24.2003479427
 30
0.0
 11
-124.4932257505
 21
27.5023479427
 31
0.0
 12
-125.5092257505
 22
27.5023479427
 32
0.0
 13
-125.5092257505
 23
27.5023479427
 33
0.0
  0
SOLID
  5
D5
330
D1
100
AcDbEntity
  8
2
 62
     7
420
 16777215
100
AcDbTrace
 10
-125.0012257505
 20
0.0003479427
 30
0.0
 11
-125.5092257505
 21
-3.3016520573
 31
0.0
 12
-124.4932257505
 22
-3.3016520573
 32
0.0
 13
-124.4932257505
 23
-3.3016520573
 33
0.0
  0
LINE
  5
D6
330
D1
100
AcDbEntity
  8
2
 62
     7
420
 16777215
100
AcDbLine
 10
-116.0012257505
 20
24.2003479427
 30
0.0
 11
-126.0012257505
 21
24.2003479427
 31
0.0
  0
LINE
  5
D7
330
D1
100
AcDbEntity
  8
2
 62
     7
420
 16777215
100
AcDbLine
 10
-116.0012257505
 20
0.0003479427
 30
0.0
 11
-126.0012257505
 21
0.0003479427
 31
0.0
  0
LINE
  5
D8
330
D1
100
AcDbEntity
  8
2
 62
     7
420
 16777215
100
AcDbLine
 10
-125.0012257505
 20
24.2003479427
 30
0.0
 11
-125.0012257505
 21
30.5503479427
 31
0.0
  0
LINE
  5
D9
330
D1
100
AcDbEntity
  8
2
 62
     7
420
 16777215
100
AcDbLine
 10
-125.0012257505
 20
24.2003479427
 30
0.0
 11
-125.0012257505
 21
0.0003479427
 31
0.0
  0
LINE
  5
DA
330
D1
100
AcDbEntity
  8
2
 62
     7
420
 16777215
100
AcDbLine
 10
-125.0012257505
 20
0.0003479427
 30
0.0
 11
-125.0012257505
 21
-6.3496520573
 31
0.0
  0
MTEXT
  5
DB
330
D1
100
AcDbEntity
  8
2
 62
     7
420
 16777215
100
AcDbMText
 10
-129.5129626651
 20
6.2815976991
 30
0.0
 40
3.5
 41
0.0
 71
     1
 72
     1
  1
24,20
  7
SLDTEXTSTYLE0
 11
-7.044195017643634E-15
 21
1.0
 31
0.0
 73
     1
 44
1.0
  0
ENDBLK
  5
D3
330
D1
100
AcDbEntity
  8
0
100
AcDbBlockEnd
  0
BLOCK
  5
12C
330
12B
100
AcDbEntity
  8
0
100
AcDbBlockBegin
  2
_D_4
 70
     0
 10
0.0
 20
0.0
 30
0.0
  3
_D_4
  1

  0
SOLID
  5
12E
330
12B
100
AcDbEntity
  8
2
 62
     7
420
 16777215
100
AcDbTrace
 10
9.9987742495
 20
73.9887787853
 30
0.0
 11
10.5067742495
 21
77.2907787853
 31
0.0
 12
9.4907742495
 22
77.2907787853
 32
0.0
 13
9.4907742495
 23
77.2907787853
 33
0.0
  0
SOLID
  5
12F
330
12B
100
AcDbEntity
  8
2
 62
     7
420
 16777215
100
AcDbTrace
 10
9.9987742495
 20
98.9887787853
 30
0.0
 11
9.4907742495
 21
95.6867787853
 31
0.0
 12
10.5067742495
 22
95.6867787853
 32
0.0
 13
10.5067742495
 23
95.6867787853
 33
0.0
  0
LINE
  5
130
330
12B
100
AcDbEntity
  8
2
 62
     7
420
 16777215
100
AcDbLine
 10
0.9987742495
 20
73.9887787853
 30
0.0
 11
10.9987742495
 21
73.9887787853
 31
0.0
  0
LINE
  5
131
330
12B
100
AcDbEntity
  8
2
 62
     7
420
 16777215
100
AcDbLine
 10
0.9987742495
 20
98.9887787853
 30
0.0
 11
10.9987742495
 21
98.9887787853
 31
0.0
  0
LINE
  5
132
330
12B
100
AcDbEntity
  8
2
 62
     7
420
 16777215
100
AcDbLine
 10
9.9987742495
 20
73.9887787853
 30
0.0
 11
9.9987742495
 21
98.9887787853
 31
0.0
  0
MTEXT
  5
133
330
12B
100
AcDbEntity
  8
2
 62
     7
420
 16777215
100
AcDbMText
 10
5.4870373349
 20
83.9026675918
 30
0.0
 40
3.5
 41
0.0
 71
     1
 72
     1
  1
25
  7
SLDTEXTSTYLE0
 11
6.123233995736766E-17
 21
1.0
 31
0.0
 73
     1
 44
1.0
  0
ENDBLK
  5
12D
330
12B
100
AcDbEntity
  8
0
100
AcDbBlockEnd
  0
BLOCK
  5
136
330
135
100
AcDbEntity
  8
0
100
AcDbBlockBegin
  2
_D_5
 70
     0
 10
0.0
 20
0.0
 30
0.0
  3
_D_5
  1

  0
SOLID
  5
138
330
135
100
AcDbEntity
  8
2
 62
     7
420
 16777215
100
AcDbTrace
 10
-125.0012257505
 20
98.9887787853
 30
0.0
 11
-125.5092257505
 21
95.6867787853
 31
0.0
 12
-124.4932257505
 22
95.6867787853
 32
0.0
 13
-124.4932257505
 23
95.6867787853
 33
0.0
  0
SOLID
  5
139
330
135
100
AcDbEntity
  8
2
 62
     7
420
 16777215
100
AcDbTrace
 10
-125.0012257505
 20
73.9887787853
 30
0.0
 11
-124.4932257505
 21
77.2907787853
 31
0.0
 12
-125.5092257505
 22
77.2907787853
 32
0.0
 13
-125.5092257505
 23
77.2907787853
 33
0.0
  0
LINE
  5
13A
330
135
100
AcDbEntity
  8
2
 62
     7
420
 16777215
100
AcDbLine
 10
-116.0012257505
 20
98.9887787853
 30
0.0
 11
-126.0012257505
 21
98.9887787853
 31
0.0
  0
LINE
  5
13B
330
135
100
AcDbEntity
  8
2
 62
     7
420
 16777215
100
AcDbLine
 10
-116.0012257505
 20
73.9887787853
 30
0.0
 11
-126.0012257505
 21
73.9887787853
 31
0.0
  0
LINE
  5
13C
330
135
100
AcDbEntity
  8
2
 62
     7
420
 16777215
100
AcDbLine
 10
-125.0012257505
 20
98.9887787853
 30
0.0
 11
-125.0012257505
 21
73.9887787853
 31
0.0
  0
MTEXT
  5
13D
330
135
100
AcDbEntity
  8
2
 62
     7
420
 16777215
100
AcDbMText
 10
-129.5129626651
 20
83.9026675918
 30
0.0
 40
3.5
 41
0.0
 71
     1
 72
     1
  1
25
  7
SLDTEXTSTYLE0
 11
-7.044195017643634E-15
 21
1.0
 31
0.0
 73
     1
 44
1.0
  0
ENDBLK
  5
137
330
135
100
AcDbEntity
  8
0
100
AcDbBlockEnd
  0
BLOCK
  5
140
330
13F
100
AcDbEntity
  8
0
100
AcDbBlockBegin
  2
_D_6
 70
     0
 10
0.0
 20
0.0
 30
0.0
  3
_D_6
  1

  0
SOLID
  5
142
330
13F
100
AcDbEntity
  8
2
 62
     7
420
 16777215
100
AcDbTrace
 10
-131.0012257505
 20
106.0565566004
 30
0.0
 11
-131.5092257505
 21
102.7545566004
 31
0.0
 12
-130.4932257505
 22
102.7545566004
 32
0.0
 13
-130.4932257505
 23
102.7545566004
 33
0.0
  0
SOLID
  5
143
330
13F
100
AcDbEntity
  8
2
 62
     7
420
 16777215
100
AcDbTrace
 10
-131.0012257505
 20
73.9887787853
 30
0.0
 11
-130.4932257505
 21
77.2907787853
 31
0.0
 12
-131.5092257505
 22
77.2907787853
 32
0.0
 13
-131.5092257505
 23
77.2907787853
 33
0.0
  0
LINE
  5
144
330
13F
100
AcDbEntity
  8
2
 62
     7
420
 16777215
100
AcDbLine
 10
-85.4354899551
 20
106.0565566004
 30
0.0
 11
-132.0012257505
 21
106.0565566004
 31
0.0
  0
LINE
  5
145
330
13F
100
AcDbEntity
  8
2
 62
     7
420
 16777215
100
AcDbLine
 10
-116.0012257505
 20
73.9887787853
 30
0.0
 11
-132.0012257505
 21
73.9887787853
 31
0.0
  0
LINE
  5
146
330
13F
100
AcDbEntity
  8
2
 62
     7
420
 16777215
100
AcDbLine
 10
-131.0012257505
 20
106.0565566004
 30
0.0
 11
-131.0012257505
 21
73.9887787853
 31
0.0
  0
MTEXT
  5
147
330
13F
100
AcDbEntity
  8
2
 62
     7
420
 16777215
100
AcDbMText
 10
-135.5129626651
 20
84.2039174492
 30
0.0
 40
3.5
 41
0.0
 71
     1
 72
     1
  1
32,07
  7
SLDTEXTSTYLE0
 11
-7.044195017643634E-15
 21
1.0
 31
0.0
 73
     1
 44
1.0
  0
ENDBLK
  5
141
330
13F
100
AcDbEntity
  8
0
100
AcDbBlockEnd
  0
BLOCK
  5
14A
330
149
100
AcDbEntity
  8
0
100
AcDbBlockBegin
  2
_D_7
 70
     0
 10
0.0
 20
0.0
 30
0.0
  3
_D_7
  1

  0
SOLID
  5
14C
330
149
100
AcDbEntity
  8
2
 62
     7
420
 16777215
100
AcDbTrace
 10
-115.0012257505
 20
116.1199305071
 30
0.0
 11
-111.6992257505
 21
115.6119305071
 31
0.0
 12
-111.6992257505
 22
116.6279305071
 32
0.0
 13
-111.6992257505
 23
116.6279305071
 33
0.0
  0
SOLID
  5
14D
330
149
100
AcDbEntity
  8
2
 62
     7
420
 16777215
100
AcDbTrace
 10
-70.0012257505
 20
116.1199305071
 30
0.0
 11
-73.3032257505
 21
116.6279305071
 31
0.0
 12
-73.3032257505
 22
115.6119305071
 32
0.0
 13
-73.3032257505
 23
115.6119305071
 33
0.0
  0
LINE
  5
14E
330
149
100
AcDbEntity
  8
2
 62
     7
420
 16777215
100
AcDbLine
 10
-115.0012257505
 20
99.9887787853
 30
0.0
 11
-115.0012257505
 21
117.1199305071
 31
0.0
  0
LINE
  5
14F
330
149
100
AcDbEntity
  8
2
 62
     7
420
 16777215
100
AcDbLine
 10
-70.0012257505
 20
103.2887787853
 30
0.0
 11
-70.0012257505
 21
117.1199305071
 31
0.0
  0
LINE
  5
150
330
149
100
AcDbEntity
  8
2
 62
     7
420
 16777215
100
AcDbLine
 10
-115.0012257505
 20
116.1199305071
 30
0.0
 11
-70.0012257505
 21
116.1199305071
 31
0.0
  0
MTEXT
  5
151
330
149
100
AcDbEntity
  8
2
 62
     7
420
 16777215
100
AcDbMText
 10
-95.087336944
 20
120.6316674217
 30
0.0
 40
3.5
 41
0.0
 71
     1
 72
     1
  1
45
  7
SLDTEXTSTYLE0
 73
     1
 44
1.0
  0
ENDBLK
  5
14B
330
149
100
AcDbEntity
  8
0
100
AcDbBlockEnd
  0
ENDSEC
  0
SECTION
  2
ENTITIES
  0
LINE
  5
77
330
1F
100
AcDbEntity
  8
0
  6
SLD-Punktstrich
 62
     7
100
AcDbLine
 10
-0.0012257505
 20
0.0003479427
 30
0.0
 11
-115.0012257505
 21
0.0003479427
 31
0.0
  0
LINE
  5
78
330
1F
100
AcDbEntity
  8
0
  6
SLD-Punktstrich
 62
     7
100
AcDbLine
 10
-115.0012257505
 20
24.2003479427
 30
0.0
 11
-70.0012257505
 21
24.2003479427
 31
0.0
  0
POINT
  5
79
330
1F
100
AcDbEntity
  8
1
 62
     4
420
    65535
100
AcDbPoint
 10
-115.0012257505
 20
0.0003479427
 30
0.0
  0
POINT
  5
7A
330
1F
100
AcDbEntity
  8
1
 62
     4
420
    65535
100
AcDbPoint
 10
-70.0012257505
 20
0.0003479427
 30
0.0
  0
POINT
  5
7B
330
1F
100
AcDbEntity
  8
1
 62
     4
420
    65535
100
AcDbPoint
 10
-115.0012257505
 20
24.2003479427
 30
0.0
  0
LINE
  5
7C
330
1F
100
AcDbEntity
  8
1
 62
     4
420
    65535
100
AcDbLine
 10
-101.7875212443
 20
22.4003479427
 30
0.0
 11
-94.0012257505
 21
22.4003479427
 31
0.0
  0
ELLIPSE
  5
7D
330
1F
100
AcDbEntity
  8
1
 62
     4
420
    65535
100
AcDbEllipse
 10
-114.7077814703
 20
25.8862305869
 30
0.0
 11
0.0
 21
0.3007339642011679
 31
0.0
210
0.0
220
0.0
230
1.0
 40
0.9757603568
 41
6.239658431495522
 42
7.853981633974483
  0
LINE
  5
7E
330
1F
100
AcDbEntity
  8
1
 62
     4
420
    65535
100
AcDbLine
 10
-114.6950127904
 20
26.1866797125
 30
0.0
 11
-112.8497402303
 21
26.1043134727
 31
0.0
  0
LINE
  5
7F
330
1F
100
AcDbEntity
  8
1
 62
     4
420
    65535
100
AcDbLine
 10
-112.8497402303
 20
26.1043134727
 30
0.0
 11
-112.3042321795
 21
25.5306167181
 31
0.0
  0
LINE
  5
80
330
1F
100
AcDbEntity
  8
1
 62
     4
420
    65535
100
AcDbLine
 10
-112.3042321795
 20
25.5306167181
 30
0.0
 11
-113.7705713675
 21
24.3305752045
 31
0.0
  0
ELLIPSE
  5
81
330
1F
100
AcDbEntity
  8
1
 62
     4
420
    65535
100
AcDbEllipse
 10
-112.4284358308
 20
24.2003479427
 30
0.0
 11
1.419470300510667
 21
0.0
 31
0.0
210
0.0
220
0.0
230
1.0
 40
0.2817952583
 41
2.809980095710884
 42
3.473205211468747
  0
LINE
  5
82
330
1F
100
AcDbEntity
  8
1
 62
     4
420
    65535
100
AcDbLine
 10
-113.7705713675
 20
24.0701206809
 30
0.0
 11
-112.3042321795
 21
22.8700791673
 31
0.0
  0
LINE
  5
83
330
1F
100
AcDbEntity
  8
1
 62
     4
420
    65535
100
AcDbLine
 10
-112.3042321795
 20
22.8700791673
 30
0.0
 11
-112.8497402303
 21
22.2963824127
 31
0.0
  0
LINE
  5
84
330
1F
100
AcDbEntity
  8
1
 62
     4
420
    65535
100
AcDbLine
 10
-112.8497402303
 20
22.2963824127
 30
0.0
 11
-114.6950127904
 21
22.2140161729
 31
0.0
  0
ELLIPSE
  5
85
330
1F
100
AcDbEntity
  8
1
 62
     4
420
    65535
100
AcDbEllipse
 10
-114.7077814703
 20
22.5144652985
 30
0.0
 11
0.0
 21
0.3007339642011679
 31
0.0
210
0.0
220
0.0
230
1.0
 40
0.9757603568
 41
1.570796326794897
 42
3.185119529273886
  0
LINE
  5
86
330
1F
100
AcDbEntity
  8
1
 62
     4
420
    65535
100
AcDbLine
 10
-115.0012257505
 20
22.5144652985
 30
0.0
 11
-115.0012257505
 21
25.8862305869
 31
0.0
  0
LINE
  5
87
330
1F
100
AcDbEntity
  8
1
 62
     4
420
    65535
100
AcDbLine
 10
-108.3690774329
 20
25.5306167181
 30
0.0
 11
-112.3042321795
 21
25.5306167181
 31
0.0
  0
LINE
  5
88
330
1F
100
AcDbEntity
  8
1
 62
     4
420
    65535
100
AcDbLine
 10
-111.1625397566
 20
26.0023259695
 30
0.0
 11
-110.8659830657
 21
25.8325276197
 31
0.0
  0
ELLIPSE
  5
89
330
1F
100
AcDbEntity
  8
1
 62
     4
420
    65535
100
AcDbEllipse
 10
-110.4799070824
 20
26.5253479427
 30
0.0
 11
-0.5350534853537425
 21
0.6035907658719388
 31
0.0
210
0.0
220
0.0
230
1.0
 40
0.9813049846
 41
1.902071902746821
 42
2.425670678345111
  0
LINE
  5
8A
330
1F
100
AcDbEntity
  8
1
 62
     4
420
    65535
100
AcDbLine
 10
-110.4649541298
 20
25.7253479427
 30
0.0
 11
-108.2812566531
 21
25.7253479427
 31
0.0
  0
LINE
  5
8B
330
1F
100
AcDbEntity
  8
1
 62
     4
420
    65535
100
AcDbLine
 10
-112.8497402303
 20
26.1043134727
 30
0.0
 11
-111.1625397566
 21
26.0023259695
 31
0.0
  0
LINE
  5
8C
330
1F
100
AcDbEntity
  8
1
 62
     4
420
    65535
100
AcDbLine
 10
-108.3690774329
 20
22.8700791673
 30
0.0
 11
-112.3042321795
 21
22.8700791673
 31
0.0
  0
LINE
  5
8D
330
1F
100
AcDbEntity
  8
1
 62
     4
420
    65535
100
AcDbLine
 10
-94.0012257505
 20
22.3493719086
 30
0.0
 11
-94.8099783133
 21
22.3983699159
 31
0.0
  0
LINE
  5
8E
330
1F
100
AcDbEntity
  8
1
 62
     4
420
    65535
100
AcDbLine
 10
-94.8099783133
 20
22.3983699159
 30
0.0
 11
-94.8133590388
 21
22.4003479427
 31
0.0
  0
LINE
  5
8F
330
1F
100
AcDbEntity
  8
1
 62
     4
420
    65535
100
AcDbLine
 10
-108.2812566531
 20
22.6753479427
 30
0.0
 11
-110.4649541298
 21
22.6753479427
 31
0.0
  0
ELLIPSE
  5
90
330
1F
100
AcDbEntity
  8
1
 62
     4
420
    65535
100
AcDbEllipse
 10
-110.4799070824
 20
21.8753479427
 30
0.0
 11
0.535053485353771
 21
0.6035907658719318
 31
0.0
210
0.0
220
0.0
230
1.0
 40
0.9813049846
 41
0.715921975244721
 42
1.239520750843008
  0
LINE
  5
91
330
1F
100
AcDbEntity
  8
1
 62
     4
420
    65535
100
AcDbLine
 10
-110.8659830657
 20
22.5681682657
 30
0.0
 11
-111.1625397566
 21
22.3983699159
 31
0.0
  0
LINE
  5
92
330
1F
100
AcDbEntity
  8
1
 62
     4
420
    65535
100
AcDbLine
 10
-111.1625397566
 20
22.3983699159
 30
0.0
 11
-112.8497402303
 21
22.2963824127
 31
0.0
  0
LINE
  5
93
330
1F
100
AcDbEntity
  8
1
 62
     4
420
    65535
100
AcDbLine
 10
-94.8099783133
 20
22.3983699159
 30
0.0
 11
-94.8156284977
 21
22.4003479427
 31
0.0
  0
ELLIPSE
  5
94
330
1F
100
AcDbEntity
  8
1
 62
     4
420
    65535
100
AcDbEllipse
 10
-344.2511153205
 20
59.9503479427
 30
0.0
 11
514.3719076960614
 21
-11.13692185356205
 31
0.0
210
0.0
220
0.0
230
1.0
 40
0.0624533988
 41
5.177460415559851
 42
5.215882225171211
  0
SPLINE
  5
95
330
1F
100
AcDbEntity
  8
1
 62
     4
420
    65535
100
AcDbSpline
210
0.0
220
0.0
230
1.0
 70
     8
 71
     3
 72
    16
 73
    12
 74
     0
 42
0.000000001
 43
0.00000001
 40
0.0
 40
0.0
 40
0.0
 40
0.0
 40
0.2500000000000001
 40
0.2500000000000001
 40
0.5
 40
0.5
 40
0.7499999999999999
 40
0.7499999999999999
 40
0.875
 40
0.875
 40
1.0
 40
1.0
 40
1.0
 40
1.0
 10
-108.8387255540703
 20
34.00034794269966
 30
0.0
 10
-109.5742152368842
 20
33.00917968437641
 30
0.0
 10
-110.2581311886051
 20
32.09286063631781
 30
0.0
 10
-111.4989327595585
 20
30.41486375266943
 30
0.0
 10
-112.0561202612236
 20
29.65304959613155
 30
0.0
 10
-113.0107694671606
 20
28.30321702580178
 30
0.0
 10
-113.3949464621102
 20
27.73381540822264
 30
0.0
 10
-113.8146375549019
 20
27.04573061332827
 30
0.0
 10
-113.928417961865
 20
26.84406222151766
 30
0.0
 10
-114.0997410932576
 20
26.49872122025818
 30
0.0
 10
-114.1572102169978
 20
26.35487416417863
 30
0.0
 10
-114.1838464122185
 20
26.24324751408707
 30
0.0
  0
LINE
  5
96
330
1F
100
AcDbEntity
  8
1
 62
     4
420
    65535
100
AcDbLine
 10
-108.8387255541
 20
34.0003479427
 30
0.0
 11
-79.0012257505
 21
34.0003479427
 31
0.0
  0
LINE
  5
97
330
1F
100
AcDbEntity
  8
1
 62
     4
420
    65535
100
AcDbLine
 10
-71.169235827
 20
26.1683580192
 30
0.0
 11
-79.0012257505
 21
34.0003479427
 31
0.0
  0
SPLINE
  5
98
330
1F
100
AcDbEntity
  8
1
 62
     4
420
    65535
100
AcDbSpline
210
0.0
220
0.0
230
1.0
 70
     8
 71
     3
 72
    28
 73
    24
 74
     0
 42
0.000000001
 43
0.00000001
 40
0.0
 40
0.0
 40
0.0
 40
0.0
 40
0.1249999999999996
 40
0.1249999999999996
 40
0.2499999999999992
 40
0.2499999999999992
 40
0.3124999999999994
 40
0.3124999999999994
 40
0.3749999999999997
 40
0.3749999999999997
 40
0.5000000000000002
 40
0.5000000000000002
 40
0.6250000000000007
 40
0.6250000000000007
 40
0.6875000000000009
 40
0.6875000000000009
 40
0.7500000000000011
 40
0.7500000000000011
 40
0.8750000000000007
 40
0.8750000000000007
 40
0.9375000000000003
 40
0.9375000000000003
 40
1.0
 40
1.0
 40
1.0
 40
1.0
 10
-108.1779442120145
 20
25.95307405972897
 30
0.0
 10
-106.8349129188012
 20
25.96478376385535
 30
0.0
 10
-105.446883904536
 20
26.01250486023829
 30
0.0
 10
-102.582928098492
 20
26.13956239298385
 30
0.0
 10
-101.1069950518286
 20
26.2190469898739
 30
0.0
 10
-98.82541068095873
 20
26.33841272674664
 30
0.0
 10
-98.05356809068074
 20
26.37827784902233
 30
0.0
 10
-96.48652725044236
 20
26.45475896125016
 30
0.0
 10
-95.69980447266809
 20
26.4909459312973
 30
0.0
 10
-93.3305238980829
 20
26.58935250676978
 30
0.0
 10
-91.73873069849554
 20
26.64113487150207
 30
0.0
 10
-88.53063261835302
 20
26.70337720790979
 30
0.0
 10
-86.91432915561008
 20
26.71383421847208
 30
0.0
 10
-84.47078418467461
 20
26.69534955618502
 30
0.0
 10
-83.65469939056452
 20
26.6835348180174
 30
0.0
 10
-82.0400171741925
 20
26.6498484825633
 30
0.0
 10
-81.23851582011162
 20
26.62796426902585
 30
0.0
 10
-78.85113778568856
 20
26.54971665850406
 30
0.0
 10
-77.28232786692287
 20
26.48048904618133
 30
0.0
 10
-74.96280111084471
 20
26.36594519530961
 30
0.0
 10
-74.19525497281077
 20
26.32604564041257
 30
0.0
 10
-72.67152768392269
 20
26.24615704843566
 30
0.0
 10
-71.91437905855467
 20
26.20612107300196
 30
0.0
 10
-71.1692358269844
 20
26.16835801919321
 30
0.0
  0
LINE
  5
99
330
1F
100
AcDbEntity
  8
1
 62
     4
420
    65535
100
AcDbLine
 10
-108.6812257505
 20
24.8297982421
 30
0.0
 11
-108.6812257505
 21
23.5708976433
 31
0.0
  0
ELLIPSE
  5
9A
330
1F
100
AcDbEntity
  8
1
 62
     4
420
    65535
100
AcDbEllipse
 10
-86.6292084106
 20
-60.3600301284
 30
0.0
 11
3.004934447329674
 21
110.355192817852
 31
0.0
210
0.0
220
0.0
230
1.0
 40
0.3432643429
 41
0.6821065207012063
 42
0.6982768281264616
  0
LINE
  5
9B
330
1F
100
AcDbEntity
  8
1
 62
     4
420
    65535
100
AcDbLine
 10
-70.0012257505
 20
25.0003479427
 30
0.0
 11
-71.169235827
 21
26.1683580192
 31
0.0
  0
LINE
  5
9C
330
1F
100
AcDbEntity
  8
1
 62
     4
420
    65535
100
AcDbLine
 10
-70.0012257505
 20
25.0003479427
 30
0.0
 11
-70.0012257505
 21
0.0003479427
 31
0.0
  0
LINE
  5
9D
330
1F
100
AcDbEntity
  8
1
 62
     4
420
    65535
100
AcDbLine
 10
-70.0012257505
 20
0.0003479427
 30
0.0
 11
-84.4354899551
 21
0.0003479427
 31
0.0
  0
LINE
  5
9E
330
1F
100
AcDbEntity
  8
1
 62
     4
420
    65535
100
AcDbLine
 10
-84.4354899551
 20
0.0003479427
 30
0.0
 11
-94.0012257505
 21
11.4003479427
 31
0.0
  0
LINE
  5
9F
330
1F
100
AcDbEntity
  8
1
 62
     4
420
    65535
100
AcDbLine
 10
-94.0012257505
 20
11.4003479427
 30
0.0
 11
-94.0012257505
 21
23.1049998225
 31
0.0
  0
SPLINE
  5
A0
330
1F
100
AcDbEntity
  8
1
 62
     4
420
    65535
100
AcDbSpline
210
0.0
220
0.0
230
1.0
 70
     8
 71
     3
 72
    14
 73
    10
 74
     0
 42
0.000000001
 43
0.00000001
 40
0.0
 40
0.0
 40
0.0
 40
0.0
 40
0.4999999999999998
 40
0.4999999999999998
 40
0.7500000000000009
 40
0.7500000000000009
 40
0.8750000000000004
 40
0.8750000000000004
 40
1.0
 40
1.0
 40
1.0
 40
1.0
 10
-94.00122575049085
 20
23.10499982247536
 30
0.0
 10
-96.55064681618663
 20
22.99278335290053
 30
0.0
 10
-99.00307345179276
 20
22.8362600540197
 30
0.0
 10
-102.5463898554619
 20
22.62404922138673
 30
0.0
 10
-103.7047660245871
 20
22.55742085048926
 30
0.0
 10
-105.4079348307832
 20
22.47886050102538
 30
0.0
 10
-105.9708906816638
 20
22.45625041383137
 30
0.0
 10
-107.0778562336316
 20
22.42145970967101
 30
0.0
 10
-107.6223745098123
 20
22.40924050430694
 30
0.0
 10
-108.1579390246677
 20
22.40369405836688
 30
0.0
  0
ELLIPSE
  5
A1
330
1F
100
AcDbEntity
  8
1
 62
     4
420
    65535
100
AcDbEllipse
 10
-86.6292084106
 20
108.7607260138
 30
0.0
 11
-3.004934447329674
 21
110.3551928178522
 31
0.0
210
0.0
220
0.0
230
1.0
 40
0.3432643429
 41
2.443315825463332
 42
2.460125148133039
  0
ELLIPSE
  5
A2
330
1F
100
AcDbEntity
  8
1
 62
     4
420
    65535
100
AcDbEllipse
 10
-247.4036059866
 20
51.9003479427
 30
0.0
 11
446.2932728539288
 21
-9.662917490589379
 31
0.0
210
0.0
220
0.0
230
1.0
 40
0.0624533988
 41
5.031043384934133
 42
5.046105243657847
  0
LINE
  5
A3
330
1F
100
AcDbEntity
  8
1
 62
     4
420
    65535
100
AcDbLine
 10
-69.2012257505
 20
25.0003479427
 30
0.0
 11
-69.2012257505
 21
0.0003479427
 31
0.0
  0
LINE
  5
A4
330
1F
100
AcDbEntity
  8
1
 62
     4
420
    65535
100
AcDbLine
 10
-70.0012257505
 20
25.0003479427
 30
0.0
 11
-69.2012257505
 21
25.0003479427
 31
0.0
  0
LINE
  5
A5
330
1F
100
AcDbEntity
  8
1
 62
     4
420
    65535
100
AcDbLine
 10
-69.2012257505
 20
0.0003479427
 30
0.0
 11
-70.0012257505
 21
0.0003479427
 31
0.0
  0
LINE
  5
A6
330
1F
100
AcDbEntity
  8
1
 62
     4
420
    65535
100
AcDbLine
 10
-1.0012257505
 20
0.0003479427
 30
0.0
 11
-1.0012257505
 21
25.0003479427
 31
0.0
  0
LINE
  5
A7
330
1F
100
AcDbEntity
  8
1
 62
     4
420
    65535
100
AcDbLine
 10
-0.0012257505
 20
24.0003479427
 30
0.0
 11
-0.0012257505
 21
1.0003479427
 31
0.0
  0
LINE
  5
A8
330
1F
100
AcDbEntity
  8
1
 62
     4
420
    65535
100
AcDbLine
 10
-1.0012257505
 20
0.0003479427
 30
0.0
 11
-0.0012257505
 21
1.0003479427
 31
0.0
  0
LINE
  5
A9
330
1F
100
AcDbEntity
  8
1
 62
     4
420
    65535
100
AcDbLine
 10
-1.0012257505
 20
25.0003479427
 30
0.0
 11
-0.0012257505
 21
24.0003479427
 31
0.0
  0
LINE
  5
AA
330
1F
100
AcDbEntity
  8
1
 62
     4
420
    65535
100
AcDbLine
 10
-69.2012257505
 20
25.0003479427
 30
0.0
 11
-1.0012257505
 21
25.0003479427
 31
0.0
  0
LINE
  5
AB
330
1F
100
AcDbEntity
  8
1
 62
     4
420
    65535
100
AcDbLine
 10
-69.2012257505
 20
0.0003479427
 30
0.0
 11
-1.0012257505
 21
0.0003479427
 31
0.0
  0
ELLIPSE
  5
AC
330
1F
100
AcDbEntity
  8
1
 62
     4
420
    65535
100
AcDbEllipse
 10
-79.2012257505
 20
15.9611334529
 30
0.0
 11
-2.767702780435272
 21
101.6429407532776
 31
0.0
210
0.0
220
0.0
230
1.0
 40
0.3432643429
 41
1.46012158398189
 42
1.460906180475922
  0
LINE
  5
AD
330
1F
100
AcDbEntity
  8
1
 62
     4
420
    65535
100
AcDbLine
 10
-108.6812257505
 20
24.3305752045
 30
0.0
 11
-113.7705713675
 21
24.3305752045
 31
0.0
  0
LINE
  5
AE
330
1F
100
AcDbEntity
  8
1
 62
     4
420
    65535
100
AcDbLine
 10
-108.6812257505
 20
24.0701206809
 30
0.0
 11
-113.7705713675
 21
24.0701206809
 31
0.0
  0
DIMENSION
  5
AF
330
1F
100
AcDbEntity
  8
2
 62
     7
420
 16777215
100
AcDbDimension
  2
_D
 10
9.9987742495
 20
0.0003479427
 30
0.0
 11
9.9987742495
 21
12.5003479427
 31
0.0
 70
   160
  1
<>
 71
     2
 42
-1.0
  3
SLDDIMSTYLE0
100
AcDbAlignedDimension
 13
-0.0012257505
 23
25.0003479427
 33
0.0
 14
-0.0012257505
 24
0.0003479427
 34
0.0
 50
90.0
100
AcDbRotatedDimension
  0
DIMENSION
  5
BB
330
1F
100
AcDbEntity
  8
2
 62
     7
420
 16777215
100
AcDbDimension
  2
_D_1
 10
-115.0012257505
 20
-9.9996520573
 30
0.0
 11
-57.5012257505
 21
-9.9996520573
 31
0.0
 70
   160
  1
<>
 71
     2
 42
-1.0
  3
SLDDIMSTYLE0
100
AcDbAlignedDimension
 13
-0.0012257505
 23
0.0003479427
 33
0.0
 14
-115.0012257505
 24
0.0003479427
 34
0.0
 50
0.0
100
AcDbRotatedDimension
  0
DIMENSION
  5
C5
330
1F
100
AcDbEntity
  8
2
 62
     7
420
 16777215
100
AcDbDimension
  2
_D_2
 10
-131.0012257505
 20
34.0003479427
 30
0.0
 11
-131.0012257505
 21
17.0003479427
 31
0.0
 70
   160
  1
<>
 71
     2
 42
-1.0
  3
SLDDIMSTYLE0
100
AcDbAlignedDimension
 13
-115.0012257505
 23
0.0003479427
 33
0.0
 14
-108.8387255541
 24
34.0003479427
 34
0.0
 50
90.0
100
AcDbRotatedDimension
  0
DIMENSION
  5
CF
330
1F
100
AcDbEntity
  8
2
 62
     7
420
 16777215
100
AcDbDimension
  2
_D_3
 10
-125.0012257505
 20
0.0003479427
 30
0.0
 11
-125.0012257505
 21
12.1003479427
 31
0.0
 70
   160
  1
<>
 71
     2
 42
-1.0
  3
SLDDIMSTYLE1
100
AcDbAlignedDimension
 13
-115.0012257505
 23
24.2003479427
 33
0.0
 14
-115.0012257505
 24
0.0003479427
 34
0.0
 50
90.0
100
AcDbRotatedDimension
  0
LINE
  5
DC
330
1F
100
AcDbEntity
  8
0
  6
SLD-Punktstrich
 62
     7
100
AcDbLine
 10
-0.0012257505
 20
73.9887787853
 30
0.0
 11
-115.0012257505
 21
73.9887787853
 31
0.0
  0
LINE
  5
DD
330
1F
100
AcDbEntity
  8
0
  6
SLD-Punktstrich
 62
     7
100
AcDbLine
 10
-115.0012257505
 20
98.9887787853
 30
0.0
 11
-70.0012257505
 21
95.8420722479
 31
0.0
  0
POINT
  5
DE
330
1F
100
AcDbEntity
  8
1
 62
     4
420
    65535
100
AcDbPoint
 10
-115.0012257505
 20
73.9887787853
 30
0.0
  0
POINT
  5
DF
330
1F
100
AcDbEntity
  8
1
 62
     4
420
    65535
100
AcDbPoint
 10
-70.0012257505
 20
73.9887787853
 30
0.0
  0
POINT
  5
E0
330
1F
100
AcDbEntity
  8
1
 62
     4
420
    65535
100
AcDbPoint
 10
-115.0012257505
 20
98.9887787853
 30
0.0
  0
LINE
  5
E1
330
1F
100
AcDbEntity
  8
1
 62
     4
420
    65535
100
AcDbLine
 10
-114.1998697642
 20
95.2186952836
 30
0.0
 11
-114.2073633017
 21
95.2192192828
 31
0.0
  0
LINE
  5
E2
330
1F
100
AcDbEntity
  8
1
 62
     4
420
    65535
100
AcDbLine
 10
-114.6950127904
 20
99.0538663593
 30
0.0
 11
-114.2791894087
 21
97.0975711578
 31
0.0
  0
SPLINE
  5
E3
330
1F
100
AcDbEntity
  8
1
 62
     4
420
    65535
100
AcDbSpline
210
0.0
220
0.0
230
1.0
 70
     8
 71
     3
 72
     8
 73
     4
 74
     0
 42
0.000000001
 43
0.00000001
 40
0.0
 40
0.0
 40
0.0
 40
0.0
 40
0.0000041702841083
 40
0.0000041702841083
 40
0.0000041702841083
 40
0.0000041702841083
 10
-114.2791894087211
 20
97.09757115778724
 30
0.0
 10
-114.2805478323694
 20
97.09728241592728
 30
0.0
 10
-114.2819047745796
 20
97.09698418795786
 30
0.0
 10
-114.2832598192425
 20
97.09667658021318
 30
0.0
  0
SPLINE
  5
E4
330
1F
100
AcDbEntity
  8
1
 62
     4
420
    65535
100
AcDbSpline
210
0.0
220
0.0
230
1.0
 70
     8
 71
     3
 72
    10
 73
     6
 74
     0
 42
0.000000001
 43
0.00000001
 40
0.0
 40
0.0
 40
0.0
 40
0.0
 40
0.5
 40
0.5
 40
1.0
 40
1.0
 40
1.0
 40
1.0
 10
-114.2832598192425
 20
97.09667658021318
 30
0.0
 10
-114.3644961170232
 20
97.07823518486366
 30
0.0
 10
-114.4475481847144
 20
97.07696813334722
 30
0.0
 10
-114.5679043047428
 20
97.10268043679616
 30
0.0
 10
-114.6059336225282
 20
97.12907553805678
 30
0.0
 10
-114.6125713784596
 20
97.16030372447123
 30
0.0
  0
LINE
  5
E5
330
1F
100
AcDbEntity
  8
1
 62
     4
420
    65535
100
AcDbLine
 10
-114.6125713785
 20
97.1603037245
 30
0.0
 11
-115.0012257505
 21
98.9887787853
 31
0.0
  0
LINE
  5
E6
330
1F
100
AcDbEntity
  8
1
 62
     4
420
    65535
100
AcDbLine
 10
-115.0012257505
 20
98.9887787853
 30
0.0
 11
-114.6950127904
 21
99.0538663593
 31
0.0
  0
LINE
  5
E7
330
1F
100
AcDbEntity
  8
1
 62
     4
420
    65535
100
AcDbLine
 10
-91.0596885443
 20
97.3146234155
 30
0.0
 11
-91.2316521537
 21
96.8421572814
 31
0.0
  0
LINE
  5
E8
330
1F
100
AcDbEntity
  8
1
 62
     4
420
    65535
100
AcDbLine
 10
-91.3538630214
 20
97.4216941688
 30
0.0
 11
-91.0596885443
 21
97.3146234155
 31
0.0
  0
LINE
  5
E9
330
1F
100
AcDbEntity
  8
1
 62
     4
420
    65535
100
AcDbLine
 10
-111.1625397566
 20
99.3555047997
 30
0.0
 11
-112.8497402303
 21
99.44609115
 31
0.0
  0
LINE
  5
EA
330
1F
100
AcDbEntity
  8
1
 62
     4
420
    65535
100
AcDbLine
 10
-111.1042071557
 20
97.7724344689
 30
0.0
 11
-111.1625397566
 21
99.3555047997
 31
0.0
  0
LINE
  5
EB
330
1F
100
AcDbEntity
  8
1
 62
     4
420
    65535
100
AcDbLine
 10
-114.2791894087
 20
97.0975711578
 30
0.0
 11
-111.1042071557
 21
97.7724344689
 31
0.0
  0
LINE
  5
EC
330
1F
100
AcDbEntity
  8
1
 62
     4
420
    65535
100
AcDbLine
 10
-112.8497402303
 20
99.44609115
 30
0.0
 11
-114.6950127904
 21
99.0538663593
 31
0.0
  0
LINE
  5
ED
330
1F
100
AcDbEntity
  8
1
 62
     4
420
    65535
100
AcDbLine
 10
-94.8099783133
 20
98.2120223109
 30
0.0
 11
-95.0880640323
 21
96.6524766406
 31
0.0
  0
LINE
  5
EE
330
1F
100
AcDbEntity
  8
1
 62
     4
420
    65535
100
AcDbLine
 10
-94.0012257505
 20
98.1423077864
 30
0.0
 11
-94.8099783133
 21
98.2120223109
 31
0.0
  0
LINE
  5
EF
330
1F
100
AcDbEntity
  8
1
 62
     4
420
    65535
100
AcDbLine
 10
-95.0880640323
 20
96.6524766406
 30
0.0
 11
-94.0012257505
 21
96.2568998566
 31
0.0
  0
LINE
  5
F0
330
1F
100
AcDbEntity
  8
1
 62
     4
420
    65535
100
AcDbLine
 10
-91.3538630214
 20
97.4216941688
 30
0.0
 11
-92.3515877929
 21
97.7848362876
 31
0.0
  0
LINE
  5
F1
330
1F
100
AcDbEntity
  8
1
 62
     4
420
    65535
100
AcDbLine
 10
-94.0012257505
 20
98.282171577
 30
0.0
 11
-112.3042321795
 21
99.5620424656
 31
0.0
  0
LINE
  5
F2
330
1F
100
AcDbEntity
  8
1
 62
     4
420
    65535
100
AcDbLine
 10
-94.8099783133
 20
98.2120223109
 30
0.0
 11
-95.1001875375
 21
98.2779241473
 31
0.0
  0
ELLIPSE
  5
F3
330
1F
100
AcDbEntity
  8
1
 62
     4
420
    65535
100
AcDbEllipse
 10
-95.5121627945
 20
98.120638302
 30
0.0
 11
0.7980512402078546
 21
-0.05580517899531401
 31
0.0
210
0.0
220
0.0
230
1.0
 40
0.2679491924
 41
1.047197551196577
 42
1.570796326794907
  0
LINE
  5
F4
330
1F
100
AcDbEntity
  8
1
 62
     4
420
    65535
100
AcDbLine
 10
-95.4972098418
 20
98.3344754874
 30
0.0
 11
-110.4649541298
 21
99.3811221274
 31
0.0
  0
ELLIPSE
  5
F5
330
1F
100
AcDbEntity
  8
1
 62
     4
420
    65535
100
AcDbEllipse
 10
-110.4799070824
 20
99.1672849421
 30
0.0
 11
0.7980512402078688
 21
-0.0558051789952998
 31
0.0
210
0.0
220
0.0
230
1.0
 40
0.2679491924
 41
1.570796326794866
 42
2.094395102393212
  0
LINE
  5
F6
330
1F
100
AcDbEntity
  8
1
 62
     4
420
    65535
100
AcDbLine
 10
-110.8659830657
 20
99.3803759663
 30
0.0
 11
-111.1625397566
 21
99.3555047997
 31
0.0
  0
LINE
  5
F7
330
1F
100
AcDbEntity
  8
1
 62
     4
420
    65535
100
AcDbLine
 10
-112.3042321795
 20
99.5620424656
 30
0.0
 11
-112.8497402303
 21
99.44609115
 31
0.0
  0
SPLINE
  5
F8
330
1F
100
AcDbEntity
  8
1
 62
     4
420
    65535
100
AcDbSpline
210
0.0
220
0.0
230
1.0
 70
     8
 71
     3
 72
    10
 73
     6
 74
     0
 42
0.000000001
 43
0.00000001
 40
0.0
 40
0.0
 40
0.0
 40
0.0
 40
0.5
 40
0.5
 40
1.0
 40
1.0
 40
1.0
 40
1.0
 10
-95.21910922755595
 20
96.57726474737949
 30
0.0
 10
-95.28537201682211
 20
96.52798852711966
 30
0.0
 10
-95.35405296626325
 20
96.4778989124564
 30
0.0
 10
-95.49529578770161
 20
96.37574775453261
 30
0.0
 10
-95.56927647498262
 20
96.32268913701365
 30
0.0
 10
-95.64150769062604
 20
96.27092011014751
 30
0.0
  0
SPLINE
  5
F9
330
1F
100
AcDbEntity
  8
1
 62
     4
420
    65535
100
AcDbSpline
210
0.0
220
0.0
230
1.0
 70
     8
 71
     3
 72
    11
 73
     7
 74
     0
 42
0.000000001
 43
0.00000001
 40
0.0
 40
0.0
 40
0.0
 40
0.0
 40
0.0000874272830186
 40
0.0000874272830186
 40
0.0000874272830186
 40
0.0001677567410222
 40
0.0001677567410222
 40
0.0001677567410222
 40
0.0001677567410222
 10
-95.21910922755595
 20
96.57726474737949
 30
0.0
 10
-95.19768978707074
 20
96.5931932810087
 30
0.0
 10
-95.17535956086492
 20
96.60754417191337
 30
0.0
 10
-95.15248764539996
 20
96.62042955073518
 30
0.0
 10
-95.13146084552582
 20
96.63227544454341
 30
0.0
 10
-95.10991723994248
 20
96.6429190297067
 30
0.0
 10
-95.08806403232059
 20
96.65247664060314
 30
0.0
  0
SPLINE
  5
FA
330
1F
100
AcDbEntity
  8
1
 62
     4
420
    65535
100
AcDbSpline
210
0.0
220
0.0
230
1.0
 70
     8
 71
     3
 72
     8
 73
     4
 74
     0
 42
0.000000001
 43
0.00000001
 40
0.0
 40
0.0
 40
0.0
 40
0.0
 40
1.0
 40
1.0
 40
1.0
 40
1.0
 10
-111.104207155705
 20
97.77243446885173
 30
0.0
 10
-111.0616480315836
 20
97.74622897233816
 30
0.0
 10
-111.0215425548138
 20
97.71589213151964
 30
0.0
 10
-110.98490475571
 20
97.67971656641642
 30
0.0
  0
SPLINE
  5
FB
330
1F
100
AcDbEntity
  8
1
 62
     4
420
    65535
100
AcDbSpline
210
0.0
220
0.0
230
1.0
 70
     8
 71
     3
 72
    10
 73
     6
 74
     0
 42
0.000000001
 43
0.00000001
 40
0.0
 40
0.0
 40
0.0
 40
0.0
 40
0.5
 40
0.5
 40
1.0
 40
1.0
 40
1.0
 40
1.0
 10
-110.98490475571
 20
97.67971656641642
 30
0.0
 10
-110.9262022929904
 20
97.62175471243553
 30
0.0
 10
-110.8651706980653
 20
97.56260211978807
 30
0.0
 10
-110.7394349971778
 20
97.44170672464381
 30
0.0
 10
-110.6735955904029
 20
97.37890386557369
 30
0.0
 10
-110.6092519785723
 20
97.31756675018913
 30
0.0
  0
SPLINE
  5
FC
330
1F
100
AcDbEntity
  8
1
 62
     4
420
    65535
100
AcDbSpline
210
0.0
220
0.0
230
1.0
 70
     8
 71
     3
 72
     8
 73
     4
 74
     0
 42
0.000000001
 43
0.00000001
 40
0.0
 40
0.0
 40
0.0
 40
0.0
 40
1.0
 40
1.0
 40
1.0
 40
1.0
 10
-110.6092519785723
 20
97.31756675018913
 30
0.0
 10
-111.7810327134952
 20
96.98574643174574
 30
0.0
 10
-112.9589301988827
 20
96.67616441287396
 30
0.0
 10
-114.1390227688942
 20
96.37535298103147
 30
0.0
  0
SPLINE
  5
FD
330
1F
100
AcDbEntity
  8
1
 62
     4
420
    65535
100
AcDbSpline
210
0.0
220
0.0
230
1.0
 70
     8
 71
     3
 72
     8
 73
     4
 74
     0
 42
0.000000001
 43
0.00000001
 40
0.0
 40
0.0
 40
0.0
 40
0.0
 40
1.0
 40
1.0
 40
1.0
 40
1.0
 10
-114.2832598192425
 20
97.0966765802135
 30
0.0
 10
-114.2463413280593
 20
96.91199537618954
 30
0.0
 10
-114.1934234153383
 20
96.64733044717262
 30
0.0
 10
-114.1390227688942
 20
96.37535298103153
 30
0.0
  0
LINE
  5
FE
330
1F
100
AcDbEntity
  8
1
 62
     4
420
    65535
100
AcDbLine
 10
-114.1390227689
 20
96.375352981
 30
0.0
 11
-114.4324670491
 21
96.3129794738
 31
0.0
  0
SPLINE
  5
FF
330
1F
100
AcDbEntity
  8
1
 62
     4
420
    65535
100
AcDbSpline
210
0.0
220
0.0
230
1.0
 70
    24
 71
     3
 72
    10
 73
     6
 74
     0
 42
0.000000001
 43
0.00000001
 40
0.0
 40
0.0
 40
0.0
 40
0.0
 40
0.5
 40
0.5
 40
1.0
 40
1.0
 40
1.0
 40
1.0
 10
-114.4324670491143
 20
96.31297947378614
 30
0.0
 10
-114.4656026941326
 20
96.46887042703622
 30
0.0
 10
-114.4979857072567
 20
96.6212205256152
 30
0.0
 10
-114.5596591082423
 20
96.91137106484601
 30
0.0
 10
-114.5878390337021
 20
97.04394719064702
 30
0.0
 10
-114.6125713784596
 20
97.16030372447123
 30
0.0
  0
LINE
  5
100
330
1F
100
AcDbEntity
  8
1
 62
     4
420
    65535
100
AcDbLine
 10
-110.9849047557
 20
97.6797165664
 30
0.0
 11
-110.8659830657
 21
99.3803759663
 31
0.0
  0
LINE
  5
101
330
1F
100
AcDbEntity
  8
1
 62
     4
420
    65535
100
AcDbLine
 10
-95.2191092276
 20
96.5772647474
 30
0.0
 11
-95.1001875375
 21
98.2779241473
 31
0.0
  0
LINE
  5
102
330
1F
100
AcDbEntity
  8
1
 62
     4
420
    65535
100
AcDbLine
 10
-95.6415076906
 20
96.2709201101
 30
0.0
 11
-95.4972098418
 21
98.3344754874
 31
0.0
  0
LINE
  5
103
330
1F
100
AcDbEntity
  8
1
 62
     4
420
    65535
100
AcDbLine
 10
-110.6092519786
 20
97.3175667502
 30
0.0
 11
-110.4649541298
 21
99.3811221274
 31
0.0
  0
ELLIPSE
  5
104
330
1F
100
AcDbEntity
  8
1
 62
     4
420
    65535
100
AcDbEllipse
 10
-113.8022937052
 20
94.7911672891
 30
0.0
 11
0.3119454464098226
 21
-0.03277493491718531
 31
0.0
210
0.0
220
0.0
230
1.0
 40
0.327678202
 41
3.247648708378788
 42
3.606176394495018
  0
LINE
  5
105
330
1F
100
AcDbEntity
  8
1
 62
     4
420
    65535
100
AcDbLine
 10
-114.1390227689
 20
96.375352981
 30
0.0
 11
-113.8057394555
 21
94.8073782698
 31
0.0
  0
ELLIPSE
  5
106
330
1F
100
AcDbEntity
  8
1
 62
     4
420
    65535
100
AcDbEllipse
 10
-113.7883530029
 20
94.7255814415
 30
0.0
 11
0.3117313630112903
 21
-0.02815027077799926
 31
0.0
210
0.0
220
0.0
230
1.0
 40
0.2560738198
 41
1.649704294372378
 42
2.86197293505125
  0
LINE
  5
107
330
1F
100
AcDbEntity
  8
1
 62
     4
420
    65535
100
AcDbLine
 10
-114.1136233008
 20
94.8129375752
 30
0.0
 11
-114.4324670491
 21
96.3129794738
 31
0.0
  0
LINE
  5
108
330
1F
100
AcDbEntity
  8
1
 62
     4
420
    65535
100
AcDbLine
 10
-113.8057394555
 20
94.8073782698
 30
0.0
 11
-94.0012257505
 21
93.4225117643
 31
0.0
  0
LINE
  5
109
330
1F
100
AcDbEntity
  8
1
 62
     4
420
    65535
100
AcDbLine
 10
-94.0012257505
 20
93.3702062764
 30
0.0
 11
-114.0859873756
 21
94.7746696255
 31
0.0
  0
LINE
  5
10A
330
1F
100
AcDbEntity
  8
1
 62
     4
420
    65535
100
AcDbLine
 10
-84.4354899551
 20
98.1997013959
 30
0.0
 11
-84.4354899551
 21
106.0565566004
 31
0.0
  0
LINE
  5
10B
330
1F
100
AcDbEntity
  8
1
 62
     4
420
    65535
100
AcDbLine
 10
-94.0012257505
 20
97.6983824257
 30
0.0
 11
-94.0012257505
 21
105.397985182
 31
0.0
  0
LINE
  5
10C
330
1F
100
AcDbEntity
  8
1
 62
     4
420
    65535
100
AcDbLine
 10
-94.0012257505
 20
97.6983824257
 30
0.0
 11
-84.4354899551
 21
98.1997013959
 31
0.0
  0
ARC
  5
10D
330
1F
100
AcDbEntity
  8
1
 62
     4
420
    65535
100
AcDbCircle
 10
-86.6292084106
 20
68.1199305071
 30
0.0
 40
38.0
100
AcDbArc
 50
86.6905071435
 51
101.1863389527
  0
LINE
  5
10E
330
1F
100
AcDbEntity
  8
1
 62
     4
420
    65535
100
AcDbLine
 10
-94.0012257505
 20
73.9887787853
 30
0.0
 11
-94.0012257505
 21
96.6970100797
 31
0.0
  0
LINE
  5
10F
330
1F
100
AcDbEntity
  8
1
 62
     4
420
    65535
100
AcDbLine
 10
-84.4354899551
 20
97.1983290499
 30
0.0
 11
-94.0012257505
 21
96.6970100797
 31
0.0
  0
LINE
  5
110
330
1F
100
AcDbEntity
  8
1
 62
     4
420
    65535
100
AcDbLine
 10
-84.4354899551
 20
73.9887787853
 30
0.0
 11
-84.4354899551
 21
97.1983290499
 31
0.0
  0
LINE
  5
111
330
1F
100
AcDbEntity
  8
1
 62
     4
420
    65535
100
AcDbLine
 10
-94.0012257505
 20
73.9887787853
 30
0.0
 11
-84.4354899551
 21
73.9887787853
 31
0.0
  0
LINE
  5
112
330
1F
100
AcDbEntity
  8
1
 62
     4
420
    65535
100
AcDbLine
 10
-0.0012257505
 20
97.9887787853
 30
0.0
 11
-0.0012257505
 21
74.9887787853
 31
0.0
  0
LINE
  5
113
330
1F
100
AcDbEntity
  8
1
 62
     4
420
    65535
100
AcDbLine
 10
-0.0012257505
 20
74.9887787853
 30
0.0
 11
-1.0012257505
 21
73.9887787853
 31
0.0
  0
LINE
  5
114
330
1F
100
AcDbEntity
  8
1
 62
     4
420
    65535
100
AcDbLine
 10
-1.0012257505
 20
73.9887787853
 30
0.0
 11
-1.0012257505
 21
98.9887787853
 31
0.0
  0
LINE
  5
115
330
1F
100
AcDbEntity
  8
1
 62
     4
420
    65535
100
AcDbLine
 10
-1.0012257505
 20
98.9887787853
 30
0.0
 11
-0.0012257505
 21
97.9887787853
 31
0.0
  0
ARC
  5
116
330
1F
100
AcDbEntity
  8
1
 62
     4
420
    65535
100
AcDbCircle
 10
-69.2012257505
 20
99.7887787853
 30
0.0
 40
0.7999999999999972
100
AcDbArc
 50
180.0
 51
270.0
  0
LINE
  5
117
330
1F
100
AcDbEntity
  8
1
 62
     4
420
    65535
100
AcDbLine
 10
-70.0012257505
 20
99.7887787853
 30
0.0
 11
-70.0012257505
 21
102.2887787853
 31
0.0
  0
LINE
  5
118
330
1F
100
AcDbEntity
  8
1
 62
     4
420
    65535
100
AcDbLine
 10
-84.4354899551
 20
73.9887787853
 30
0.0
 11
-1.0012257505
 21
73.9887787853
 31
0.0
  0
ARC
  5
119
330
1F
100
AcDbEntity
  8
1
 62
     4
420
    65535
100
AcDbCircle
 10
-76.611623644
 20
96.6069881627
 30
0.0
 40
0.9999999999999997
100
AcDbArc
 50
34.3970987789
 51
93.0
  0
ARC
  5
11A
330
1F
100
AcDbEntity
  8
1
 62
     4
420
    65535
100
AcDbCircle
 10
-76.7162955564
 20
99.6056195782
 30
0.0
 40
1.000000000000011
100
AcDbArc
 50
273.0
 51
329.6012751089
  0
LINE
  5
11B
330
1F
100
AcDbEntity
  8
1
 62
     4
420
    65535
100
AcDbLine
 10
-76.6639596002
 20
97.6056176974
 30
0.0
 11
-84.4354899551
 21
97.1983290499
 31
0.0
  0
LINE
  5
11C
330
1F
100
AcDbEntity
  8
1
 62
     4
420
    65535
100
AcDbLine
 10
-84.4354899551
 20
98.1997013959
 30
0.0
 11
-76.6639596002
 21
98.6069900434
 31
0.0
  0
ARC
  5
11D
330
1F
100
AcDbEntity
  8
1
 62
     4
420
    65535
100
AcDbCircle
 10
-86.6292084106
 20
68.1199305071
 30
0.0
 40
37.99999999999999
100
AcDbArc
 50
64.0505188825
 51
86.6905071435
  0
ARC
  5
11E
330
1F
100
AcDbEntity
  8
1
 62
     4
420
    65535
100
AcDbCircle
 10
-74.3012257505
 20
98.1887787853
 30
0.0
 40
1.800000000000006
100
AcDbArc
 50
214.3970987789
 51
149.6012751089
  0
LINE
  5
11F
330
1F
100
AcDbEntity
  8
1
 62
     4
420
    65535
100
AcDbLine
 10
-69.2012257505
 20
98.9887787853
 30
0.0
 11
-1.0012257505
 21
98.9887787853
 31
0.0
  0
ELLIPSE
  5
120
330
1F
100
AcDbEntity
  8
1
 62
     4
420
    65535
100
AcDbEllipse
 10
-247.4036059866
 20
98.9887787853
 30
0.0
 11
446.2932784280707
 21
-27.89847348092865
 31
0.0
210
0.0
220
0.0
230
1.0
 40
0.0214830971
 41
1.221258343479558
 42
1.254837071361562
  0
ARC
  5
121
330
1F
100
AcDbEntity
  8
1
 62
     4
420
    65535
100
AcDbCircle
 10
-86.6292084106
 20
68.1199305071
 30
0.0
 40
38.00000000000001
100
AcDbArc
 50
124.5096855118
 51
124.8969222326
  0
ELLIPSE
  5
122
330
1F
100
AcDbEntity
  8
1
 62
     4
420
    65535
100
AcDbEllipse
 10
-31.053129663
 20
98.9887787853
 30
0.0
 11
446.2932784280738
 21
-27.89847348092844
 31
0.0
210
0.0
220
0.0
230
1.0
 40
0.0214830971
 41
4.526355976408022
 42
4.560060508451554
  0
ARC
  5
123
330
1F
100
AcDbEntity
  8
1
 62
     4
420
    65535
100
AcDbCircle
 10
-79.2012257505
 20
95.6383729381
 30
0.0
 40
35.00000000000003
100
AcDbArc
 50
180.7229666161
 51
181.4927628255
  0
SPLINE
  5
124
330
1F
100
AcDbEntity
  8
1
 62
     4
420
    65535
100
AcDbSpline
210
0.0
220
0.0
230
1.0
 70
     8
 71
     3
 72
    14
 73
    10
 74
     0
 42
0.000000001
 43
0.00000001
 40
0.0
 40
0.0
 40
0.0
 40
0.0
 40
0.4999999999999998
 40
0.4999999999999998
 40
0.7500000000000009
 40
0.7500000000000009
 40
0.8750000000000004
 40
0.8750000000000004
 40
1.0
 40
1.0
 40
1.0
 40
1.0
 10
-94.00122575049086
 20
105.3979851819783
 30
0.0
 10
-96.55064681618661
 20
104.8938178785335
 30
0.0
 10
-99.00307345179277
 20
104.1401355431038
 30
0.0
 10
-102.5463898554619
 20
102.6494144530864
 30
0.0
 10
-103.7047660245871
 20
102.0919623102885
 30
0.0
 10
-105.4079348307832
 20
101.1619921438004
 30
0.0
 10
-105.9708906816638
 20
100.8356966189556
 30
0.0
 10
-107.0778562336316
 20
100.1554549693265
 30
0.0
 10
-107.6223745098123
 20
99.80130342481708
 30
0.0
 10
-108.1579390246677
 20
99.43308681795868
 30
0.0
  0
LINE
  5
125
330
1F
100
AcDbEntity
  8
1
 62
     4
420
    65535
100
AcDbLine
 10
-94.0012257505
 20
75.5401114458
 30
0.0
 11
-107.8553682954
 21
75.5401114458
 31
0.0
  0
SPLINE
  5
126
330
1F
100
AcDbEntity
  8
1
 62
     4
420
    65535
100
AcDbSpline
210
0.0
220
0.0
230
1.0
 70
     8
 71
     3
 72
    20
 73
    16
 74
     0
 42
0.000000001
 43
0.00000001
 40
0.0
 40
0.0
 40
0.0
 40
0.0
 40
0.2499999999999997
 40
0.2499999999999997
 40
0.3124999999999996
 40
0.3124999999999996
 40
0.3749999999999995
 40
0.3749999999999995
 40
0.4999999999999996
 40
0.4999999999999996
 40
0.6249999999999996
 40
0.6249999999999996
 40
0.7499999999999996
 40
0.7499999999999996
 40
1.0
 40
1.0
 40
1.0
 40
1.0
 10
-114.1893475721945
 20
94.72659917802928
 30
0.0
 10
-114.1379609325582
 20
92.75470429986896
 30
0.0
 10
-113.9229997383806
 20
90.8530542730264
 30
0.0
 10
-113.4804555338371
 20
88.55647986953893
 30
0.0
 10
-113.3831835596649
 20
88.10122955003315
 30
0.0
 10
-113.1716371542046
 20
87.19882797508205
 30
0.0
 10
-113.0576942776778
 20
86.75330719037707
 30
0.0
 10
-112.6960732182717
 20
85.44452131042058
 30
0.0
 10
-112.4275569332013
 20
84.6041786434499
 30
0.0
 10
-111.8443065346237
 20
82.98247294972728
 30
0.0
 10
-111.5295390268813
 20
82.20112915543059
 30
0.0
 10
-110.8611714512288
 20
80.6942370314128
 30
0.0
 10
-110.5065043338967
 20
79.96712477888333
 30
0.0
 10
-109.4125885511915
 20
77.89837570197776
 30
0.0
 10
-108.6385889478898
 20
76.65675112273522
 30
0.0
 10
-107.8553682954122
 20
75.54011144577866
 30
0.0
  0
LINE
  5
127
330
1F
100
AcDbEntity
  8
1
 62
     4
420
    65535
100
AcDbLine
 10
-91.5712754693
 20
96.8243583777
 30
0.0
 11
-91.3538630214
 21
97.4216941688
 31
0.0
  0
LINE
  5
128
330
1F
100
AcDbEntity
  8
1
 62
     4
420
    65535
100
AcDbLine
 10
-94.0012257505
 20
95.565073555
 30
0.0
 11
-95.6415076906
 21
96.2709201101
 31
0.0
  0
LINE
  5
129
330
1F
100
AcDbEntity
  8
1
 62
     4
420
    65535
100
AcDbLine
 10
-114.1951562402
 20
95.1965198969
 30
0.0
 11
-114.1984394785
 21
95.1967494833
 31
0.0
  0
DIMENSION
  5
12A
330
1F
100
AcDbEntity
  8
2
 62
     7
420
 16777215
100
AcDbDimension
  2
_D_4
 10
9.9987742495
 20
98.9887787853
 30
0.0
 11
9.9987742495
 21
86.4887787853
 31
0.0
 70
   160
  1
<>
 71
     2
 42
-1.0
  3
SLDDIMSTYLE0
100
AcDbAlignedDimension
 13
-0.0012257505
 23
73.9887787853
 33
0.0
 14
-0.0012257505
 24
98.9887787853
 34
0.0
 50
90.0
100
AcDbRotatedDimension
  0
DIMENSION
  5
134
330
1F
100
AcDbEntity
  8
2
 62
     7
420
 16777215
100
AcDbDimension
  2
_D_5
 10
-125.0012257505
 20
73.9887787853
 30
0.0
 11
-125.0012257505
 21
86.4887787853
 31
0.0
 70
   160
  1
<>
 71
     2
 42
-1.0
  3
SLDDIMSTYLE0
100
AcDbAlignedDimension
 13
-115.0012257505
 23
98.9887787853
 33
0.0
 14
-115.0012257505
 24
73.9887787853
 34
0.0
 50
90.0
100
AcDbRotatedDimension
  0
DIMENSION
  5
13E
330
1F
100
AcDbEntity
  8
2
 62
     7
420
 16777215
100
AcDbDimension
  2
_D_6
 10
-131.0012257505
 20
73.9887787853
 30
0.0
 11
-131.0012257505
 21
90.0226676928
 31
0.0
 70
   160
  1
<>
 71
     2
 42
-1.0
  3
SLDDIMSTYLE0
100
AcDbAlignedDimension
 13
-84.4354899551
 23
106.0565566004
 33
0.0
 14
-115.0012257505
 24
73.9887787853
 34
0.0
 50
90.0
100
AcDbRotatedDimension
  0
DIMENSION
  5
148
330
1F
100
AcDbEntity
  8
2
 62
     7
420
 16777215
100
AcDbDimension
  2
_D_7
 10
-70.0012257505
 20
116.1199305071
 30
0.0
 11
-92.5012257505
 21
116.1199305071
 31
0.0
 70
   160
  1
<>
 71
     2
 42
-1.0
  3
SLDDIMSTYLE0
100
AcDbAlignedDimension
 13
-115.0012257505
 23
98.9887787853
 33
0.0
 14
-70.0012257505
 24
102.2887787853
 34
0.0
100
AcDbRotatedDimension
  0
ENDSEC
  0
SECTION
  2
OBJECTS
  0
DICTIONARY
  5
C
330
0
100
AcDbDictionary
281
     1
  3
ACAD_DETAILVIEWSTYLE
350
15B
  3
ACAD_GROUP
350
D
  3
ACAD_LAYOUT
350
1A
  3
ACAD_MATERIAL
350
43
  3
ACAD_MLEADERSTYLE
350
6B
  3
ACAD_MLINESTYLE
350
17
  3
ACAD_PLOTSETTINGS
350
19
  3
ACAD_PLOTSTYLENAME
350
E
  3
ACAD_SCALELIST
350
47
  3
ACAD_SECTIONVIEWSTYLE
350
15C
  3
ACAD_TABLESTYLE
350
69
  3
ACDB_RECOMPOSE_DATA
350
158
  3
AcDbVariableDictionary
350
152
  0
DICTIONARY
  5
15B
102
{ACAD_REACTORS
330
C
102
}
330
C
100
AcDbDictionary
281
     1
  0
DICTIONARY
  5
D
102
{ACAD_REACTORS
330
C
102
}
330
C
100
AcDbDictionary
281
     1
  0
DICTIONARY
  5
1A
102
{ACAD_REACTORS
330
C
102
}
330
C
100
AcDbDictionary
281
     1
  3
Layout1
350
1E
  3
Layout2
350
26
  3
Model
350
22
  0
DICTIONARY
  5
43
102
{ACAD_REACTORS
330
C
102
}
330
C
100
AcDbDictionary
281
     1
  3
ByBlock
350
45
  3
ByLayer
350
44
  3
Global
350
46
  0
DICTIONARY
  5
6B
102
{ACAD_REACTORS
330
C
102
}
330
C
100
AcDbDictionary
281
     1
  3
Standard
350
6C
  0
DICTIONARY
  5
17
102
{ACAD_REACTORS
330
C
102
}
330
C
100
AcDbDictionary
281
     1
  3
Standard
350
18
  0
DICTIONARY
  5
19
102
{ACAD_REACTORS
330
C
102
}
330
C
100
AcDbDictionary
281
     1
  0
ACDBDICTIONARYWDFLT
  5
E
102
{ACAD_REACTORS
330
C
102
}
330
C
100
AcDbDictionary
281
     1
  3
Normal
350
F
100
AcDbDictionaryWithDefault
340
F
  0
DICTIONARY
  5
47
102
{ACAD_REACTORS
330
C
102
}
330
C
100
AcDbDictionary
281
     1
  3
A0
350
48
  3
A1
350
49
  3
A2
350
4A
  3
A3
350
4B
  3
A4
350
4C
  3
A5
350
4D
  3
A6
350
4E
  3
A7
350
4F
  3
A8
350
50
  3
A9
350
51
  3
B0
350
52
  3
B1
350
53
  3
B2
350
54
  3
B3
350
55
  3
B4
350
56
  3
B5
350
57
  3
B6
350
58
  3
B7
350
59
  3
B8
350
5A
  3
B9
350
5B
  3
C0
350
5C
  3
C1
350
5D
  3
C2
350
5E
  3
C3
350
5F
  3
C4
350
60
  3
C5
350
61
  3
C6
350
62
  3
C7
350
63
  3
C8
350
64
  3
C9
350
65
  3
D0
350
66
  3
D1
350
67
  3
D2
350
68
  0
DICTIONARY
  5
15C
102
{ACAD_REACTORS
330
C
102
}
330
C
100
AcDbDictionary
281
     1
  0
DICTIONARY
  5
69
102
{ACAD_REACTORS
330
C
102
}
330
C
100
AcDbDictionary
281
     1
  3
Standard
350
6A
  0
XRECORD
  5
158
102
{ACAD_REACTORS
330
C
102
}
330
C
100
AcDbXrecord
280
     1
 90
        1
330
6A
  0
DICTIONARY
  5
152
102
{ACAD_REACTORS
330
C
102
}
330
C
100
AcDbDictionary
281
     1
  3
CANNOSCALE
350
153
  3
CMLEADERSTYLE
350
15A
  3
CTABLESTYLE
350
159
  0
LAYOUT
  5
1E
102
{ACAD_REACTORS
330
1A
102
}
330
1A
100
AcDbPlotSettings
  1

  2
none_device
  4

  6

 40
0.0
 41
0.0
 42
0.0
 43
0.0
 44
0.0
 45
0.0
 46
0.0
 47
0.0
 48
0.0
 49
0.0
140
0.0
141
0.0
142
1.0
143
1.0
 70
   688
 72
     1
 73
     0
 74
     5
  7

 75
    16
 76
     0
 77
     2
 78
   300
147
1.0
148
0.0
149
0.0
100
AcDbLayout
  1
Layout1
 70
     1
 71
     1
 10
0.0
 20
0.0
 11
420.0
 21
297.0
 12
0.0
 22
0.0
 32
0.0
 14
1.0000000000E+20
 24
1.0000000000E+20
 34
1.0000000000E+20
 15
-1.0000000000E+20
 25
-1.0000000000E+20
 35
-1.0000000000E+20
146
0.0
 13
0.0
 23
0.0
 33
0.0
 16
1.0
 26
0.0
 36
0.0
 17
0.0
 27
1.0
 37
0.0
 76
     0
330
1B
  0
LAYOUT
  5
26
102
{ACAD_REACTORS
330
1A
102
}
330
1A
100
AcDbPlotSettings
  1

  2
none_device
  4

  6

 40
0.0
 41
0.0
 42
0.0
 43
0.0
 44
0.0
 45
0.0
 46
0.0
 47
0.0
 48
0.0
 49
0.0
140
0.0
141
0.0
142
1.0
143
1.0
 70
   688
 72
     1
 73
     0
 74
     5
  7

 75
    16
 76
     0
 77
     2
 78
   300
147
1.0
148
0.0
149
0.0
100
AcDbLayout
  1
Layout2
 70
     1
 71
     2
 10
0.0
 20
0.0
 11
0.0
 21
0.0
 12
0.0
 22
0.0
 32
0.0
 14
0.0
 24
0.0
 34
0.0
 15
0.0
 25
0.0
 35
0.0
146
0.0
 13
0.0
 23
0.0
 33
0.0
 16
1.0
 26
0.0
 36
0.0
 17
0.0
 27
1.0
 37
0.0
 76
     0
330
23
  0
LAYOUT
  5
22
102
{ACAD_REACTORS
330
1A
102
}
330
1A
100
AcDbPlotSettings
  1

  2
none_device
  4
Letter_(8.50_x_11.00_Inches)
  6

 40
6.35
 41
6.35
 42
6.35000508
 43
6.35000508
 44
215.9
 45
279.4
 46
0.0
 47
0.0
 48
0.0
 49
0.0
140
0.0
141
0.0
142
1.0
143
1.0
 70
  1712
 72
     1
 73
     0
 74
     0
  7

 75
     0
 76
     0
 77
     2
 78
   300
147
1.0
148
0.0
149
0.0
100
AcDbLayout
  1
Model
 70
     1
 71
     0
 10
0.0
 20
0.0
 11
297.0
 21
210.0
 12
0.0
 22
0.0
 32
0.0
 14
0.0
 24
0.0
 34
0.0
 15
297.0
 25
210.0
 35
0.0
146
0.0
 13
0.0
 23
0.0
 33
0.0
 16
1.0
 26
0.0
 36
0.0
 17
0.0
 27
1.0
 37
0.0
 76
     0
330
1F
331
29
  0
MATERIAL
  5
45
102
{ACAD_REACTORS
330
43
102
}
330
43
100
AcDbMaterial
  1
ByBlock
  0
MATERIAL
  5
44
102
{ACAD_REACTORS
330
43
102
}
330
43
100
AcDbMaterial
  1
ByLayer
  0
MATERIAL
  5
46
102
{ACAD_REACTORS
330
43
102
}
330
43
100
AcDbMaterial
  1
Global
  0
MLEADERSTYLE
  5
6C
102
{ACAD_REACTORS
330
6B
102
}
330
6B
100
AcDbMLeaderStyle
170
     2
171
     1
172
     0
 90
        2
 40
0.0
 41
0.0
173
     1
 91
-1056964608
340
14
 92
       -2
290
     1
 42
2.0
291
     1
 43
8.0
  3
Standard
341
0
 44
4.0
300

342
11
174
     1
178
     6
175
     1
176
     0
 93
-1056964608
 45
4.0
292
     0
297
     0
 46
4.0
343
0
 94
-1056964608
 47
1.0
 49
1.0
140
1.0
293
     1
141
0.0
294
     1
177
     0
142
1.0
295
     0
296
     0
143
3.75
1001
ACAD_MLEADERVER
1070
     2
  0
MLINESTYLE
  5
18
102
{ACAD_REACTORS
330
17
102
}
330
17
100
AcDbMlineStyle
  2
Standard
 70
     0
  3

 62
   256
 51
90.0
 52
90.0
 71
     2
 49
0.5
 62
   256
  6
BYLAYER
 49
-0.5
 62
   256
  6
BYLAYER
  0
ACDBPLACEHOLDER
  5
F
102
{ACAD_REACTORS
330
E
102
}
330
E
  0
SCALE
  5
48
102
{ACAD_REACTORS
330
47
102
}
330
47
100
AcDbScale
 70
     0
300
1:1
140
1.0
141
1.0
290
     1
  0
SCALE
  5
49
102
{ACAD_REACTORS
330
47
102
}
330
47
100
AcDbScale
 70
     0
300
1:2
140
1.0
141
2.0
290
     0
  0
SCALE
  5
4A
102
{ACAD_REACTORS
330
47
102
}
330
47
100
AcDbScale
 70
     0
300
1:4
140
1.0
141
4.0
290
     0
  0
SCALE
  5
4B
102
{ACAD_REACTORS
330
47
102
}
330
47
100
AcDbScale
 70
     0
300
1:5
140
1.0
141
5.0
290
     0
  0
SCALE
  5
4C
102
{ACAD_REACTORS
330
47
102
}
330
47
100
AcDbScale
 70
     0
300
1:8
140
1.0
141
8.0
290
     0
  0
SCALE
  5
4D
102
{ACAD_REACTORS
330
47
102
}
330
47
100
AcDbScale
 70
     0
300
1:10
140
1.0
141
10.0
290
     0
  0
SCALE
  5
4E
102
{ACAD_REACTORS
330
47
102
}
330
47
100
AcDbScale
 70
     0
300
1:16
140
1.0
141
16.0
290
     0
  0
SCALE
  5
4F
102
{ACAD_REACTORS
330
47
102
}
330
47
100
AcDbScale
 70
     0
300
1:20
140
1.0
141
20.0
290
     0
  0
SCALE
  5
50
102
{ACAD_REACTORS
330
47
102
}
330
47
100
AcDbScale
 70
     0
300
1:30
140
1.0
141
30.0
290
     0
  0
SCALE
  5
51
102
{ACAD_REACTORS
330
47
102
}
330
47
100
AcDbScale
 70
     0
300
1:40
140
1.0
141
40.0
290
     0
  0
SCALE
  5
52
102
{ACAD_REACTORS
330
47
102
}
330
47
100
AcDbScale
 70
     0
300
1:50
140
1.0
141
50.0
290
     0
  0
SCALE
  5
53
102
{ACAD_REACTORS
330
47
102
}
330
47
100
AcDbScale
 70
     0
300
1:100
140
1.0
141
100.0
290
     0
  0
SCALE
  5
54
102
{ACAD_REACTORS
330
47
102
}
330
47
100
AcDbScale
 70
     0
300
2:1
140
2.0
141
1.0
290
     0
  0
SCALE
  5
55
102
{ACAD_REACTORS
330
47
102
}
330
47
100
AcDbScale
 70
     0
300
4:1
140
4.0
141
1.0
290
     0
  0
SCALE
  5
56
102
{ACAD_REACTORS
330
47
102
}
330
47
100
AcDbScale
 70
     0
300
8:1
140
8.0
141
1.0
290
     0
  0
SCALE
  5
57
102
{ACAD_REACTORS
330
47
102
}
330
47
100
AcDbScale
 70
     0
300
10:1
140
10.0
141
1.0
290
     0
  0
SCALE
  5
58
102
{ACAD_REACTORS
330
47
102
}
330
47
100
AcDbScale
 70
     0
300
100:1
140
100.0
141
1.0
290
     0
  0
SCALE
  5
59
102
{ACAD_REACTORS
330
47
102
}
330
47
100
AcDbScale
 70
     0
300
1/128" = 1'-0"
140
0.0078125
141
12.0
290
     0
  0
SCALE
  5
5A
102
{ACAD_REACTORS
330
47
102
}
330
47
100
AcDbScale
 70
     0
300
1/64" = 1'-0"
140
0.015625
141
12.0
290
     0
  0
SCALE
  5
5B
102
{ACAD_REACTORS
330
47
102
}
330
47
100
AcDbScale
 70
     0
300
1/32" = 1'-0"
140
0.03125
141
12.0
290
     0
  0
SCALE
  5
5C
102
{ACAD_REACTORS
330
47
102
}
330
47
100
AcDbScale
 70
     0
300
1/16" = 1'-0"
140
0.0625
141
12.0
290
     0
  0
SCALE
  5
5D
102
{ACAD_REACTORS
330
47
102
}
330
47
100
AcDbScale
 70
     0
300
3/32" = 1'-0"
140
0.09375
141
12.0
290
     0
  0
SCALE
  5
5E
102
{ACAD_REACTORS
330
47
102
}
330
47
100
AcDbScale
 70
     0
300
1/8" = 1'-0"
140
0.125
141
12.0
290
     0
  0
SCALE
  5
5F
102
{ACAD_REACTORS
330
47
102
}
330
47
100
AcDbScale
 70
     0
300
3/16" = 1'-0"
140
0.1875
141
12.0
290
     0
  0
SCALE
  5
60
102
{ACAD_REACTORS
330
47
102
}
330
47
100
AcDbScale
 70
     0
300
1/4" = 1'-0"
140
0.25
141
12.0
290
     0
  0
SCALE
  5
61
102
{ACAD_REACTORS
330
47
102
}
330
47
100
AcDbScale
 70
     0
300
3/8" = 1'-0"
140
0.375
141
12.0
290
     0
  0
SCALE
  5
62
102
{ACAD_REACTORS
330
47
102
}
330
47
100
AcDbScale
 70
     0
300
1/2" = 1'-0"
140
0.5
141
12.0
290
     0
  0
SCALE
  5
63
102
{ACAD_REACTORS
330
47
102
}
330
47
100
AcDbScale
 70
     0
300
3/4" = 1'-0"
140
0.75
141
12.0
290
     0
  0
SCALE
  5
64
102
{ACAD_REACTORS
330
47
102
}
330
47
100
AcDbScale
 70
     0
300
1" = 1'-0"
140
1.0
141
12.0
290
     0
  0
SCALE
  5
65
102
{ACAD_REACTORS
330
47
102
}
330
47
100
AcDbScale
 70
     0
300
1-1/2" = 1'-0"
140
1.5
141
12.0
290
     0
  0
SCALE
  5
66
102
{ACAD_REACTORS
330
47
102
}
330
47
100
AcDbScale
 70
     0
300
3" = 1'-0"
140
3.0
141
12.0
290
     0
  0
SCALE
  5
67
102
{ACAD_REACTORS
330
47
102
}
330
47
100
AcDbScale
 70
     0
300
6" = 1'-0"
140
6.0
141
12.0
290
     0
  0
SCALE
  5
68
102
{ACAD_REACTORS
330
47
102
}
330
47
100
AcDbScale
 70
     0
300
1'-0" = 1'-0"
140
12.0
141
12.0
290
     0
  0
TABLESTYLE
  5
6A
102
{ACAD_REACTORS
330
69
102
}
102
{ACAD_XDICTIONARY
360
154
102
}
330
69
100
AcDbTableStyle
  3
Standard
 70
     0
 71
     0
 40
0.06
 41
0.06
280
     0
281
     0
  7
Standard
140
4.5
170
     2
 62
     0
 63
   257
283
     0
274
    -2
284
     1
 64
     0
275
    -2
285
     1
 65
     0
276
    -2
286
     1
 66
     0
277
    -2
287
     1
 67
     0
278
    -2
288
     1
 68
     0
279
    -2
289
     1
 69
     0
  7
Standard
140
6.0
170
     5
 62
     0
 63
   257
283
     0
274
    -2
284
     1
 64
     0
275
    -2
285
     1
 65
     0
276
    -2
286
     1
 66
     0
277
    -2
287
     1
 67
     0
278
    -2
288
     1
 68
     0
279
    -2
289
     1
 69
     0
  7
Standard
140
4.5
170
     5
 62
     0
 63
   257
283
     0
274
    -2
284
     1
 64
     0
275
    -2
285
     1
 65
     0
276
    -2
286
     1
 66
     0
277
    -2
287
     1
 67
     0
278
    -2
288
     1
 68
     0
279
    -2
289
     1
 69
     0
  0
DICTIONARYVAR
  5
153
102
{ACAD_REACTORS
330
152
102
}
330
152
100
DictionaryVariables
280
     0
  1
1:1
  0
DICTIONARYVAR
  5
15A
102
{ACAD_REACTORS
330
152
102
}
330
152
100
DictionaryVariables
280
     0
  1
Standard
  0
DICTIONARYVAR
  5
159
102
{ACAD_REACTORS
330
152
102
}
330
152
100
DictionaryVariables
280
     0
  1
Standard
  0
DICTIONARY
  5
154
330
6A
100
AcDbDictionary
280
     1
281
     1
  3
ACAD_ROUNDTRIP_2008_TABLESTYLE_CELLSTYLEMAP
360
156
  3
ACAD_XREC_ROUNDTRIP
360
155
  0
CELLSTYLEMAP
  5
156
102
{ACAD_REACTORS
330
154
102
}
330
154
100
AcDbCellStyleMap
 90
        3
300
CELLSTYLE
  1
TABLEFORMAT_BEGIN
 90
        5
170
     1
 91
        0
 92
    32768
 62
   257
 93
        1
300
CONTENTFORMAT
  1
CONTENTFORMAT_BEGIN
 90
        0
 91
        0
 92
        4
 93
        0
300

 40
0.0
140
1.0
 94
        5
 62
     0
340
11
144
6.0
309
CONTENTFORMAT_END
171
     1
301
MARGIN
  1
CELLMARGIN_BEGIN
 40
1.5
 40
1.5
 40
1.5
 40
1.5
 40
1.5
 40
1.5
309
CELLMARGIN_END
 94
        6
 95
        1
302
GRIDFORMAT
  1
GRIDFORMAT_BEGIN
 90
        0
 91
        1
 62
     0
 92
       -2
340
14
 93
        0
 40
0.045
309
GRIDFORMAT_END
 95
        2
302
GRIDFORMAT
  1
GRIDFORMAT_BEGIN
 90
        0
 91
        1
 62
     0
 92
       -2
340
14
 93
        0
 40
0.045
309
GRIDFORMAT_END
 95
        4
302
GRIDFORMAT
  1
GRIDFORMAT_BEGIN
 90
        0
 91
        1
 62
     0
 92
       -2
340
14
 93
        0
 40
0.045
309
GRIDFORMAT_END
 95
        8
302
GRIDFORMAT
  1
GRIDFORMAT_BEGIN
 90
        0
 91
        1
 62
     0
 92
       -2
340
14
 93
        0
 40
0.045
309
GRIDFORMAT_END
 95
       16
302
GRIDFORMAT
  1
GRIDFORMAT_BEGIN
 90
        0
 91
        1
 62
     0
 92
       -2
340
14
 93
        0
 40
0.045
309
GRIDFORMAT_END
 95
       32
302
GRIDFORMAT
  1
GRIDFORMAT_BEGIN
 90
        0
 91
        1
 62
     0
 92
       -2
340
14
 93
        0
 40
0.045
309
GRIDFORMAT_END
309
TABLEFORMAT_END
  1
CELLSTYLE_BEGIN
 90
        1
 91
        1
300
_TITLE
309
CELLSTYLE_END
300
CELLSTYLE
  1
TABLEFORMAT_BEGIN
 90
        5
170
     1
 91
        0
 92
        0
 62
   257
 93
        1
300
CONTENTFORMAT
  1
CONTENTFORMAT_BEGIN
 90
        0
 91
        0
 92
        4
 93
        0
300

 40
0.0
140
1.0
 94
        5
 62
     0
340
11
144
4.5
309
CONTENTFORMAT_END
171
     1
301
MARGIN
  1
CELLMARGIN_BEGIN
 40
1.5
 40
1.5
 40
1.5
 40
1.5
 40
1.5
 40
1.5
309
CELLMARGIN_END
 94
        6
 95
        1
302
GRIDFORMAT
  1
GRIDFORMAT_BEGIN
 90
        0
 91
        1
 62
     0
 92
       -2
340
14
 93
        0
 40
0.045
309
GRIDFORMAT_END
 95
        2
302
GRIDFORMAT
  1
GRIDFORMAT_BEGIN
 90
        0
 91
        1
 62
     0
 92
       -2
340
14
 93
        0
 40
0.045
309
GRIDFORMAT_END
 95
        4
302
GRIDFORMAT
  1
GRIDFORMAT_BEGIN
 90
        0
 91
        1
 62
     0
 92
       -2
340
14
 93
        0
 40
0.045
309
GRIDFORMAT_END
 95
        8
302
GRIDFORMAT
  1
GRIDFORMAT_BEGIN
 90
        0
 91
        1
 62
     0
 92
       -2
340
14
 93
        0
 40
0.045
309
GRIDFORMAT_END
 95
       16
302
GRIDFORMAT
  1
GRIDFORMAT_BEGIN
 90
        0
 91
        1
 62
     0
 92
       -2
340
14
 93
        0
 40
0.045
309
GRIDFORMAT_END
 95
       32
302
GRIDFORMAT
  1
GRIDFORMAT_BEGIN
 90
        0
 91
        1
 62
     0
 92
       -2
340
14
 93
        0
 40
0.045
309
GRIDFORMAT_END
309
TABLEFORMAT_END
  1
CELLSTYLE_BEGIN
 90
        2
 91
        1
300
_HEADER
309
CELLSTYLE_END
300
CELLSTYLE
  1
TABLEFORMAT_BEGIN
 90
        5
170
     1
 91
        0
 92
        0
 62
   257
 93
        1
300
CONTENTFORMAT
  1
CONTENTFORMAT_BEGIN
 90
        0
 91
        0
 92
        4
 93
        0
300

 40
0.0
140
1.0
 94
        2
 62
     0
340
11
144
4.5
309
CONTENTFORMAT_END
171
     1
301
MARGIN
  1
CELLMARGIN_BEGIN
 40
1.5
 40
1.5
 40
1.5
 40
1.5
 40
1.5
 40
1.5
309
CELLMARGIN_END
 94
        6
 95
        1
302
GRIDFORMAT
  1
GRIDFORMAT_BEGIN
 90
        0
 91
        1
 62
     0
 92
       -2
340
14
 93
        0
 40
0.045
309
GRIDFORMAT_END
 95
        2
302
GRIDFORMAT
  1
GRIDFORMAT_BEGIN
 90
        0
 91
        1
 62
     0
 92
       -2
340
14
 93
        0
 40
0.045
309
GRIDFORMAT_END
 95
        4
302
GRIDFORMAT
  1
GRIDFORMAT_BEGIN
 90
        0
 91
        1
 62
     0
 92
       -2
340
14
 93
        0
 40
0.045
309
GRIDFORMAT_END
 95
        8
302
GRIDFORMAT
  1
GRIDFORMAT_BEGIN
 90
        0
 91
        1
 62
     0
 92
       -2
340
14
 93
        0
 40
0.045
309
GRIDFORMAT_END
 95
       16
302
GRIDFORMAT
  1
GRIDFORMAT_BEGIN
 90
        0
 91
        1
 62
     0
 92
       -2
340
14
 93
        0
 40
0.045
309
GRIDFORMAT_END
 95
       32
302
GRIDFORMAT
  1
GRIDFORMAT_BEGIN
 90
        0
 91
        1
 62
     0
 92
       -2
340
14
 93
        0
 40
0.045
309
GRIDFORMAT_END
309
TABLEFORMAT_END
  1
CELLSTYLE_BEGIN
 90
        3
 91
        2
300
_DATA
309
CELLSTYLE_END
  0
XRECORD
  5
155
102
{ACAD_REACTORS
330
154
102
}
330
154
100
AcDbXrecord
280
     1
102
ACAD_ROUNDTRIP_PRE2007_TABLESTYLE
 90
        4
 91
        0
  1

 92
        4
 93
        0
  2

 94
        4
 95
        0
  3

  0
ENDSEC
  0
EOF
