  0
SECTION
  2
HEADER
  9
$ACADVER
  1
AC1021
  9
$ACADMAINTVER
 70
    25
  9
$DWGCODEPAGE
  3
ANSI_1252
  9
$INSBASE
 10
0.0
 20
0.0
 30
0.0
  9
$EXTMIN
 10
0.0
 20
0.0
 30
0.0
  9
$EXTMAX
 10
297.0
 20
210.0
 30
0.0
  9
$LIMMIN
 10
0.0
 20
0.0
  9
$LIMMAX
 10
297.0
 20
210.0
  9
$ORTHOMODE
 70
     0
  9
$REGENMODE
 70
     1
  9
$FILLMODE
 70
     1
  9
$QTEXTMODE
 70
     0
  9
$MIRRTEXT
 70
     1
  9
$LTSCALE
 40
1.0
  9
$ATTMODE
 70
     1
  9
$TEXTSIZE
 40
3.5
  9
$TRACEWID
 40
1.0
  9
$TEXTSTYLE
  7
Standard
  9
$CLAYER
  8
0
  9
$CELTYPE
  6
ByLayer
  9
$CECOLOR
 62
   256
  9
$CELTSCALE
 40
1.0
  9
$DISPSILH
 70
     0
  9
$DIMSCALE
 40
1.0
  9
$DIMASZ
 40
3.302
  9
$DIMEXO
 40
1.0
  9
$DIMDLI
 40
3.75
  9
$DIMRND
 40
0.0
  9
$DIMDLE
 40
0.0
  9
$DIMEXE
 40
1.0
  9
$DIMTP
 40
0.0
  9
$DIMTM
 40
0.0
  9
$DIMTXT
 40
3.5
  9
$DIMCEN
 40
2.5
  9
$DIMTSZ
 40
0.0
  9
$DIMTOL
 70
     0
  9
$DIMLIM
 70
     0
  9
$DIMTIH
 70
     1
  9
$DIMTOH
 70
     1
  9
$DIMSE1
 70
     0
  9
$DIMSE2
 70
     0
  9
$DIMTAD
 70
     1
  9
$DIMZIN
 70
     0
  9
$DIMBLK
  1

  9
$DIMASO
 70
     1
  9
$DIMSHO
 70
     1
  9
$DIMPOST
  1

  9
$DIMAPOST
  1

  9
$DIMALT
 70
     0
  9
$DIMALTD
 70
     3
  9
$DIMALTF
 40
0.0393700787
  9
$DIMLFAC
 40
1.0
  9
$DIMTOFL
 70
     1
  9
$DIMTVP
 40
0.0
  9
$DIMTIX
 70
     0
  9
$DIMSOXD
 70
     0
  9
$DIMSAH
 70
     0
  9
$DIMBLK1
  1

  9
$DIMBLK2
  1

  9
$DIMSTYLE
  2
ISO-25
  9
$DIMCLRD
 70
     0
  9
$DIMCLRE
 70
     0
  9
$DIMCLRT
 70
     0
  9
$DIMTFAC
 40
1.0
  9
$DIMGAP
 40
1.524
  9
$DIMJUST
 70
     0
  9
$DIMSD1
 70
     0
  9
$DIMSD2
 70
     0
  9
$DIMTOLJ
 70
     0
  9
$DIMTZIN
 70
     0
  9
$DIMALTZ
 70
     0
  9
$DIMALTTZ
 70
     0
  9
$DIMUPT
 70
     0
  9
$DIMDEC
 70
     2
  9
$DIMTDEC
 70
     2
  9
$DIMALTU
 70
     2
  9
$DIMALTTD
 70
     3
  9
$DIMTXSTY
  7
Standard
  9
$DIMAUNIT
 70
     0
  9
$DIMADEC
 70
     2
  9
$DIMALTRND
 40
0.0
  9
$DIMAZIN
 70
     0
  9
$DIMDSEP
 70
    44
  9
$DIMATFIT
 70
     3
  9
$DIMFRAC
 70
     0
  9
$DIMLDRBLK
  1

  9
$DIMLUNIT
 70
     2
  9
$DIMLWD
 70
    -2
  9
$DIMLWE
 70
    -2
  9
$DIMTMOVE
 70
     0
  9
$DIMFXL
 40
1.0
  9
$DIMFXLON
 70
     0
  9
$DIMJOGANG
 40
0.7853981634
  9
$DIMTFILL
 70
     0
  9
$DIMTFILLCLR
 70
     0
  9
$DIMARCSYM
 70
     0
  9
$DIMLTYPE
  6

  9
$DIMLTEX1
  6

  9
$DIMLTEX2
  6

  9
$LUNITS
 70
     2
  9
$LUPREC
 70
     2
  9
$SKETCHINC
 40
1.0
  9
$FILLETRAD
 40
10.0
  9
$AUNITS
 70
     0
  9
$AUPREC
 70
     2
  9
$MENU
  1
.
  9
$ELEVATION
 40
0.0
  9
$PELEVATION
 40
0.0
  9
$THICKNESS
 40
0.0
  9
$LIMCHECK
 70
     0
  9
$CHAMFERA
 40
10.0
  9
$CHAMFERB
 40
10.0
  9
$CHAMFERC
 40
20.0
  9
$CHAMFERD
 40
0.0
  9
$SKPOLY
 70
     0
  9
$TDCREATE
 40
2456517.623431794
  9
$TDUCREATE
 40
2456517.540098461
  9
$TDUPDATE
 40
2456517.623432176
  9
$TDUUPDATE
 40
2456517.540098843
  9
$TDINDWG
 40
0.0000000116
  9
$TDUSRTIMER
 40
0.0000000116
  9
$USRTIMER
 70
     1
  9
$ANGBASE
 50
0.0
  9
$ANGDIR
 70
     0
  9
$PDMODE
 70
     0
  9
$PDSIZE
 40
-1.0
  9
$PLINEWID
 40
0.0
  9
$SPLFRAME
 70
     0
  9
$SPLINETYPE
 70
     6
  9
$SPLINESEGS
 70
     8
  9
$HANDSEED
  5
D2
  9
$SURFTAB1
 70
     6
  9
$SURFTAB2
 70
     6
  9
$SURFTYPE
 70
     6
  9
$SURFU
 70
     6
  9
$SURFV
 70
     6
  9
$UCSBASE
  2

  9
$UCSNAME
  2

  9
$UCSORG
 10
0.0
 20
0.0
 30
0.0
  9
$UCSXDIR
 10
1.0
 20
0.0
 30
0.0
  9
$UCSYDIR
 10
0.0
 20
1.0
 30
0.0
  9
$UCSORTHOREF
  2

  9
$UCSORTHOVIEW
 70
     0
  9
$UCSORGTOP
 10
0.0
 20
0.0
 30
0.0
  9
$UCSORGBOTTOM
 10
0.0
 20
0.0
 30
0.0
  9
$UCSORGLEFT
 10
0.0
 20
0.0
 30
0.0
  9
$UCSORGRIGHT
 10
0.0
 20
0.0
 30
0.0
  9
$UCSORGFRONT
 10
0.0
 20
0.0
 30
0.0
  9
$UCSORGBACK
 10
0.0
 20
0.0
 30
0.0
  9
$PUCSBASE
  2

  9
$PUCSNAME
  2

  9
$PUCSORG
 10
0.0
 20
0.0
 30
0.0
  9
$PUCSXDIR
 10
1.0
 20
0.0
 30
0.0
  9
$PUCSYDIR
 10
0.0
 20
1.0
 30
0.0
  9
$PUCSORTHOREF
  2

  9
$PUCSORTHOVIEW
 70
     0
  9
$PUCSORGTOP
 10
0.0
 20
0.0
 30
0.0
  9
$PUCSORGBOTTOM
 10
0.0
 20
0.0
 30
0.0
  9
$PUCSORGLEFT
 10
0.0
 20
0.0
 30
0.0
  9
$PUCSORGRIGHT
 10
0.0
 20
0.0
 30
0.0
  9
$PUCSORGFRONT
 10
0.0
 20
0.0
 30
0.0
  9
$PUCSORGBACK
 10
0.0
 20
0.0
 30
0.0
  9
$USERI1
 70
     0
  9
$USERI2
 70
     0
  9
$USERI3
 70
     0
  9
$USERI4
 70
     0
  9
$USERI5
 70
     0
  9
$USERR1
 40
0.0
  9
$USERR2
 40
0.0
  9
$USERR3
 40
0.0
  9
$USERR4
 40
0.0
  9
$USERR5
 40
0.0
  9
$WORLDVIEW
 70
     1
  9
$SHADEDGE
 70
     3
  9
$SHADEDIF
 70
    70
  9
$TILEMODE
 70
     1
  9
$MAXACTVP
 70
    64
  9
$PINSBASE
 10
0.0
 20
0.0
 30
0.0
  9
$PLIMCHECK
 70
     0
  9
$PEXTMIN
 10
1.0000000000E+20
 20
1.0000000000E+20
 30
1.0000000000E+20
  9
$PEXTMAX
 10
-1.0000000000E+20
 20
-1.0000000000E+20
 30
-1.0000000000E+20
  9
$PLIMMIN
 10
0.0
 20
0.0
  9
$PLIMMAX
 10
420.0
 20
297.0
  9
$UNITMODE
 70
     0
  9
$VISRETAIN
 70
     1
  9
$PLINEGEN
 70
     0
  9
$PSLTSCALE
 70
     1
  9
$TREEDEPTH
 70
  3020
  9
$CMLSTYLE
  2
Standard
  9
$CMLJUST
 70
     0
  9
$CMLSCALE
 40
20.0
  9
$PROXYGRAPHICS
 70
     1
  9
$MEASUREMENT
 70
     1
  9
$CELWEIGHT
370
    -1
  9
$ENDCAPS
280
     0
  9
$JOINSTYLE
280
     0
  9
$LWDISPLAY
290
     1
  9
$INSUNITS
 70
     4
  9
$HYPERLINKBASE
  1

  9
$STYLESHEET
  1

  9
$XEDIT
290
     1
  9
$CEPSNTYPE
380
     0
  9
$PSTYLEMODE
290
     1
  9
$FINGERPRINTGUID
  2
{12E4EE37-F308-4C44-82B2-0455E7DD1BED}
  9
$VERSIONGUID
  2
{FAEB1C32-E019-11D5-929B-00C0DF256EC4}
  9
$EXTNAMES
290
     1
  9
$PSVPSCALE
 40
0.0
  9
$OLESTARTUP
290
     0
  9
$SORTENTS
280
   127
  9
$INDEXCTL
280
     0
  9
$HIDETEXT
280
     1
  9
$XCLIPFRAME
290
     0
  9
$HALOGAP
280
     0
  9
$OBSCOLOR
 70
   257
  9
$OBSLTYPE
280
     0
  9
$INTERSECTIONDISPLAY
280
     0
  9
$INTERSECTIONCOLOR
 70
   257
  9
$DIMASSOC
280
     2
  9
$PROJECTNAME
  1

  9
$CAMERADISPLAY
290
     0
  9
$LENSLENGTH
 40
50.0
  9
$CAMERAHEIGHT
 40
0.0
  9
$STEPSPERSEC
 40
2.0
  9
$STEPSIZE
 40
6.0
  9
$3DDWFPREC
 40
2.0
  9
$PSOLWIDTH
 40
5.0
  9
$PSOLHEIGHT
 40
80.0
  9
$LOFTANG1
 40
1.5707963268
  9
$LOFTANG2
 40
1.5707963268
  9
$LOFTMAG1
 40
0.0
  9
$LOFTMAG2
 40
0.0
  9
$LOFTPARAM
 70
     7
  9
$LOFTNORMALS
280
     1
  9
$LATITUDE
 40
37.795
  9
$LONGITUDE
 40
-122.394
  9
$NORTHDIRECTION
 40
0.0
  9
$TIMEZONE
 70
 -8000
  9
$LIGHTGLYPHDISPLAY
280
     1
  9
$TILEMODELIGHTSYNCH
280
     1
  9
$SOLIDHIST
280
     1
  9
$SHOWHIST
280
     1
  9
$DWFFRAME
280
     2
  9
$DGNFRAME
280
     2
  9
$REALWORLDSCALE
290
     1
  9
$INTERFERECOLOR
 62
   256
  9
$CSHADOW
280
     0
  9
$SHADOWPLANELOCATION
 40
0.0
  0
ENDSEC
  0
SECTION
  2
CLASSES
  0
CLASS
  1
ACDBDICTIONARYWDFLT
  2
AcDbDictionaryWithDefault
  3
ObjectDBX Classes
 90
        0
 91
        4
280
     0
281
     0
  0
CLASS
  1
VISUALSTYLE
  2
AcDbVisualStyle
  3
ObjectDBX Classes
 90
     4095
 91
        4
280
     0
281
     0
  0
CLASS
  1
MATERIAL
  2
AcDbMaterial
  3
ObjectDBX Classes
 90
     1153
 91
        4
280
     0
281
     0
  0
ENDSEC
  0
SECTION
  2
TABLES
  0
TABLE
  2
VPORT
  5
8
330
0
100
AcDbSymbolTable
 70
     1
  0
VPORT
  5
29
330
8
100
AcDbSymbolTableRecord
100
AcDbViewportTableRecord
  2
*Active
 70
     0
 10
0.0
 20
0.0
 11
1.0
 21
1.0
 12
148.5
 22
105.0
 13
0.0
 23
0.0
 14
10.0
 24
10.0
 15
10.0
 25
10.0
 16
0.0
 26
0.0
 36
1.0
 17
0.0
 27
0.0
 37
0.0
 40
210.0
 41
1.4142857143
 42
50.0
 43
0.0
 44
0.0
 50
0.0
 51
0.0
 71
     0
 72
  2000
 73
     1
 74
     3
 75
     0
 76
     0
 77
     0
 78
     0
281
     0
 65
     1
110
0.0
120
0.0
130
0.0
111
1.0
121
0.0
131
0.0
112
0.0
122
1.0
132
0.0
 79
     0
146
0.0
 60
     3
 61
     5
292
     1
282
     1
141
0.0
142
0.0
 63
   250
  0
ENDTAB
  0
TABLE
  2
LTYPE
  5
5
330
0
100
AcDbSymbolTable
 70
     8
  0
LTYPE
  5
14
330
5
100
AcDbSymbolTableRecord
100
AcDbLinetypeTableRecord
  2
ByBlock
 70
     0
  3

 72
    65
 73
     0
 40
0.0
  0
LTYPE
  5
15
330
5
100
AcDbSymbolTableRecord
100
AcDbLinetypeTableRecord
  2
ByLayer
 70
     0
  3

 72
    65
 73
     0
 40
0.0
  0
LTYPE
  5
16
330
5
100
AcDbSymbolTableRecord
100
AcDbLinetypeTableRecord
  2
Continuous
 70
     0
  3
Solid line
 72
    65
 73
     0
 40
0.0
  0
LTYPE
  5
3F
330
5
100
AcDbSymbolTableRecord
100
AcDbLinetypeTableRecord
  2
SLD-Durchgehend
 70
     0
  3
SolidWorks Line Style
 72
    65
 73
     0
 40
0.0
  0
LTYPE
  5
40
330
5
100
AcDbSymbolTableRecord
100
AcDbLinetypeTableRecord
  2
SLD-Gestrichelt
 70
     0
  3
SolidWorks Line Style
 72
    65
 73
     2
 40
1.905
 49
1.27
 74
     0
 49
-0.635
 74
     0
  0
LTYPE
  5
41
330
5
100
AcDbSymbolTableRecord
100
AcDbLinetypeTableRecord
  2
SLD-Phantom
 70
     0
  3
SolidWorks Line Style
 72
    65
 73
     6
 40
12.7
 49
6.35
 74
     0
 49
-1.27
 74
     0
 49
1.27
 74
     0
 49
-1.27
 74
     0
 49
1.27
 74
     0
 49
-1.27
 74
     0
  0
LTYPE
  5
42
330
5
100
AcDbSymbolTableRecord
100
AcDbLinetypeTableRecord
  2
SLD-Kette
 70
     0
  3
SolidWorks Line Style
 72
    65
 73
     4
 40
10.16
 49
6.35
 74
     0
 49
-1.27
 74
     0
 49
1.27
 74
     0
 49
-1.27
 74
     0
  0
LTYPE
  5
43
330
5
100
AcDbSymbolTableRecord
100
AcDbLinetypeTableRecord
  2
SLD-Punktstrich
 70
     0
  3
SolidWorks Line Style
 72
    65
 73
     4
 40
19.05
 49
15.24
 74
     0
 49
-1.27
 74
     0
 49
1.27
 74
     0
 49
-1.27
 74
     0
  0
LTYPE
  5
44
330
5
100
AcDbSymbolTableRecord
100
AcDbLinetypeTableRecord
  2
SLD-Naht
 70
     0
  3
SolidWorks Line Style
 72
    65
 73
     2
 40
0.635
 49
0.0
 74
     0
 49
-0.635
 74
     0
  0
LTYPE
  5
45
330
5
100
AcDbSymbolTableRecord
100
AcDbLinetypeTableRecord
  2
SLD-Dicke-Dünne-Kette
 70
     0
  3
SolidWorks Line Style
 72
    65
 73
     4
 40
10.16
 49
6.35
 74
     0
 49
-1.27
 74
     0
 49
1.27
 74
     0
 49
-1.27
 74
     0
  0
ENDTAB
  0
TABLE
  2
LAYER
  5
2
330
0
100
AcDbSymbolTable
 70
     1
  0
LAYER
  5
10
330
2
100
AcDbSymbolTableRecord
100
AcDbLayerTableRecord
  2
0
 70
     0
 62
     7
  6
Continuous
370
    -3
390
F
347
3E
  0
ENDTAB
  0
TABLE
  2
STYLE
  5
3
330
0
100
AcDbSymbolTable
 70
     2
  0
STYLE
  5
11
330
3
100
AcDbSymbolTableRecord
100
AcDbTextStyleTableRecord
  2
Standard
 70
     0
 40
0.0
 41
1.0
 50
0.0
 71
     0
 42
3.5
  3
txt
  4

  0
STYLE
  5
7E
330
3
100
AcDbSymbolTableRecord
100
AcDbTextStyleTableRecord
  2
SLDTEXTSTYLE0
 70
     0
 40
0.0
 41
0.75
 50
0.0
 71
     0
 42
0.2
  3
TXT
  4

  0
ENDTAB
  0
TABLE
  2
VIEW
  5
6
330
0
100
AcDbSymbolTable
 70
     0
  0
ENDTAB
  0
TABLE
  2
UCS
  5
7
330
0
100
AcDbSymbolTable
 70
     0
  0
ENDTAB
  0
TABLE
  2
APPID
  5
9
330
0
100
AcDbSymbolTable
 70
     1
  0
APPID
  5
12
330
9
100
AcDbSymbolTableRecord
100
AcDbRegAppTableRecord
  2
ACAD
 70
     0
  0
ENDTAB
  0
TABLE
  2
DIMSTYLE
  5
A
330
0
100
AcDbSymbolTable
 70
     3
100
AcDbDimStyleTable
  0
DIMSTYLE
105
27
330
A
100
AcDbSymbolTableRecord
100
AcDbDimStyleTableRecord
  2
ISO-25
 70
     0
 41
2.5
 42
0.625
 43
3.75
 44
1.25
 73
     0
 74
     0
 77
     1
 78
     8
140
2.5
141
2.5
143
0.0393700787
147
0.625
171
     3
172
     1
178
     0
271
     2
272
     2
274
     3
278
    44
283
     0
284
     8
340
11
  0
DIMSTYLE
105
7F
102
{ACAD_REACTORS
330
7D
330
97
102
}
330
A
100
AcDbSymbolTableRecord
100
AcDbDimStyleTableRecord
  2
SLDDIMSTYLE0
 70
     0
 41
3.302
 44
0.0
 45
0.000000001
 73
     0
 74
     0
 77
     1
 78
    12
 79
     3
140
3.5
147
0.875
173
     1
178
     0
271
     2
272
     2
276
     2
284
    12
340
7E
  0
DIMSTYLE
105
8A
102
{ACAD_REACTORS
330
89
330
A1
330
AD
102
}
330
A
100
AcDbSymbolTableRecord
100
AcDbDimStyleTableRecord
  2
SLDDIMSTYLE1
 70
     0
 41
3.302
 44
0.0
 45
0.000000001
 73
     0
 74
     0
 77
     1
 78
    12
 79
     3
140
3.5
147
0.875
172
     1
173
     1
178
     0
271
     2
272
     2
276
     2
284
    12
289
     0
340
7E
  0
ENDTAB
  0
TABLE
  2
BLOCK_RECORD
  5
1
330
0
100
AcDbSymbolTable
 70
     8
  0
BLOCK_RECORD
  5
1F
330
1
100
AcDbSymbolTableRecord
100
AcDbBlockTableRecord
  2
*Model_Space
340
22
 70
     0
280
     1
281
     0
  0
BLOCK_RECORD
  5
1B
330
1
100
AcDbSymbolTableRecord
100
AcDbBlockTableRecord
  2
*Paper_Space
340
1E
 70
     0
280
     1
281
     0
  0
BLOCK_RECORD
  5
23
330
1
100
AcDbSymbolTableRecord
100
AcDbBlockTableRecord
  2
*Paper_Space0
340
26
 70
     0
280
     1
281
     0
  0
BLOCK_RECORD
  5
80
330
1
100
AcDbSymbolTableRecord
100
AcDbBlockTableRecord
  2
_D
340
0
 70
     0
280
     1
281
     0
  0
BLOCK_RECORD
  5
8B
330
1
100
AcDbSymbolTableRecord
100
AcDbBlockTableRecord
  2
_D_1
340
0
 70
     0
280
     1
281
     0
  0
BLOCK_RECORD
  5
98
330
1
100
AcDbSymbolTableRecord
100
AcDbBlockTableRecord
  2
_D_2
340
0
 70
     0
280
     1
281
     0
  0
BLOCK_RECORD
  5
A2
330
1
100
AcDbSymbolTableRecord
100
AcDbBlockTableRecord
  2
_D_3
340
0
 70
     0
280
     1
281
     0
  0
BLOCK_RECORD
  5
AE
330
1
100
AcDbSymbolTableRecord
100
AcDbBlockTableRecord
  2
_D_4
340
0
 70
     0
280
     1
281
     0
  0
BLOCK_RECORD
  5
B8
330
1
100
AcDbSymbolTableRecord
100
AcDbBlockTableRecord
  2
SW_CENTERMARKSYMBOL_0
340
0
102
{BLKREFS
331
C3
102
}
 70
     0
280
     1
281
     0
  0
BLOCK_RECORD
  5
C4
330
1
100
AcDbSymbolTableRecord
100
AcDbBlockTableRecord
  2
SW_CENTERMARKSYMBOL_1
340
0
102
{BLKREFS
331
CF
102
}
 70
     0
280
     1
281
     0
  0
ENDTAB
  0
ENDSEC
  0
SECTION
  2
BLOCKS
  0
BLOCK
  5
20
330
1F
100
AcDbEntity
  8
0
100
AcDbBlockBegin
  2
*Model_Space
 70
     0
 10
0.0
 20
0.0
 30
0.0
  3
*Model_Space
  1

  0
ENDBLK
  5
21
330
1F
100
AcDbEntity
  8
0
100
AcDbBlockEnd
  0
BLOCK
  5
1C
330
1B
100
AcDbEntity
 67
     1
  8
0
100
AcDbBlockBegin
  2
*Paper_Space
 70
     0
 10
0.0
 20
0.0
 30
0.0
  3
*Paper_Space
  1

  0
ENDBLK
  5
1D
330
1B
100
AcDbEntity
 67
     1
  8
0
100
AcDbBlockEnd
  0
BLOCK
  5
24
330
23
100
AcDbEntity
  8
0
100
AcDbBlockBegin
  2
*Paper_Space0
 70
     0
 10
0.0
 20
0.0
 30
0.0
  3
*Paper_Space0
  1

  0
ENDBLK
  5
25
330
23
100
AcDbEntity
  8
0
100
AcDbBlockEnd
  0
BLOCK
  5
81
330
80
100
AcDbEntity
  8
0
100
AcDbBlockBegin
  2
_D
 70
     0
 10
0.0
 20
0.0
 30
0.0
  3
_D
  1

  0
SOLID
  5
83
330
80
100
AcDbEntity
  8
0
 62
     7
420
 16777215
100
AcDbTrace
 10
0.0027086782
 20
25.9980059343
 30
0.0
 11
3.3047086782
 21
25.4900059343
 31
0.0
 12
3.3047086782
 22
26.5060059343
 32
0.0
 13
3.3047086782
 23
26.5060059343
 33
0.0
  0
SOLID
  5
84
330
80
100
AcDbEntity
  8
0
 62
     7
420
 16777215
100
AcDbTrace
 10
150.0027086782
 20
25.9980059343
 30
0.0
 11
146.7007086782
 21
26.5060059343
 31
0.0
 12
146.7007086782
 22
25.4900059343
 32
0.0
 13
146.7007086782
 23
25.4900059343
 33
0.0
  0
LINE
  5
85
330
80
100
AcDbEntity
  8
0
 62
     7
420
 16777215
100
AcDbLine
 10
0.0027086782
 20
0.9980059343
 30
0.0
 11
0.0027086782
 21
26.9980059343
 31
0.0
  0
LINE
  5
86
330
80
100
AcDbEntity
  8
0
 62
     7
420
 16777215
100
AcDbLine
 10
150.0027086782
 20
0.9980059343
 30
0.0
 11
150.0027086782
 21
26.9980059343
 31
0.0
  0
LINE
  5
87
330
80
100
AcDbEntity
  8
0
 62
     7
420
 16777215
100
AcDbLine
 10
0.0027086782
 20
25.9980059343
 30
0.0
 11
150.0027086782
 21
25.9980059343
 31
0.0
  0
MTEXT
  5
88
330
80
100
AcDbEntity
  8
0
 62
     7
420
 16777215
100
AcDbMText
 10
69.7016671496
 20
30.5097428489
 30
0.0
 40
3.5
 41
0.0
 46
0.0
 71
     1
 72
     1
  1
150
  7
SLDTEXTSTYLE0
 73
     1
 44
1.0
  0
ENDBLK
  5
82
330
80
100
AcDbEntity
  8
0
100
AcDbBlockEnd
  0
BLOCK
  5
8C
330
8B
100
AcDbEntity
  8
0
100
AcDbBlockBegin
  2
_D_1
 70
     0
 10
0.0
 20
0.0
 30
0.0
  3
_D_1
  1

  0
SOLID
  5
8E
330
8B
100
AcDbEntity
  8
0
  6
SLD-Durchgehend
 62
   208
420
  4194368
370
    15
100
AcDbTrace
 10
-5.9972913218
 20
-8.0019940657
 30
0.0
 11
-6.5052913218
 21
-11.3039940657
 31
0.0
 12
-5.4892913218
 22
-11.3039940657
 32
0.0
 13
-5.4892913218
 23
-11.3039940657
 33
0.0
  0
SOLID
  5
8F
330
8B
100
AcDbEntity
  8
0
  6
SLD-Durchgehend
 62
   208
420
  4194368
370
    15
100
AcDbTrace
 10
-5.9972913218
 20
7.9980059343
 30
0.0
 11
-5.4892913218
 21
11.3000059343
 31
0.0
 12
-6.5052913218
 22
11.3000059343
 32
0.0
 13
-6.5052913218
 23
11.3000059343
 33
0.0
  0
LINE
  5
90
330
8B
100
AcDbEntity
  8
0
  6
SLD-Durchgehend
 62
   208
420
  4194368
370
    15
100
AcDbLine
 10
0.0027086782
 20
-8.0019940657
 30
0.0
 11
-6.9972913218
 21
-8.0019940657
 31
0.0
  0
LINE
  5
91
330
8B
100
AcDbEntity
  8
0
  6
SLD-Durchgehend
 62
   208
420
  4194368
370
    15
100
AcDbLine
 10
0.0027086782
 20
7.9980059343
 30
0.0
 11
-6.9972913218
 21
7.9980059343
 31
0.0
  0
LINE
  5
92
330
8B
100
AcDbEntity
  8
0
  6
SLD-Durchgehend
 62
   208
420
  4194368
370
    15
100
AcDbLine
 10
-5.9972913218
 20
-8.0019940657
 30
0.0
 11
-5.9972913218
 21
-13.0019940657
 31
0.0
  0
LINE
  5
93
330
8B
100
AcDbEntity
  8
0
  6
SLD-Durchgehend
 62
   208
420
  4194368
370
    15
100
AcDbLine
 10
-5.9972913218
 20
-8.0019940657
 30
0.0
 11
-5.9972913218
 21
7.9980059343
 31
0.0
  0
LINE
  5
94
330
8B
100
AcDbEntity
  8
0
  6
SLD-Durchgehend
 62
   208
420
  4194368
370
    15
100
AcDbLine
 10
-5.9972913218
 20
7.9980059343
 30
0.0
 11
-5.9972913218
 21
12.9980059343
 31
0.0
  0
MTEXT
  5
95
330
8B
100
AcDbEntity
  8
0
  6
SLD-Durchgehend
 62
   208
420
  4194368
370
    15
100
AcDbMText
 10
-10.5090284111
 20
-6.649199046
 30
0.0
 40
3.5
 41
0.0
 46
0.0
 71
     1
 72
     1
  1
%%c
  7
SLDTEXTSTYLE0
 11
6.123233995736766E-17
 21
1.0
 31
0.0
 73
     1
 44
1.0
  0
MTEXT
  5
96
330
8B
100
AcDbEntity
  8
0
  6
SLD-Durchgehend
 62
   208
420
  4194368
370
    15
100
AcDbMText
 10
-10.5625005877
 20
-1.3707616476
 30
0.0
 40
3.5
 41
0.0
 46
0.0
 71
     1
 72
     1
  1
16
  7
SLDTEXTSTYLE0
 11
6.123233995736766E-17
 21
1.0
 31
0.0
 73
     1
 44
1.0
  0
ENDBLK
  5
8D
330
8B
100
AcDbEntity
  8
0
100
AcDbBlockEnd
  0
BLOCK
  5
99
330
98
100
AcDbEntity
  8
0
100
AcDbBlockBegin
  2
_D_2
 70
     0
 10
0.0
 20
0.0
 30
0.0
  3
_D_2
  1

  0
SOLID
  5
9B
330
98
100
AcDbEntity
  8
0
  6
SLD-Durchgehend
 62
   208
420
  4194368
370
    15
100
AcDbTrace
 10
150.0027086782
 20
19.9980059343
 30
0.0
 11
146.7007086782
 21
20.5060059343
 31
0.0
 12
146.7007086782
 22
19.4900059343
 32
0.0
 13
146.7007086782
 23
19.4900059343
 33
0.0
  0
SOLID
  5
9C
330
98
100
AcDbEntity
  8
0
  6
SLD-Durchgehend
 62
   208
420
  4194368
370
    15
100
AcDbTrace
 10
118.0027086782
 20
19.9980059343
 30
0.0
 11
121.3047086782
 21
19.4900059343
 31
0.0
 12
121.3047086782
 22
20.5060059343
 32
0.0
 13
121.3047086782
 23
20.5060059343
 33
0.0
  0
LINE
  5
9D
330
98
100
AcDbEntity
  8
0
  6
SLD-Durchgehend
 62
   208
420
  4194368
370
    15
100
AcDbLine
 10
150.0027086782
 20
4.8695449652
 30
0.0
 11
150.0027086782
 21
20.9980059343
 31
0.0
  0
LINE
  5
9E
330
98
100
AcDbEntity
  8
0
  6
SLD-Durchgehend
 62
   208
420
  4194368
370
    15
100
AcDbLine
 10
118.0027086782
 20
0.9980059343
 30
0.0
 11
118.0027086782
 21
20.9980059343
 31
0.0
  0
LINE
  5
9F
330
98
100
AcDbEntity
  8
0
  6
SLD-Durchgehend
 62
   208
420
  4194368
370
    15
100
AcDbLine
 10
150.0027086782
 20
19.9980059343
 30
0.0
 11
118.0027086782
 21
19.9980059343
 31
0.0
  0
MTEXT
  5
A0
330
98
100
AcDbEntity
  8
0
  6
SLD-Durchgehend
 62
   208
420
  4194368
370
    15
100
AcDbMText
 10
129.9947223971
 20
24.5097428489
 30
0.0
 40
3.5
 41
0.0
 46
0.0
 71
     1
 72
     1
  1
32
  7
SLDTEXTSTYLE0
 73
     1
 44
1.0
  0
ENDBLK
  5
9A
330
98
100
AcDbEntity
  8
0
100
AcDbBlockEnd
  0
BLOCK
  5
A3
330
A2
100
AcDbEntity
  8
0
100
AcDbBlockBegin
  2
_D_3
 70
     0
 10
0.0
 20
0.0
 30
0.0
  3
_D_3
  1

  0
SOLID
  5
A5
330
A2
100
AcDbEntity
  8
0
  6
SLD-Durchgehend
 62
   208
420
  4194368
370
    15
100
AcDbTrace
 10
150.0027086782
 20
13.9980059343
 30
0.0
 11
153.3047086782
 21
13.4900059343
 31
0.0
 12
153.3047086782
 22
14.5060059343
 32
0.0
 13
153.3047086782
 23
14.5060059343
 33
0.0
  0
SOLID
  5
A6
330
A2
100
AcDbEntity
  8
0
  6
SLD-Durchgehend
 62
   208
420
  4194368
370
    15
100
AcDbTrace
 10
148.7027086782
 20
13.9980059343
 30
0.0
 11
145.4007086782
 21
14.5060059343
 31
0.0
 12
145.4007086782
 22
13.4900059343
 32
0.0
 13
145.4007086782
 23
13.4900059343
 33
0.0
  0
LINE
  5
A7
330
A2
100
AcDbEntity
  8
0
  6
SLD-Durchgehend
 62
   208
420
  4194368
370
    15
100
AcDbLine
 10
150.0027086782
 20
11.9543911402
 30
0.0
 11
150.0027086782
 21
14.9980059343
 31
0.0
  0
LINE
  5
A8
330
A2
100
AcDbEntity
  8
0
  6
SLD-Durchgehend
 62
   208
420
  4194368
370
    15
100
AcDbLine
 10
148.7027086782
 20
2.0293797061
 30
0.0
 11
148.7027086782
 21
14.9980059343
 31
0.0
  0
LINE
  5
A9
330
A2
100
AcDbEntity
  8
0
  6
SLD-Durchgehend
 62
   208
420
  4194368
370
    15
100
AcDbLine
 10
150.0027086782
 20
13.9980059343
 30
0.0
 11
166.769028307
 21
13.9980059343
 31
0.0
  0
LINE
  5
AA
330
A2
100
AcDbEntity
  8
0
  6
SLD-Durchgehend
 62
   208
420
  4194368
370
    15
100
AcDbLine
 10
150.0027086782
 20
13.9980059343
 30
0.0
 11
148.7027086782
 21
13.9980059343
 31
0.0
  0
LINE
  5
AB
330
A2
100
AcDbEntity
  8
0
  6
SLD-Durchgehend
 62
   208
420
  4194368
370
    15
100
AcDbLine
 10
148.7027086782
 20
13.9980059343
 30
0.0
 11
143.7027086782
 21
13.9980059343
 31
0.0
  0
MTEXT
  5
AC
330
A2
100
AcDbEntity
  8
0
  6
SLD-Durchgehend
 62
   208
420
  4194368
370
    15
100
AcDbMText
 10
154.8738895366
 20
18.5097428489
 30
0.0
 40
3.5
 41
0.0
 46
0.0
 71
     1
 72
     1
  1
1,30
  7
SLDTEXTSTYLE0
 73
     1
 44
1.0
  0
ENDBLK
  5
A4
330
A2
100
AcDbEntity
  8
0
100
AcDbBlockEnd
  0
BLOCK
  5
AF
330
AE
100
AcDbEntity
  8
0
100
AcDbBlockBegin
  2
_D_4
 70
     0
 10
0.0
 20
0.0
 30
0.0
  3
_D_4
  1

  0
SOLID
  5
B1
330
AE
100
AcDbEntity
  8
0
  6
SLD-Durchgehend
 62
   208
420
  4194368
370
    15
100
AcDbTrace
 10
123.4868023323
 20
-13.5019940657
 30
0.0
 11
122.9788023323
 21
-16.8039940657
 31
0.0
 12
123.9948023323
 22
-16.8039940657
 32
0.0
 13
123.9948023323
 23
-16.8039940657
 33
0.0
  0
SOLID
  5
B2
330
AE
100
AcDbEntity
  8
0
  6
SLD-Durchgehend
 62
   208
420
  4194368
370
    15
100
AcDbTrace
 10
123.4868023323
 20
-0.0019940657
 30
0.0
 11
123.9948023323
 21
3.3000059343
 31
0.0
 12
122.9788023323
 22
3.3000059343
 32
0.0
 13
122.9788023323
 23
3.3000059343
 33
0.0
  0
LINE
  5
B3
330
AE
100
AcDbEntity
  8
0
  6
SLD-Durchgehend
 62
   208
420
  4194368
370
    15
100
AcDbLine
 10
148.3527086782
 20
-13.5019940657
 30
0.0
 11
122.4868023323
 21
-13.5019940657
 31
0.0
  0
LINE
  5
B4
330
AE
100
AcDbEntity
  8
0
  6
SLD-Durchgehend
 62
   208
420
  4194368
370
    15
100
AcDbLine
 10
123.4868023323
 20
-13.5019940657
 30
0.0
 11
123.4868023323
 21
-18.5019940657
 31
0.0
  0
LINE
  5
B5
330
AE
100
AcDbEntity
  8
0
  6
SLD-Durchgehend
 62
   208
420
  4194368
370
    15
100
AcDbLine
 10
123.4868023323
 20
-13.5019940657
 30
0.0
 11
123.4868023323
 21
-0.0019940657
 31
0.0
  0
LINE
  5
B6
330
AE
100
AcDbEntity
  8
0
  6
SLD-Durchgehend
 62
   208
420
  4194368
370
    15
100
AcDbLine
 10
123.4868023323
 20
-0.0019940657
 30
0.0
 11
123.4868023323
 21
4.9980059343
 31
0.0
  0
MTEXT
  5
B7
330
AE
100
AcDbEntity
  8
0
  6
SLD-Durchgehend
 62
   208
420
  4194368
370
    15
100
AcDbMText
 10
118.9750654177
 20
-13.9926191641
 30
0.0
 40
3.5
 41
0.0
 46
0.0
 71
     1
 72
     1
  1
13,50
  7
SLDTEXTSTYLE0
 11
6.123233995736766E-17
 21
1.0
 31
0.0
 73
     1
 44
1.0
  0
ENDBLK
  5
B0
330
AE
100
AcDbEntity
  8
0
100
AcDbBlockEnd
  0
BLOCK
  5
B9
330
B8
100
AcDbEntity
  8
0
100
AcDbBlockBegin
  2
SW_CENTERMARKSYMBOL_0
 70
     0
 10
0.0
 20
0.0
 30
0.0
  3
SW_CENTERMARKSYMBOL_0
  1

  0
LINE
  5
BB
330
B8
100
AcDbEntity
  8
0
  6
SLD-Punktstrich
 62
     0
370
    15
100
AcDbLine
 10
0.0
 20
0.0
 30
0.0
 11
0.0
 21
2.5
 31
0.0
  0
LINE
  5
BC
330
B8
100
AcDbEntity
  8
0
  6
SLD-Punktstrich
 62
     0
370
    15
100
AcDbLine
 10
0.0
 20
0.0
 30
0.0
 11
-2.5
 21
0.0
 31
0.0
  0
LINE
  5
BD
330
B8
100
AcDbEntity
  8
0
  6
SLD-Punktstrich
 62
     0
370
    15
100
AcDbLine
 10
0.0
 20
0.0
 30
0.0
 11
0.0
 21
-2.5
 31
0.0
  0
LINE
  5
BE
330
B8
100
AcDbEntity
  8
0
  6
SLD-Punktstrich
 62
     0
370
    15
100
AcDbLine
 10
0.0
 20
0.0
 30
0.0
 11
2.5
 21
0.0
 31
0.0
  0
LINE
  5
BF
330
B8
100
AcDbEntity
  8
0
  6
SLD-Punktstrich
 62
     0
370
    15
100
AcDbLine
 10
0.0
 20
2.5
 30
0.0
 11
0.0
 21
4.7
 31
0.0
  0
LINE
  5
C0
330
B8
100
AcDbEntity
  8
0
  6
SLD-Punktstrich
 62
     0
370
    15
100
AcDbLine
 10
-2.5
 20
0.0
 30
0.0
 11
-4.7
 21
0.0
 31
0.0
  0
LINE
  5
C1
330
B8
100
AcDbEntity
  8
0
  6
SLD-Punktstrich
 62
     0
370
    15
100
AcDbLine
 10
0.0
 20
-2.5
 30
0.0
 11
0.0
 21
-4.7
 31
0.0
  0
LINE
  5
C2
330
B8
100
AcDbEntity
  8
0
  6
SLD-Punktstrich
 62
     0
370
    15
100
AcDbLine
 10
2.5
 20
0.0
 30
0.0
 11
4.7
 21
0.0
 31
0.0
  0
ENDBLK
  5
BA
330
B8
100
AcDbEntity
  8
0
100
AcDbBlockEnd
  0
BLOCK
  5
C5
330
C4
100
AcDbEntity
  8
0
100
AcDbBlockBegin
  2
SW_CENTERMARKSYMBOL_1
 70
     0
 10
0.0
 20
0.0
 30
0.0
  3
SW_CENTERMARKSYMBOL_1
  1

  0
LINE
  5
C7
330
C4
100
AcDbEntity
  8
0
  6
SLD-Punktstrich
 62
     0
370
    15
100
AcDbLine
 10
0.0
 20
0.0
 30
0.0
 11
0.0
 21
2.5
 31
0.0
  0
LINE
  5
C8
330
C4
100
AcDbEntity
  8
0
  6
SLD-Punktstrich
 62
     0
370
    15
100
AcDbLine
 10
0.0
 20
0.0
 30
0.0
 11
-2.5
 21
0.0
 31
0.0
  0
LINE
  5
C9
330
C4
100
AcDbEntity
  8
0
  6
SLD-Punktstrich
 62
     0
370
    15
100
AcDbLine
 10
0.0
 20
0.0
 30
0.0
 11
0.0
 21
-2.5
 31
0.0
  0
LINE
  5
CA
330
C4
100
AcDbEntity
  8
0
  6
SLD-Punktstrich
 62
     0
370
    15
100
AcDbLine
 10
0.0
 20
0.0
 30
0.0
 11
2.5
 21
0.0
 31
0.0
  0
LINE
  5
CB
330
C4
100
AcDbEntity
  8
0
  6
SLD-Punktstrich
 62
     0
370
    15
100
AcDbLine
 10
0.0
 20
2.5
 30
0.0
 11
0.0
 21
4.7
 31
0.0
  0
LINE
  5
CC
330
C4
100
AcDbEntity
  8
0
  6
SLD-Punktstrich
 62
     0
370
    15
100
AcDbLine
 10
-2.5
 20
0.0
 30
0.0
 11
-4.7
 21
0.0
 31
0.0
  0
LINE
  5
CD
330
C4
100
AcDbEntity
  8
0
  6
SLD-Punktstrich
 62
     0
370
    15
100
AcDbLine
 10
0.0
 20
-2.5
 30
0.0
 11
0.0
 21
-4.7
 31
0.0
  0
LINE
  5
CE
330
C4
100
AcDbEntity
  8
0
  6
SLD-Punktstrich
 62
     0
370
    15
100
AcDbLine
 10
2.5
 20
0.0
 30
0.0
 11
4.7
 21
0.0
 31
0.0
  0
ENDBLK
  5
C6
330
C4
100
AcDbEntity
  8
0
100
AcDbBlockEnd
  0
ENDSEC
  0
SECTION
  2
ENTITIES
  0
LINE
  5
46
330
1F
100
AcDbEntity
  8
0
  6
SLD-Punktstrich
 62
     7
100
AcDbLine
 10
0.0027086782
 20
-0.0019940657
 30
0.0
 11
150.0027086782
 21
-0.0019940657
 31
0.0
  0
LINE
  5
47
330
1F
100
AcDbEntity
  8
0
  6
SLD-Punktstrich
 62
     7
100
AcDbLine
 10
149.3527086782
 20
-13.5019940657
 30
0.0
 11
149.3527086782
 21
-8.332668356
 31
0.0
  0
LINE
  5
48
330
1F
100
AcDbEntity
  8
0
  6
SLD-Punktstrich
 62
     7
100
AcDbLine
 10
149.3527086782
 20
-13.5019940657
 30
0.0
 11
149.3527086782
 21
-8.332668356
 31
0.0
  0
POINT
  5
49
330
1F
100
AcDbEntity
  8
0
  6
SLD-Durchgehend
 62
     7
100
AcDbPoint
 10
0.0027086782
 20
-0.0019940657
 30
0.0
  0
POINT
  5
4A
330
1F
100
AcDbEntity
  8
0
  6
SLD-Durchgehend
 62
     7
100
AcDbPoint
 10
150.0027086782
 20
-0.0019940657
 30
0.0
  0
POINT
  5
4B
330
1F
100
AcDbEntity
  8
0
  6
SLD-Durchgehend
 62
     7
100
AcDbPoint
 10
0.0027086782
 20
-0.0019940657
 30
0.0
  0
POINT
  5
4C
330
1F
100
AcDbEntity
  8
0
  6
SLD-Durchgehend
 62
     7
100
AcDbPoint
 10
118.0027086782
 20
-0.0019940657
 30
0.0
  0
POINT
  5
4D
330
1F
100
AcDbEntity
  8
0
  6
SLD-Durchgehend
 62
     7
100
AcDbPoint
 10
149.3527086782
 20
-13.5019940657
 30
0.0
  0
POINT
  5
4E
330
1F
100
AcDbEntity
  8
0
  6
SLD-Durchgehend
 62
     7
100
AcDbPoint
 10
149.3527086782
 20
-13.5019940657
 30
0.0
  0
POINT
  5
4F
330
1F
100
AcDbEntity
  8
0
  6
SLD-Durchgehend
 62
     7
100
AcDbPoint
 10
149.3527086782
 20
-8.332668356
 30
0.0
  0
POINT
  5
50
330
1F
100
AcDbEntity
  8
0
  6
SLD-Durchgehend
 62
     7
100
AcDbPoint
 10
149.3527086782
 20
-8.332668356
 30
0.0
  0
LINE
  5
51
330
1F
100
AcDbEntity
  8
0
  6
SLD-Durchgehend
 62
   131
420
  8454143
370
    15
100
AcDbLine
 10
115.9595711198
 20
7.9980059343
 30
0.0
 11
1.0027086782
 21
7.9980059343
 31
0.0
  0
LINE
  5
52
330
1F
100
AcDbEntity
  8
0
  6
SLD-Durchgehend
 62
   131
420
  8454143
370
    15
100
AcDbLine
 10
1.0027086782
 20
-8.0019940657
 30
0.0
 11
118.0027086782
 21
-8.0019940657
 31
0.0
  0
LINE
  5
53
330
1F
100
AcDbEntity
  8
0
  6
SLD-Durchgehend
 62
   131
420
  8454143
370
    15
100
AcDbLine
 10
118.0027086782
 20
5.9480059343
 30
0.0
 11
115.9527086782
 21
7.9980059343
 31
0.0
  0
LINE
  5
54
330
1F
100
AcDbEntity
  8
0
  6
SLD-Durchgehend
 62
   131
420
  8454143
370
    15
100
AcDbLine
 10
1.0027086782
 20
7.9980059343
 30
0.0
 11
0.0027086782
 21
6.9980059343
 31
0.0
  0
LINE
  5
55
330
1F
100
AcDbEntity
  8
0
  6
SLD-Durchgehend
 62
   131
420
  8454143
370
    15
100
AcDbLine
 10
0.0027086782
 20
-7.0019940657
 30
0.0
 11
1.0027086782
 21
-8.0019940657
 31
0.0
  0
LINE
  5
56
330
1F
100
AcDbEntity
  8
0
  6
SLD-Durchgehend
 62
   131
420
  8454143
370
    15
100
AcDbLine
 10
146.4027086782
 20
5.9480059343
 30
0.0
 11
118.0027086782
 21
5.9480059343
 31
0.0
  0
LINE
  5
57
330
1F
100
AcDbEntity
  8
0
  6
SLD-Durchgehend
 62
   131
420
  8454143
370
    15
100
AcDbLine
 10
118.0027086782
 20
-7.7519940657
 30
0.0
 11
148.7027086782
 21
-7.7519940657
 31
0.0
  0
LINE
  5
58
330
1F
100
AcDbEntity
  8
0
  6
SLD-Durchgehend
 62
   131
420
  8454143
370
    15
100
AcDbLine
 10
117.4874243471
 20
3.3799432489
 30
0.0
 11
1.0027086782
 21
3.3799432489
 31
0.0
  0
LINE
  5
59
330
1F
100
AcDbEntity
  8
0
  6
SLD-Durchgehend
 62
   131
420
  8454143
370
    15
100
AcDbLine
 10
1.0027086782
 20
-3.3839313803
 30
0.0
 11
1.0027086782
 21
-8.0019940657
 31
0.0
  0
LINE
  5
5A
330
1F
100
AcDbEntity
  8
0
  6
SLD-Durchgehend
 62
   131
420
  8454143
370
    15
100
AcDbLine
 10
1.0027086782
 20
7.9980059343
 30
0.0
 11
1.0027086782
 21
3.3799432489
 31
0.0
  0
LINE
  5
5B
330
1F
100
AcDbEntity
  8
0
  6
SLD-Durchgehend
 62
   131
420
  8454143
370
    15
100
AcDbLine
 10
1.0027086782
 20
-3.3839313803
 30
0.0
 11
118.0027086782
 21
-3.3839313803
 31
0.0
  0
LINE
  5
5C
330
1F
100
AcDbEntity
  8
0
  6
SLD-Durchgehend
 62
   131
420
  8454143
370
    15
100
AcDbLine
 10
118.0027086782
 20
-3.3839313803
 30
0.0
 11
118.0027086782
 21
-8.0019940657
 31
0.0
  0
SPLINE
  5
5D
330
1F
100
AcDbEntity
  8
0
  6
SLD-Durchgehend
 62
   131
420
  8454143
370
    15
100
AcDbSpline
210
0.0
220
0.0
230
1.0
 70
     8
 71
     3
 72
    15
 73
    11
 74
     0
 42
0.00000001
 43
0.00000001
 12
1.0
 22
0.0
 32
0.0
 13
1.0
 23
0.0
 33
0.0
 40
0.0
 40
0.0
 40
0.0
 40
0.0
 40
0.0390561231987185
 40
0.1768819879091966
 40
0.3186914671093089
 40
0.45692399248729
 40
0.5989781724189496
 40
0.7407937528257553
 40
0.8863963670323856
 40
1.0
 40
1.0
 40
1.0
 40
1.0
 10
115.9595711197927
 20
7.975907240575963
 30
0.0
 10
115.9575302554407
 20
7.982478870903122
 30
0.0
 10
115.948287347695
 20
8.012241247218816
 30
0.0
 10
115.9978312577642
 20
7.852590335152788
 30
0.0
 10
116.1072280149055
 20
7.502489401179933
 30
0.0
 10
116.2852101168996
 20
6.940061030477504
 30
0.0
 10
116.5207089491427
 20
6.20916741885384
 30
0.0
 10
116.8180076499154
 20
5.309528989883439
 30
0.0
 10
117.1419879059044
 20
4.355108166542189
 30
0.0
 10
117.3821620223226
 20
3.677098134780729
 30
0.0
 10
117.4874243470826
 20
3.37994324890789
 30
0.0
  0
LINE
  5
5E
330
1F
100
AcDbEntity
  8
0
  6
SLD-Durchgehend
 62
   131
420
  8454143
370
    15
100
AcDbLine
 10
118.0027086782
 20
5.9480059343
 30
0.0
 11
118.0027086782
 21
2.6141140415
 31
0.0
  0
SPLINE
  5
5F
330
1F
100
AcDbEntity
  8
0
  6
SLD-Durchgehend
 62
   131
420
  8454143
370
    15
100
AcDbSpline
210
0.0
220
0.0
230
1.0
 70
     8
 71
     3
 72
     8
 73
     4
 74
     0
 42
0.00000001
 43
0.00000001
 12
1.0
 22
0.0
 32
0.0
 13
1.0
 23
0.0
 33
0.0
 40
0.0
 40
0.0
 40
0.0
 40
0.0
 40
1.0
 40
1.0
 40
1.0
 40
1.0
 10
118.0027086781506
 20
2.614114041458811
 30
0.0
 10
117.8348949606818
 20
2.871931469051382
 30
0.0
 10
117.6628601396052
 20
3.127031907253572
 30
0.0
 10
117.4874243470826
 20
3.379943248907885
 30
0.0
  0
LINE
  5
60
330
1F
100
AcDbEntity
  8
0
  6
SLD-Durchgehend
 62
   131
420
  8454143
370
    15
100
AcDbLine
 10
0.0027086782
 20
6.9980059343
 30
0.0
 11
0.0027086782
 21
-7.0019940657
 31
0.0
  0
SPLINE
  5
61
330
1F
100
AcDbEntity
  8
0
  6
SLD-Durchgehend
 62
   131
420
  8454143
370
    15
100
AcDbSpline
210
0.0
220
0.0
230
1.0
 70
     8
 71
     3
 72
    18
 73
    14
 74
     0
 42
0.00000001
 43
0.00000001
 12
1.0
 22
0.0
 32
0.0
 13
1.0
 23
0.0
 33
0.0
 40
0.0
 40
0.0
 40
0.0
 40
0.0
 40
0.1249999999999999
 40
0.1249999999999999
 40
0.2499999999999999
 40
0.2499999999999999
 40
0.5
 40
0.5
 40
0.625
 40
0.625
 40
0.7500000000000001
 40
0.7500000000000001
 40
1.0
 40
1.0
 40
1.0
 40
1.0
 10
1.002708678150549
 20
3.379943248907916
 30
0.0
 10
0.8901638231817148
 20
3.11371748657365
 30
0.0
 10
0.7867498605737198
 20
2.843387968021897
 30
0.0
 10
0.6026939036250303
 20
2.292494377419307
 30
0.0
 10
0.5217532272004336
 20
2.01045222550886
 30
0.0
 10
0.3240700573847073
 20
1.157949477359487
 30
0.0
 10
0.2527159125201763
 20
0.582325211824741
 30
0.0
 10
0.2527050617994498
 20
-0.2940190523848092
 30
0.0
 10
0.2706541431897
 20
-0.5870679371018804
 30
0.0
 10
0.339533031878076
 20
-1.163145110859028
 30
0.0
 10
0.3904028022433236
 20
-1.447929400976495
 30
0.0
 10
0.5864728831814752
 20
-2.293674149837455
 30
0.0
 10
0.777114206821531
 20
-2.85028583851442
 30
0.0
 10
1.002708678150599
 20
-3.383931380326249
 30
0.0
  0
LINE
  5
62
330
1F
100
AcDbEntity
  8
0
  6
SLD-Durchgehend
 62
   131
420
  8454143
370
    15
100
AcDbLine
 10
137.524754057
 20
2.6141140415
 30
0.0
 11
118.0027086782
 21
2.6141140415
 31
0.0
  0
ELLIPSE
  5
63
330
1F
100
AcDbEntity
  8
0
  6
SLD-Durchgehend
 62
   131
420
  8454143
370
    15
100
AcDbEllipse
 10
163.363769891
 20
-3.6019940657
 30
0.0
 11
27.731574578655
 21
1.317248936646866
 31
0.0
210
0.0
220
0.0
230
1.0
 40
0.3410811907
 41
4.148316392829607
 42
4.161158112204344
  0
SPLINE
  5
64
330
1F
100
AcDbEntity
  8
0
  6
SLD-Durchgehend
 62
   131
420
  8454143
370
    15
100
AcDbSpline
210
0.0
220
0.0
230
1.0
 70
     8
 71
     3
 72
     8
 73
     4
 74
     0
 42
0.00000001
 43
0.00000001
 12
1.0
 22
0.0
 32
0.0
 13
1.0
 23
0.0
 33
0.0
 40
0.0
 40
0.0
 40
0.0
 40
0.0
 40
1.0
 40
1.0
 40
1.0
 40
1.0
 10
149.4829359399335
 20
-12.34958297939712
 30
0.0
 10
149.399645073875
 20
-12.36295925256964
 30
0.0
 10
149.3057866884039
 20
-12.36296156612817
 30
0.0
 10
149.2224814163677
 20
-12.34958297939711
 30
0.0
  0
ELLIPSE
  5
65
330
1F
100
AcDbEntity
  8
0
  6
SLD-Durchgehend
 62
   131
420
  8454143
370
    15
100
AcDbEllipse
 10
135.3416474653
 20
-3.6019940657
 30
0.0
 11
27.731574578655
 21
-1.317248936646858
 31
0.0
210
0.0
220
0.0
230
1.0
 40
0.3410811907
 41
5.263619848565067
 42
5.276461567939802
  0
LINE
  5
66
330
1F
100
AcDbEntity
  8
0
  6
SLD-Durchgehend
 62
   131
420
  8454143
370
    15
100
AcDbLine
 10
147.3196337323
 20
5.4186190075
 30
0.0
 11
146.4027086782
 21
5.9480059343
 31
0.0
  0
ELLIPSE
  5
67
330
1F
100
AcDbEntity
  8
0
  6
SLD-Durchgehend
 62
   131
420
  8454143
370
    15
100
AcDbEllipse
 10
160.1070184307
 20
-3.6019940657
 30
0.0
 11
26.22964159638656
 21
-1.900899466404648
 31
0.0
210
0.0
220
0.0
230
1.0
 40
0.3568063945
 41
2.105705401364031
 42
2.633206926681589
  0
LINE
  5
68
330
1F
100
AcDbEntity
  8
0
  6
SLD-Durchgehend
 62
   131
420
  8454143
370
    15
100
AcDbLine
 10
150.0027086782
 20
3.8695449652
 30
0.0
 11
150.0027086782
 21
-3.6904550348
 31
0.0
  0
LINE
  5
69
330
1F
100
AcDbEntity
  8
0
  6
SLD-Durchgehend
 62
   131
420
  8454143
370
    15
100
AcDbLine
 10
148.7027086782
 20
-3.2172937302
 30
0.0
 11
150.0027086782
 21
-3.6904550348
 31
0.0
  0
LINE
  5
6A
330
1F
100
AcDbEntity
  8
0
  6
SLD-Durchgehend
 62
   131
420
  8454143
370
    15
100
AcDbLine
 10
146.2277870544
 20
-5.4981938364
 30
0.0
 11
148.7027086782
 21
-3.2172937302
 31
0.0
  0
ELLIPSE
  5
6B
330
1F
100
AcDbEntity
  8
0
  6
SLD-Durchgehend
 62
   131
420
  8454143
370
    15
100
AcDbEllipse
 10
158.3894784212
 20
-0.0019940657
 30
0.0
 11
21.28583480335027
 21
-1.542614750223666
 31
0.0
210
0.0
220
0.0
230
1.0
 40
0.3568063945
 41
3.703148513455884
 42
4.130322561794643
  0
LINE
  5
6C
330
1F
100
AcDbEntity
  8
0
  6
SLD-Durchgehend
 62
   131
420
  8454143
370
    15
100
AcDbLine
 10
137.524754057
 20
2.6141140415
 30
0.0
 11
140.0794616615
 21
-2.7406068532
 31
0.0
  0
LINE
  5
6D
330
1F
100
AcDbEntity
  8
0
  6
SLD-Durchgehend
 62
   131
420
  8454143
370
    15
100
AcDbLine
 10
150.0027086782
 20
3.8695449652
 30
0.0
 11
147.3196337323
 21
5.4186190075
 31
0.0
  0
LINE
  5
6E
330
1F
100
AcDbEntity
  8
0
  6
SLD-Durchgehend
 62
   131
420
  8454143
370
    15
100
AcDbLine
 10
118.0027086782
 20
-2.7406068532
 30
0.0
 11
140.0794616615
 21
-2.7406068532
 31
0.0
  0
LINE
  5
6F
330
1F
100
AcDbEntity
  8
0
  6
SLD-Durchgehend
 62
   131
420
  8454143
370
    15
100
AcDbLine
 10
118.0027086782
 20
-3.3839313803
 30
0.0
 11
118.0027086782
 21
-2.7406068532
 31
0.0
  0
ELLIPSE
  5
70
330
1F
100
AcDbEntity
  8
0
  6
SLD-Durchgehend
 62
   131
420
  8454143
370
    15
100
AcDbEllipse
 10
153.9462723496
 20
-0.0019940657
 30
0.0
 11
7.023885349533999
 21
7.023885349534045
 31
0.0
210
0.0
220
0.0
230
1.0
 40
0.4663076582
 41
2.795473116513627
 42
3.532936378223061
  0
LINE
  5
71
330
1F
100
AcDbEntity
  8
0
  6
SLD-Durchgehend
 62
   131
420
  8454143
370
    15
100
AcDbLine
 10
148.7027086782
 20
-7.7441524927
 30
0.0
 11
148.7027086782
 21
-3.2172937302
 31
0.0
  0
LINE
  5
72
330
1F
100
AcDbEntity
  8
0
  6
SLD-Durchgehend
 62
   131
420
  8454143
370
    15
100
AcDbLine
 10
150.0027086782
 20
-8.2531514071
 30
0.0
 11
150.0027086782
 21
-3.6904550348
 31
0.0
  0
LINE
  5
73
330
1F
100
AcDbEntity
  8
0
  6
SLD-Durchgehend
 62
   131
420
  8454143
370
    15
100
AcDbLine
 10
150.0027086782
 20
-8.2531514071
 30
0.0
 11
149.4829359399
 21
-8.4406128055
 31
0.0
  0
ELLIPSE
  5
74
330
1F
100
AcDbEntity
  8
0
  6
SLD-Durchgehend
 62
   131
420
  8454143
370
    15
100
AcDbEllipse
 10
149.3527086782
 20
-8.044465634
 30
0.0
 11
0.0
 21
0.4189734413994151
 31
0.0
210
0.0
220
0.0
230
1.0
 40
0.9547144532
 41
2.80998009571096
 42
3.473205211468704
  0
LINE
  5
75
330
1F
100
AcDbEntity
  8
0
  6
SLD-Durchgehend
 62
   131
420
  8454143
370
    15
100
AcDbLine
 10
149.2224814164
 20
-8.4406128055
 30
0.0
 11
148.7027086782
 21
-8.2531514071
 31
0.0
  0
LINE
  5
76
330
1F
100
AcDbEntity
  8
0
  6
SLD-Durchgehend
 62
   131
420
  8454143
370
    15
100
AcDbLine
 10
148.7027086782
 20
-8.2531514071
 30
0.0
 11
148.7027086782
 21
-7.7441524927
 31
0.0
  0
SPLINE
  5
77
330
1F
100
AcDbEntity
  8
0
  6
SLD-Durchgehend
 62
   131
420
  8454143
370
    15
100
AcDbSpline
210
0.0
220
0.0
230
1.0
 70
     8
 71
     3
 72
     8
 73
     4
 74
     0
 42
0.00000001
 43
0.00000001
 12
1.0
 22
0.0
 32
0.0
 13
1.0
 23
0.0
 33
0.0
 40
0.0000003311208903
 40
0.0000003311208903
 40
0.0000003311208903
 40
0.0000003311208903
 40
0.0003544301842849
 40
0.0003544301842849
 40
0.0003544301842849
 40
0.0003544301842849
 10
148.7027086781506
 20
-12.03884778963839
 30
0.0
 10
148.7740011911493
 20
-12.12599033849603
 30
0.0
 10
148.8455231030285
 20
-12.21292380640028
 30
0.0
 10
148.9172614442522
 20
-12.2996570029903
 30
0.0
  0
LINE
  5
78
330
1F
100
AcDbEntity
  8
0
  6
SLD-Durchgehend
 62
   131
420
  8454143
370
    15
100
AcDbLine
 10
148.7027086782
 20
-8.2531514071
 30
0.0
 11
148.7027086782
 21
-12.0388477896
 31
0.0
  0
SPLINE
  5
79
330
1F
100
AcDbEntity
  8
0
  6
SLD-Durchgehend
 62
   131
420
  8454143
370
    15
100
AcDbSpline
210
0.0
220
0.0
230
1.0
 70
     8
 71
     3
 72
     8
 73
     4
 74
     0
 42
0.00000001
 43
0.00000001
 12
1.0
 22
0.0
 32
0.0
 13
1.0
 23
0.0
 33
0.0
 40
0.0003456136945489
 40
0.0003456136945489
 40
0.0003456136945489
 40
0.0003456136945489
 40
0.0006997127579435
 40
0.0006997127579435
 40
0.0006997127579435
 40
0.0006997127579435
 10
149.7881559120489
 20
-12.29965700299031
 30
0.0
 10
149.8598942532727
 20
-12.21292380640029
 30
0.0
 10
149.9314161651519
 20
-12.12599033849603
 30
0.0
 10
150.0027086781506
 20
-12.03884778963839
 30
0.0
  0
LINE
  5
7A
330
1F
100
AcDbEntity
  8
0
  6
SLD-Durchgehend
 62
   131
420
  8454143
370
    15
100
AcDbLine
 10
150.0027086782
 20
-12.0388477896
 30
0.0
 11
150.0027086782
 21
-8.2531514071
 31
0.0
  0
LINE
  5
7B
330
1F
100
AcDbEntity
  8
0
  6
SLD-Durchgehend
 62
   131
420
  8454143
370
    15
100
AcDbLine
 10
149.2224814164
 20
-8.4406128055
 30
0.0
 11
149.2224814164
 21
-12.3495829794
 31
0.0
  0
LINE
  5
7C
330
1F
100
AcDbEntity
  8
0
  6
SLD-Durchgehend
 62
   131
420
  8454143
370
    15
100
AcDbLine
 10
149.4829359399
 20
-8.4406128055
 30
0.0
 11
149.4829359399
 21
-12.3495829794
 31
0.0
  0
DIMENSION
  5
7D
330
1F
100
AcDbEntity
  8
0
 62
     7
420
 16777215
100
AcDbDimension
  2
_D
 10
150.0027086782
 20
25.9980059343
 30
0.0
 11
75.0027086782
 21
25.9980059343
 31
0.0
 70
   160
  1
<>
 71
     2
 42
-1.0
 73
     0
 74
     0
 75
     0
  3
SLDDIMSTYLE0
100
AcDbAlignedDimension
 13
0.0027086782
 23
-0.0019940657
 33
0.0
 14
150.0027086782
 24
-0.0019940657
 34
0.0
 50
0.0
100
AcDbRotatedDimension
  0
DIMENSION
  5
89
330
1F
100
AcDbEntity
  8
0
  6
SLD-Durchgehend
 62
   208
420
  4194368
370
    15
100
AcDbDimension
  2
_D_1
 10
-5.9972913218
 20
7.9980059343
 30
0.0
 11
-5.9972913218
 21
-0.0019940657
 31
0.0
 70
   160
  1
%%c<>
 71
     2
 42
-1.0
 73
     0
 74
     0
 75
     0
  3
SLDDIMSTYLE1
100
AcDbAlignedDimension
 13
1.0027086782
 23
-8.0019940657
 33
0.0
 14
1.0027086782
 24
7.9980059343
 34
0.0
 50
90.0
100
AcDbRotatedDimension
  0
DIMENSION
  5
97
330
1F
100
AcDbEntity
  8
0
  6
SLD-Durchgehend
 62
   208
420
  4194368
370
    15
100
AcDbDimension
  2
_D_2
 10
118.0027086782
 20
19.9980059343
 30
0.0
 11
134.0027086782
 21
19.9980059343
 31
0.0
 70
   160
  1
<>
 71
     2
 42
-1.0
 73
     0
 74
     0
 75
     0
  3
SLDDIMSTYLE0
100
AcDbAlignedDimension
 13
150.0027086782
 23
3.8695449652
 33
0.0
 14
118.0027086782
 24
-0.0019940657
 34
0.0
100
AcDbRotatedDimension
  0
DIMENSION
  5
A1
330
1F
100
AcDbEntity
  8
0
  6
SLD-Durchgehend
 62
   208
420
  4194368
370
    15
100
AcDbDimension
  2
_D_3
 10
148.7027086782
 20
13.9980059343
 30
0.0
 11
160.8214589218
 21
13.9980059343
 31
0.0
 70
   160
  1
<>
 71
     2
 42
-1.0
 73
     0
 74
     0
 75
     0
  3
SLDDIMSTYLE1
100
AcDbAlignedDimension
 13
150.0027086782
 23
10.9543911402
 33
0.0
 14
148.7027086782
 24
1.0293797061
 34
0.0
100
AcDbRotatedDimension
  0
DIMENSION
  5
AD
330
1F
100
AcDbEntity
  8
0
  6
SLD-Durchgehend
 62
   208
420
  4194368
370
    15
100
AcDbDimension
  2
_D_4
 10
123.4868023323
 20
-0.0019940657
 30
0.0
 11
123.4868023323
 21
-6.7519940657
 31
0.0
 70
   160
  1
<>
 71
     2
 42
-1.0
 73
     0
 74
     0
 75
     0
  3
SLDDIMSTYLE1
100
AcDbAlignedDimension
 13
149.3527086782
 23
-13.5019940657
 33
0.0
 14
150.0027086782
 24
-0.0019940657
 34
0.0
 50
90.0
100
AcDbRotatedDimension
  0
INSERT
  5
C3
330
1F
100
AcDbEntity
  8
0
  6
SLD-Punktstrich
 62
     2
420
 16776960
370
    15
100
AcDbBlockReference
  2
SW_CENTERMARKSYMBOL_0
 10
139.8836073308
 20
6.6862783167
 30
0.0
  0
INSERT
  5
CF
330
1F
100
AcDbEntity
  8
0
  6
SLD-Punktstrich
 62
     2
420
 16776960
370
    15
100
AcDbBlockReference
  2
SW_CENTERMARKSYMBOL_1
 10
139.8836073308
 20
-11.6637216833
 30
0.0
  0
ENDSEC
  0
SECTION
  2
OBJECTS
  0
DICTIONARY
  5
C
330
0
100
AcDbDictionary
281
     1
  3
ACAD_GROUP
350
D
  3
ACAD_LAYOUT
350
1A
  3
ACAD_MATERIAL
350
3B
  3
ACAD_MLEADERSTYLE
350
D1
  3
ACAD_MLINESTYLE
350
17
  3
ACAD_PLOTSETTINGS
350
19
  3
ACAD_PLOTSTYLENAME
350
E
  3
ACAD_TABLESTYLE
350
D0
  3
ACAD_VISUALSTYLE
350
2A
  0
DICTIONARY
  5
D
102
{ACAD_REACTORS
330
C
102
}
330
C
100
AcDbDictionary
281
     1
  0
DICTIONARY
  5
1A
102
{ACAD_REACTORS
330
C
102
}
330
C
100
AcDbDictionary
281
     1
  3
Layout1
350
1E
  3
Layout2
350
26
  3
Model
350
22
  0
DICTIONARY
  5
3B
102
{ACAD_REACTORS
330
C
102
}
330
C
100
AcDbDictionary
281
     1
  3
ByBlock
350
3D
  3
ByLayer
350
3C
  3
Global
350
3E
  0
DICTIONARY
  5
D1
102
{ACAD_REACTORS
330
C
102
}
330
C
100
AcDbDictionary
281
     1
  0
DICTIONARY
  5
17
102
{ACAD_REACTORS
330
C
102
}
330
C
100
AcDbDictionary
281
     1
  3
Standard
350
18
  0
DICTIONARY
  5
19
102
{ACAD_REACTORS
330
C
102
}
330
C
100
AcDbDictionary
281
     1
  0
ACDBDICTIONARYWDFLT
  5
E
102
{ACAD_REACTORS
330
C
102
}
330
C
100
AcDbDictionary
281
     1
  3
Normal
350
F
100
AcDbDictionaryWithDefault
340
F
  0
DICTIONARY
  5
D0
102
{ACAD_REACTORS
330
C
102
}
330
C
100
AcDbDictionary
281
     1
  0
DICTIONARY
  5
2A
102
{ACAD_REACTORS
330
C
102
}
330
C
100
AcDbDictionary
281
     1
  3
2dWireframe
350
2F
  3
3D Hidden
350
31
  3
3dWireframe
350
30
  3
Basic
350
32
  3
Brighten
350
36
  3
ColorChange
350
3A
  3
Conceptual
350
34
  3
Dim
350
35
  3
Facepattern
350
39
  3
Flat
350
2B
  3
FlatWithEdges
350
2C
  3
Gouraud
350
2D
  3
GouraudWithEdges
350
2E
  3
Linepattern
350
38
  3
Realistic
350
33
  3
Thicken
350
37
  0
LAYOUT
  5
1E
102
{ACAD_REACTORS
330
1A
102
}
330
1A
100
AcDbPlotSettings
  1

  2
none_device
  4

  6

 40
0.0
 41
0.0
 42
0.0
 43
0.0
 44
0.0
 45
0.0
 46
0.0
 47
0.0
 48
0.0
 49
0.0
140
0.0
141
0.0
142
1.0
143
1.0
 70
   688
 72
     0
 73
     0
 74
     5
  7

 75
    16
 76
     0
 77
     2
 78
   300
147
1.0
148
0.0
149
0.0
100
AcDbLayout
  1
Layout1
 70
     1
 71
     1
 10
0.0
 20
0.0
 11
420.0
 21
297.0
 12
0.0
 22
0.0
 32
0.0
 14
1.0000000000E+20
 24
1.0000000000E+20
 34
1.0000000000E+20
 15
-1.0000000000E+20
 25
-1.0000000000E+20
 35
-1.0000000000E+20
146
0.0
 13
0.0
 23
0.0
 33
0.0
 16
1.0
 26
0.0
 36
0.0
 17
0.0
 27
1.0
 37
0.0
 76
     0
330
1B
  0
LAYOUT
  5
26
102
{ACAD_REACTORS
330
1A
102
}
330
1A
100
AcDbPlotSettings
  1

  2
none_device
  4

  6

 40
0.0
 41
0.0
 42
0.0
 43
0.0
 44
0.0
 45
0.0
 46
0.0
 47
0.0
 48
0.0
 49
0.0
140
0.0
141
0.0
142
1.0
143
1.0
 70
   688
 72
     0
 73
     0
 74
     5
  7

 75
    16
 76
     0
 77
     2
 78
   300
147
1.0
148
0.0
149
0.0
100
AcDbLayout
  1
Layout2
 70
     1
 71
     2
 10
0.0
 20
0.0
 11
0.0
 21
0.0
 12
0.0
 22
0.0
 32
0.0
 14
0.0
 24
0.0
 34
0.0
 15
0.0
 25
0.0
 35
0.0
146
0.0
 13
0.0
 23
0.0
 33
0.0
 16
1.0
 26
0.0
 36
0.0
 17
0.0
 27
1.0
 37
0.0
 76
     0
330
23
  0
LAYOUT
  5
22
102
{ACAD_REACTORS
330
1A
102
}
330
1A
100
AcDbPlotSettings
  1

  2
none_device
  4

  6

 40
0.0
 41
0.0
 42
0.0
 43
0.0
 44
0.0
 45
0.0
 46
0.0
 47
0.0
 48
0.0
 49
0.0
140
0.0
141
0.0
142
1.0
143
1.0
 70
  1712
 72
     0
 73
     0
 74
     0
  7

 75
     0
 76
     0
 77
     2
 78
   300
147
1.0
148
0.0
149
0.0
100
AcDbLayout
  1
Model
 70
     1
 71
     0
 10
0.0
 20
0.0
 11
297.0
 21
210.0
 12
0.0
 22
0.0
 32
0.0
 14
0.0
 24
0.0
 34
0.0
 15
297.0
 25
210.0
 35
0.0
146
0.0
 13
0.0
 23
0.0
 33
0.0
 16
1.0
 26
0.0
 36
0.0
 17
0.0
 27
1.0
 37
0.0
 76
     0
330
1F
331
29
  0
MATERIAL
  5
3D
102
{ACAD_REACTORS
330
3B
102
}
330
3B
100
AcDbMaterial
  1
ByBlock
 72
     1
 94
      127
  0
MATERIAL
  5
3C
102
{ACAD_REACTORS
330
3B
102
}
330
3B
100
AcDbMaterial
  1
ByLayer
 72
     1
 94
      127
  0
MATERIAL
  5
3E
102
{ACAD_REACTORS
330
3B
102
}
330
3B
100
AcDbMaterial
  1
Global
 72
     1
 94
      127
  0
MLINESTYLE
  5
18
102
{ACAD_REACTORS
330
17
102
}
330
17
100
AcDbMlineStyle
  2
Standard
 70
     0
  3

 62
   256
 51
90.0
 52
90.0
 71
     2
 49
0.5
 62
   256
  6
BYLAYER
 49
-0.5
 62
   256
  6
BYLAYER
  0
ACDBPLACEHOLDER
  5
F
102
{ACAD_REACTORS
330
E
102
}
330
E
  0
VISUALSTYLE
  5
2F
102
{ACAD_REACTORS
330
2A
102
}
330
2A
100
AcDbVisualStyle
  2
2dWireframe
 70
     4
 71
     0
 72
     2
 73
     0
 90
        0
 40
-0.6
 41
-30.0
 62
     5
 63
     7
421
 16777215
 74
     1
 91
        4
 64
     7
 65
   257
 75
     1
175
     1
 42
1.0
 92
        0
 66
   257
 43
1.0
 76
     1
 77
     6
 78
     2
 67
     7
 79
     5
170
     0
171
     0
290
     0
174
     0
 93
        1
 44
0.0
173
     0
291
     0
 45
0.0
  0
VISUALSTYLE
  5
31
102
{ACAD_REACTORS
330
2A
102
}
330
2A
100
AcDbVisualStyle
  2
3D Hidden
 70
     6
 71
     1
 72
     2
 73
     2
 90
        0
 40
-0.6
 41
-30.0
 62
     5
 63
     7
421
 16777215
 74
     2
 91
        2
 64
     7
 65
   257
 75
     2
175
     1
 42
40.0
 92
        0
 66
   257
 43
1.0
 76
     1
 77
     6
 78
     2
 67
     7
 79
     3
170
     0
171
     0
290
     0
174
     0
 93
        1
 44
0.0
173
     0
291
     0
 45
0.0
  0
VISUALSTYLE
  5
30
102
{ACAD_REACTORS
330
2A
102
}
330
2A
100
AcDbVisualStyle
  2
3dWireframe
 70
     5
 71
     0
 72
     2
 73
     0
 90
        0
 40
-0.6
 41
-30.0
 62
     5
 63
     7
421
 16777215
 74
     1
 91
        4
 64
     7
 65
   257
 75
     1
175
     1
 42
1.0
 92
        0
 66
   257
 43
1.0
 76
     1
 77
     6
 78
     2
 67
     7
 79
     5
170
     0
171
     0
290
     0
174
     0
 93
        1
 44
0.0
173
     0
291
     0
 45
0.0
  0
VISUALSTYLE
  5
32
102
{ACAD_REACTORS
330
2A
102
}
330
2A
100
AcDbVisualStyle
  2
Basic
 70
     7
 71
     1
 72
     0
 73
     1
 90
        0
 40
-0.6
 41
-30.0
 62
     5
 63
     7
421
 16777215
 74
     0
 91
        4
 64
     7
 65
   257
 75
     1
175
     1
 42
1.0
 92
        8
 66
     7
 43
1.0
 76
     1
 77
     6
 78
     2
 67
     7
 79
     5
170
     0
171
     0
290
     0
174
     0
 93
        1
 44
0.0
173
     0
291
     1
 45
0.0
  0
VISUALSTYLE
  5
36
102
{ACAD_REACTORS
330
2A
102
}
330
2A
100
AcDbVisualStyle
  2
Brighten
 70
    12
 71
     2
 72
     2
 73
     0
 90
        0
 40
-0.6
 41
-30.0
 62
     5
 63
     7
421
 16777215
 74
     1
 91
        4
 64
     7
 65
   257
 75
     1
175
     1
 42
1.0
 92
        8
 66
     7
 43
1.0
 76
     1
 77
     6
 78
     2
 67
     7
 79
     5
170
     0
171
     0
290
     0
174
     0
 93
        1
 44
50.0
173
     0
291
     1
 45
0.0
  0
VISUALSTYLE
  5
3A
102
{ACAD_REACTORS
330
2A
102
}
330
2A
100
AcDbVisualStyle
  2
ColorChange
 70
    16
 71
     2
 72
     2
 73
     3
 90
        0
 40
-0.6
 41
-30.0
 62
     5
 63
     8
421
  8421504
 74
     1
 91
        4
 64
     7
 65
   257
 75
     1
175
     1
 42
1.0
 92
        8
 66
     8
424
  8421504
 43
1.0
 76
     1
 77
     6
 78
     2
 67
     7
 79
     5
170
     0
171
     0
290
     0
174
     0
 93
        1
 44
0.0
173
     0
291
     1
 45
0.0
  0
VISUALSTYLE
  5
34
102
{ACAD_REACTORS
330
2A
102
}
330
2A
100
AcDbVisualStyle
  2
Conceptual
 70
     9
 71
     3
 72
     2
 73
     0
 90
        0
 40
-0.6
 41
-30.0
 62
     5
 63
     7
421
 16777215
 74
     2
 91
        2
 64
     7
 65
   257
 75
     1
175
     1
 42
40.0
 92
        8
 66
     7
 43
1.0
 76
     1
 77
     6
 78
     2
 67
     7
 79
     3
170
     0
171
     0
290
     0
174
     0
 93
        1
 44
0.0
173
     0
291
     0
 45
0.0
  0
VISUALSTYLE
  5
35
102
{ACAD_REACTORS
330
2A
102
}
330
2A
100
AcDbVisualStyle
  2
Dim
 70
    11
 71
     2
 72
     2
 73
     0
 90
        0
 40
-0.6
 41
-30.0
 62
     5
 63
     7
421
 16777215
 74
     1
 91
        4
 64
     7
 65
   257
 75
     1
175
     1
 42
1.0
 92
        8
 66
     7
 43
1.0
 76
     1
 77
     6
 78
     2
 67
     7
 79
     5
170
     0
171
     0
290
     0
174
     0
 93
        1
 44
-50.0
173
     0
291
     1
 45
0.0
  0
VISUALSTYLE
  5
39
102
{ACAD_REACTORS
330
2A
102
}
330
2A
100
AcDbVisualStyle
  2
Facepattern
 70
    15
 71
     2
 72
     2
 73
     0
 90
        0
 40
-0.6
 41
-30.0
 62
     5
 63
     7
421
 16777215
 74
     1
 91
        4
 64
     7
 65
   257
 75
     1
175
     1
 42
1.0
 92
        8
 66
     7
 43
1.0
 76
     1
 77
     6
 78
     2
 67
     7
 79
     5
170
     0
171
     0
290
     0
174
     0
 93
        1
 44
0.0
173
     0
291
     1
 45
0.0
  0
VISUALSTYLE
  5
2B
102
{ACAD_REACTORS
330
2A
102
}
330
2A
100
AcDbVisualStyle
  2
Flat
 70
     0
 71
     2
 72
     1
 73
     1
 90
        2
 40
-0.6
 41
30.0
 62
     5
 63
     7
421
 16777215
 74
     0
 91
        4
 64
     7
 65
   257
 75
     1
175
     1
 42
1.0
 92
        8
 66
     7
 43
1.0
 76
     1
 77
     6
 78
     2
 67
     7
 79
     5
170
     0
171
     0
290
     0
174
     0
 93
       13
 44
0.0
173
     0
291
     1
 45
0.0
  0
VISUALSTYLE
  5
2C
102
{ACAD_REACTORS
330
2A
102
}
330
2A
100
AcDbVisualStyle
  2
FlatWithEdges
 70
     1
 71
     2
 72
     1
 73
     1
 90
        2
 40
-0.6
 41
30.0
 62
     5
 63
     7
421
 16777215
 74
     1
 91
        4
 64
     7
 65
   257
 75
     1
175
     1
 42
1.0
 92
        0
 66
   257
 43
1.0
 76
     1
 77
     6
 78
     2
 67
     7
 79
     5
170
     0
171
     0
290
     0
174
     0
 93
       13
 44
0.0
173
     0
291
     1
 45
0.0
  0
VISUALSTYLE
  5
2D
102
{ACAD_REACTORS
330
2A
102
}
330
2A
100
AcDbVisualStyle
  2
Gouraud
 70
     2
 71
     2
 72
     2
 73
     1
 90
        2
 40
-0.6
 41
30.0
 62
     5
 63
     7
421
 16777215
 74
     0
 91
        4
 64
     7
 65
   257
 75
     1
175
     1
 42
1.0
 92
        0
 66
     7
 43
1.0
 76
     1
 77
     6
 78
     2
 67
     7
 79
     5
170
     0
171
     0
290
     0
174
     0
 93
       13
 44
0.0
173
     0
291
     1
 45
0.0
  0
VISUALSTYLE
  5
2E
102
{ACAD_REACTORS
330
2A
102
}
330
2A
100
AcDbVisualStyle
  2
GouraudWithEdges
 70
     3
 71
     2
 72
     2
 73
     1
 90
        2
 40
-0.6
 41
30.0
 62
     5
 63
     7
421
 16777215
 74
     1
 91
        4
 64
     7
 65
   257
 75
     1
175
     1
 42
1.0
 92
        0
 66
   257
 43
1.0
 76
     1
 77
     6
 78
     2
 67
     7
 79
     5
170
     0
171
     0
290
     0
174
     0
 93
       13
 44
0.0
173
     0
291
     1
 45
0.0
  0
VISUALSTYLE
  5
38
102
{ACAD_REACTORS
330
2A
102
}
330
2A
100
AcDbVisualStyle
  2
Linepattern
 70
    14
 71
     2
 72
     2
 73
     0
 90
        0
 40
-0.6
 41
-30.0
 62
     5
 63
     7
421
 16777215
 74
     1
 91
        4
 64
     7
 65
   257
 75
     7
175
     7
 42
1.0
 92
        8
 66
     7
 43
1.0
 76
     1
 77
     6
 78
     2
 67
     7
 79
     5
170
     0
171
     0
290
     0
174
     0
 93
        1
 44
0.0
173
     0
291
     1
 45
0.0
  0
VISUALSTYLE
  5
33
102
{ACAD_REACTORS
330
2A
102
}
330
2A
100
AcDbVisualStyle
  2
Realistic
 70
     8
 71
     2
 72
     2
 73
     0
 90
        0
 40
-0.6
 41
-30.0
 62
     5
 63
     7
421
 16777215
 74
     1
 91
        0
 64
     7
 65
   257
 75
     1
175
     1
 42
1.0
 92
        8
 66
     8
424
  7895160
 43
1.0
 76
     1
 77
     6
 78
     2
 67
     7
 79
     5
170
     0
171
     0
290
     0
174
     0
 93
       13
 44
0.0
173
     0
291
     0
 45
0.0
  0
VISUALSTYLE
  5
37
102
{ACAD_REACTORS
330
2A
102
}
330
2A
100
AcDbVisualStyle
  2
Thicken
 70
    13
 71
     2
 72
     2
 73
     0
 90
        0
 40
-0.6
 41
-30.0
 62
     5
 63
     7
421
 16777215
 74
     1
 91
        4
 64
     7
 65
   257
 75
     1
175
     1
 42
1.0
 92
       12
 66
     7
 43
1.0
 76
     1
 77
     6
 78
     2
 67
     7
 79
     5
170
     0
171
     0
290
     0
174
     0
 93
        1
 44
0.0
173
     0
291
     1
 45
0.0
  0
ENDSEC
  0
EOF
