  0
SECTION
  2
HEADER
  9
$ACADVER
  1
AC1021
  9
$ACADMAINTVER
 70
    25
  9
$DWGCODEPAGE
  3
ANSI_1252
  9
$INSBASE
 10
0.0
 20
0.0
 30
0.0
  9
$EXTMIN
 10
0.0
 20
0.0
 30
0.0
  9
$EXTMAX
 10
297.0
 20
210.0
 30
0.0
  9
$LIMMIN
 10
0.0
 20
0.0
  9
$LIMMAX
 10
297.0
 20
210.0
  9
$ORTHOMODE
 70
     0
  9
$REGENMODE
 70
     1
  9
$FILLMODE
 70
     1
  9
$QTEXTMODE
 70
     0
  9
$MIRRTEXT
 70
     1
  9
$LTSCALE
 40
1.0
  9
$ATTMODE
 70
     1
  9
$TEXTSIZE
 40
3.5
  9
$TRACEWID
 40
1.0
  9
$TEXTSTYLE
  7
Standard
  9
$CLAYER
  8
0
  9
$CELTYPE
  6
ByLayer
  9
$CECOLOR
 62
   256
  9
$CELTSCALE
 40
1.0
  9
$DISPSILH
 70
     0
  9
$DIMSCALE
 40
1.0
  9
$DIMASZ
 40
3.302
  9
$DIMEXO
 40
1.0
  9
$DIMDLI
 40
3.75
  9
$DIMRND
 40
0.0
  9
$DIMDLE
 40
0.0
  9
$DIMEXE
 40
1.0
  9
$DIMTP
 40
0.0
  9
$DIMTM
 40
0.0
  9
$DIMTXT
 40
3.5
  9
$DIMCEN
 40
2.5
  9
$DIMTSZ
 40
0.0
  9
$DIMTOL
 70
     0
  9
$DIMLIM
 70
     0
  9
$DIMTIH
 70
     1
  9
$DIMTOH
 70
     1
  9
$DIMSE1
 70
     0
  9
$DIMSE2
 70
     0
  9
$DIMTAD
 70
     1
  9
$DIMZIN
 70
     0
  9
$DIMBLK
  1

  9
$DIMASO
 70
     1
  9
$DIMSHO
 70
     1
  9
$DIMPOST
  1

  9
$DIMAPOST
  1

  9
$DIMALT
 70
     0
  9
$DIMALTD
 70
     3
  9
$DIMALTF
 40
0.0393700787
  9
$DIMLFAC
 40
1.0
  9
$DIMTOFL
 70
     1
  9
$DIMTVP
 40
0.0
  9
$DIMTIX
 70
     0
  9
$DIMSOXD
 70
     0
  9
$DIMSAH
 70
     0
  9
$DIMBLK1
  1

  9
$DIMBLK2
  1

  9
$DIMSTYLE
  2
ISO-25
  9
$DIMCLRD
 70
     0
  9
$DIMCLRE
 70
     0
  9
$DIMCLRT
 70
     0
  9
$DIMTFAC
 40
1.0
  9
$DIMGAP
 40
1.524
  9
$DIMJUST
 70
     0
  9
$DIMSD1
 70
     0
  9
$DIMSD2
 70
     0
  9
$DIMTOLJ
 70
     0
  9
$DIMTZIN
 70
     0
  9
$DIMALTZ
 70
     0
  9
$DIMALTTZ
 70
     0
  9
$DIMUPT
 70
     0
  9
$DIMDEC
 70
     2
  9
$DIMTDEC
 70
     2
  9
$DIMALTU
 70
     2
  9
$DIMALTTD
 70
     3
  9
$DIMTXSTY
  7
Standard
  9
$DIMAUNIT
 70
     0
  9
$DIMADEC
 70
     2
  9
$DIMALTRND
 40
0.0
  9
$DIMAZIN
 70
     0
  9
$DIMDSEP
 70
    44
  9
$DIMATFIT
 70
     3
  9
$DIMFRAC
 70
     0
  9
$DIMLDRBLK
  1

  9
$DIMLUNIT
 70
     2
  9
$DIMLWD
 70
    -2
  9
$DIMLWE
 70
    -2
  9
$DIMTMOVE
 70
     0
  9
$DIMFXL
 40
1.0
  9
$DIMFXLON
 70
     0
  9
$DIMJOGANG
 40
0.7853981634
  9
$DIMTFILL
 70
     0
  9
$DIMTFILLCLR
 70
     0
  9
$DIMARCSYM
 70
     0
  9
$DIMLTYPE
  6

  9
$DIMLTEX1
  6

  9
$DIMLTEX2
  6

  9
$LUNITS
 70
     2
  9
$LUPREC
 70
     2
  9
$SKETCHINC
 40
1.0
  9
$FILLETRAD
 40
10.0
  9
$AUNITS
 70
     0
  9
$AUPREC
 70
     2
  9
$MENU
  1
.
  9
$ELEVATION
 40
0.0
  9
$PELEVATION
 40
0.0
  9
$THICKNESS
 40
0.0
  9
$LIMCHECK
 70
     0
  9
$CHAMFERA
 40
10.0
  9
$CHAMFERB
 40
10.0
  9
$CHAMFERC
 40
20.0
  9
$CHAMFERD
 40
0.0
  9
$SKPOLY
 70
     0
  9
$TDCREATE
 40
2456517.562299086
  9
$TDUCREATE
 40
2456517.478965752
  9
$TDUPDATE
 40
2456517.562299468
  9
$TDUUPDATE
 40
2456517.478966134
  9
$TDINDWG
 40
0.0000000116
  9
$TDUSRTIMER
 40
0.0000000116
  9
$USRTIMER
 70
     1
  9
$ANGBASE
 50
0.0
  9
$ANGDIR
 70
     0
  9
$PDMODE
 70
     0
  9
$PDSIZE
 40
-1.0
  9
$PLINEWID
 40
0.0
  9
$SPLFRAME
 70
     0
  9
$SPLINETYPE
 70
     6
  9
$SPLINESEGS
 70
     8
  9
$HANDSEED
  5
E6
  9
$SURFTAB1
 70
     6
  9
$SURFTAB2
 70
     6
  9
$SURFTYPE
 70
     6
  9
$SURFU
 70
     6
  9
$SURFV
 70
     6
  9
$UCSBASE
  2

  9
$UCSNAME
  2

  9
$UCSORG
 10
0.0
 20
0.0
 30
0.0
  9
$UCSXDIR
 10
1.0
 20
0.0
 30
0.0
  9
$UCSYDIR
 10
0.0
 20
1.0
 30
0.0
  9
$UCSORTHOREF
  2

  9
$UCSORTHOVIEW
 70
     0
  9
$UCSORGTOP
 10
0.0
 20
0.0
 30
0.0
  9
$UCSORGBOTTOM
 10
0.0
 20
0.0
 30
0.0
  9
$UCSORGLEFT
 10
0.0
 20
0.0
 30
0.0
  9
$UCSORGRIGHT
 10
0.0
 20
0.0
 30
0.0
  9
$UCSORGFRONT
 10
0.0
 20
0.0
 30
0.0
  9
$UCSORGBACK
 10
0.0
 20
0.0
 30
0.0
  9
$PUCSBASE
  2

  9
$PUCSNAME
  2

  9
$PUCSORG
 10
0.0
 20
0.0
 30
0.0
  9
$PUCSXDIR
 10
1.0
 20
0.0
 30
0.0
  9
$PUCSYDIR
 10
0.0
 20
1.0
 30
0.0
  9
$PUCSORTHOREF
  2

  9
$PUCSORTHOVIEW
 70
     0
  9
$PUCSORGTOP
 10
0.0
 20
0.0
 30
0.0
  9
$PUCSORGBOTTOM
 10
0.0
 20
0.0
 30
0.0
  9
$PUCSORGLEFT
 10
0.0
 20
0.0
 30
0.0
  9
$PUCSORGRIGHT
 10
0.0
 20
0.0
 30
0.0
  9
$PUCSORGFRONT
 10
0.0
 20
0.0
 30
0.0
  9
$PUCSORGBACK
 10
0.0
 20
0.0
 30
0.0
  9
$USERI1
 70
     0
  9
$USERI2
 70
     0
  9
$USERI3
 70
     0
  9
$USERI4
 70
     0
  9
$USERI5
 70
     0
  9
$USERR1
 40
0.0
  9
$USERR2
 40
0.0
  9
$USERR3
 40
0.0
  9
$USERR4
 40
0.0
  9
$USERR5
 40
0.0
  9
$WORLDVIEW
 70
     1
  9
$SHADEDGE
 70
     3
  9
$SHADEDIF
 70
    70
  9
$TILEMODE
 70
     1
  9
$MAXACTVP
 70
    64
  9
$PINSBASE
 10
0.0
 20
0.0
 30
0.0
  9
$PLIMCHECK
 70
     0
  9
$PEXTMIN
 10
1.0000000000E+20
 20
1.0000000000E+20
 30
1.0000000000E+20
  9
$PEXTMAX
 10
-1.0000000000E+20
 20
-1.0000000000E+20
 30
-1.0000000000E+20
  9
$PLIMMIN
 10
0.0
 20
0.0
  9
$PLIMMAX
 10
420.0
 20
297.0
  9
$UNITMODE
 70
     0
  9
$VISRETAIN
 70
     1
  9
$PLINEGEN
 70
     0
  9
$PSLTSCALE
 70
     1
  9
$TREEDEPTH
 70
  3020
  9
$CMLSTYLE
  2
Standard
  9
$CMLJUST
 70
     0
  9
$CMLSCALE
 40
20.0
  9
$PROXYGRAPHICS
 70
     1
  9
$MEASUREMENT
 70
     1
  9
$CELWEIGHT
370
    -1
  9
$ENDCAPS
280
     0
  9
$JOINSTYLE
280
     0
  9
$LWDISPLAY
290
     1
  9
$INSUNITS
 70
     4
  9
$HYPERLINKBASE
  1

  9
$STYLESHEET
  1

  9
$XEDIT
290
     1
  9
$CEPSNTYPE
380
     0
  9
$PSTYLEMODE
290
     1
  9
$FINGERPRINTGUID
  2
{50F44A5B-74E3-49F5-9126-EA476542A947}
  9
$VERSIONGUID
  2
{FAEB1C32-E019-11D5-929B-00C0DF256EC4}
  9
$EXTNAMES
290
     1
  9
$PSVPSCALE
 40
0.0
  9
$OLESTARTUP
290
     0
  9
$SORTENTS
280
   127
  9
$INDEXCTL
280
     0
  9
$HIDETEXT
280
     1
  9
$XCLIPFRAME
290
     0
  9
$HALOGAP
280
     0
  9
$OBSCOLOR
 70
   257
  9
$OBSLTYPE
280
     0
  9
$INTERSECTIONDISPLAY
280
     0
  9
$INTERSECTIONCOLOR
 70
   257
  9
$DIMASSOC
280
     2
  9
$PROJECTNAME
  1

  9
$CAMERADISPLAY
290
     0
  9
$LENSLENGTH
 40
50.0
  9
$CAMERAHEIGHT
 40
0.0
  9
$STEPSPERSEC
 40
2.0
  9
$STEPSIZE
 40
6.0
  9
$3DDWFPREC
 40
2.0
  9
$PSOLWIDTH
 40
5.0
  9
$PSOLHEIGHT
 40
80.0
  9
$LOFTANG1
 40
1.5707963268
  9
$LOFTANG2
 40
1.5707963268
  9
$LOFTMAG1
 40
0.0
  9
$LOFTMAG2
 40
0.0
  9
$LOFTPARAM
 70
     7
  9
$LOFTNORMALS
280
     1
  9
$LATITUDE
 40
37.795
  9
$LONGITUDE
 40
-122.394
  9
$NORTHDIRECTION
 40
0.0
  9
$TIMEZONE
 70
 -8000
  9
$LIGHTGLYPHDISPLAY
280
     1
  9
$TILEMODELIGHTSYNCH
280
     1
  9
$SOLIDHIST
280
     1
  9
$SHOWHIST
280
     1
  9
$DWFFRAME
280
     2
  9
$DGNFRAME
280
     2
  9
$REALWORLDSCALE
290
     1
  9
$INTERFERECOLOR
 62
   256
  9
$CSHADOW
280
     0
  9
$SHADOWPLANELOCATION
 40
0.0
  0
ENDSEC
  0
SECTION
  2
CLASSES
  0
CLASS
  1
ACDBDICTIONARYWDFLT
  2
AcDbDictionaryWithDefault
  3
ObjectDBX Classes
 90
        0
 91
        4
280
     0
281
     0
  0
CLASS
  1
VISUALSTYLE
  2
AcDbVisualStyle
  3
ObjectDBX Classes
 90
     4095
 91
        4
280
     0
281
     0
  0
CLASS
  1
MATERIAL
  2
AcDbMaterial
  3
ObjectDBX Classes
 90
     1153
 91
        4
280
     0
281
     0
  0
ENDSEC
  0
SECTION
  2
TABLES
  0
TABLE
  2
VPORT
  5
8
330
0
100
AcDbSymbolTable
 70
     1
  0
VPORT
  5
29
330
8
100
AcDbSymbolTableRecord
100
AcDbViewportTableRecord
  2
*Active
 70
     0
 10
0.0
 20
0.0
 11
1.0
 21
1.0
 12
148.5
 22
105.0
 13
0.0
 23
0.0
 14
10.0
 24
10.0
 15
10.0
 25
10.0
 16
0.0
 26
0.0
 36
1.0
 17
0.0
 27
0.0
 37
0.0
 40
210.0
 41
1.4142857143
 42
50.0
 43
0.0
 44
0.0
 50
0.0
 51
0.0
 71
     0
 72
  2000
 73
     1
 74
     3
 75
     0
 76
     0
 77
     0
 78
     0
281
     0
 65
     1
110
0.0
120
0.0
130
0.0
111
1.0
121
0.0
131
0.0
112
0.0
122
1.0
132
0.0
 79
     0
146
0.0
 60
     3
 61
     5
292
     1
282
     1
141
0.0
142
0.0
 63
   250
  0
ENDTAB
  0
TABLE
  2
LTYPE
  5
5
330
0
100
AcDbSymbolTable
 70
     8
  0
LTYPE
  5
14
330
5
100
AcDbSymbolTableRecord
100
AcDbLinetypeTableRecord
  2
ByBlock
 70
     0
  3

 72
    65
 73
     0
 40
0.0
  0
LTYPE
  5
15
330
5
100
AcDbSymbolTableRecord
100
AcDbLinetypeTableRecord
  2
ByLayer
 70
     0
  3

 72
    65
 73
     0
 40
0.0
  0
LTYPE
  5
16
330
5
100
AcDbSymbolTableRecord
100
AcDbLinetypeTableRecord
  2
Continuous
 70
     0
  3
Solid line
 72
    65
 73
     0
 40
0.0
  0
LTYPE
  5
3F
330
5
100
AcDbSymbolTableRecord
100
AcDbLinetypeTableRecord
  2
SLD-Durchgehend
 70
     0
  3
SolidWorks Line Style
 72
    65
 73
     0
 40
0.0
  0
LTYPE
  5
40
330
5
100
AcDbSymbolTableRecord
100
AcDbLinetypeTableRecord
  2
SLD-Gestrichelt
 70
     0
  3
SolidWorks Line Style
 72
    65
 73
     2
 40
1.905
 49
1.27
 74
     0
 49
-0.635
 74
     0
  0
LTYPE
  5
41
330
5
100
AcDbSymbolTableRecord
100
AcDbLinetypeTableRecord
  2
SLD-Phantom
 70
     0
  3
SolidWorks Line Style
 72
    65
 73
     6
 40
12.7
 49
6.35
 74
     0
 49
-1.27
 74
     0
 49
1.27
 74
     0
 49
-1.27
 74
     0
 49
1.27
 74
     0
 49
-1.27
 74
     0
  0
LTYPE
  5
42
330
5
100
AcDbSymbolTableRecord
100
AcDbLinetypeTableRecord
  2
SLD-Kette
 70
     0
  3
SolidWorks Line Style
 72
    65
 73
     4
 40
10.16
 49
6.35
 74
     0
 49
-1.27
 74
     0
 49
1.27
 74
     0
 49
-1.27
 74
     0
  0
LTYPE
  5
43
330
5
100
AcDbSymbolTableRecord
100
AcDbLinetypeTableRecord
  2
SLD-Punktstrich
 70
     0
  3
SolidWorks Line Style
 72
    65
 73
     4
 40
19.05
 49
15.24
 74
     0
 49
-1.27
 74
     0
 49
1.27
 74
     0
 49
-1.27
 74
     0
  0
LTYPE
  5
44
330
5
100
AcDbSymbolTableRecord
100
AcDbLinetypeTableRecord
  2
SLD-Naht
 70
     0
  3
SolidWorks Line Style
 72
    65
 73
     2
 40
0.635
 49
0.0
 74
     0
 49
-0.635
 74
     0
  0
LTYPE
  5
45
330
5
100
AcDbSymbolTableRecord
100
AcDbLinetypeTableRecord
  2
SLD-Dicke-Dünne-Kette
 70
     0
  3
SolidWorks Line Style
 72
    65
 73
     4
 40
10.16
 49
6.35
 74
     0
 49
-1.27
 74
     0
 49
1.27
 74
     0
 49
-1.27
 74
     0
  0
ENDTAB
  0
TABLE
  2
LAYER
  5
2
330
0
100
AcDbSymbolTable
 70
     1
  0
LAYER
  5
10
330
2
100
AcDbSymbolTableRecord
100
AcDbLayerTableRecord
  2
0
 70
     0
 62
     7
  6
Continuous
370
    -3
390
F
347
3E
  0
ENDTAB
  0
TABLE
  2
STYLE
  5
3
330
0
100
AcDbSymbolTable
 70
     2
  0
STYLE
  5
11
330
3
100
AcDbSymbolTableRecord
100
AcDbTextStyleTableRecord
  2
Standard
 70
     0
 40
0.0
 41
1.0
 50
0.0
 71
     0
 42
3.5
  3
txt
  4

  0
STYLE
  5
91
330
3
100
AcDbSymbolTableRecord
100
AcDbTextStyleTableRecord
  2
SLDTEXTSTYLE0
 70
     0
 40
0.0
 41
0.75
 50
0.0
 71
     0
 42
0.2
  3
TXT
  4

  0
ENDTAB
  0
TABLE
  2
VIEW
  5
6
330
0
100
AcDbSymbolTable
 70
     0
  0
ENDTAB
  0
TABLE
  2
UCS
  5
7
330
0
100
AcDbSymbolTable
 70
     0
  0
ENDTAB
  0
TABLE
  2
APPID
  5
9
330
0
100
AcDbSymbolTable
 70
     1
  0
APPID
  5
12
330
9
100
AcDbSymbolTableRecord
100
AcDbRegAppTableRecord
  2
ACAD
 70
     0
  0
ENDTAB
  0
TABLE
  2
DIMSTYLE
  5
A
330
0
100
AcDbSymbolTable
 70
     3
100
AcDbDimStyleTable
  0
DIMSTYLE
105
27
330
A
100
AcDbSymbolTableRecord
100
AcDbDimStyleTableRecord
  2
ISO-25
 70
     0
 41
2.5
 42
0.625
 43
3.75
 44
1.25
 73
     0
 74
     0
 77
     1
 78
     8
140
2.5
141
2.5
143
0.0393700787
147
0.625
171
     3
172
     1
178
     0
271
     2
272
     2
274
     3
278
    44
283
     0
284
     8
340
11
  0
DIMSTYLE
105
92
102
{ACAD_REACTORS
330
90
330
AA
102
}
330
A
100
AcDbSymbolTableRecord
100
AcDbDimStyleTableRecord
  2
SLDDIMSTYLE0
 70
     0
 41
3.302
 44
0.0
 45
0.000000001
 73
     0
 74
     0
 77
     1
 78
    12
 79
     3
140
3.5
147
0.875
173
     1
178
     0
271
     2
272
     2
276
     2
284
    12
340
91
  0
DIMSTYLE
105
9D
102
{ACAD_REACTORS
330
9C
330
B4
330
C0
102
}
330
A
100
AcDbSymbolTableRecord
100
AcDbDimStyleTableRecord
  2
SLDDIMSTYLE1
 70
     0
 41
3.302
 44
0.0
 45
0.000000001
 73
     0
 74
     0
 77
     1
 78
    12
 79
     3
140
3.5
147
0.875
172
     1
173
     1
178
     0
271
     2
272
     2
276
     2
284
    12
289
     0
340
91
  0
ENDTAB
  0
TABLE
  2
BLOCK_RECORD
  5
1
330
0
100
AcDbSymbolTable
 70
     8
  0
BLOCK_RECORD
  5
1F
330
1
100
AcDbSymbolTableRecord
100
AcDbBlockTableRecord
  2
*Model_Space
340
22
 70
     0
280
     1
281
     0
  0
BLOCK_RECORD
  5
1B
330
1
100
AcDbSymbolTableRecord
100
AcDbBlockTableRecord
  2
*Paper_Space
340
1E
 70
     0
280
     1
281
     0
  0
BLOCK_RECORD
  5
23
330
1
100
AcDbSymbolTableRecord
100
AcDbBlockTableRecord
  2
*Paper_Space0
340
26
 70
     0
280
     1
281
     0
  0
BLOCK_RECORD
  5
93
330
1
100
AcDbSymbolTableRecord
100
AcDbBlockTableRecord
  2
_D
340
0
 70
     0
280
     1
281
     0
  0
BLOCK_RECORD
  5
9E
330
1
100
AcDbSymbolTableRecord
100
AcDbBlockTableRecord
  2
_D_1
340
0
 70
     0
280
     1
281
     0
  0
BLOCK_RECORD
  5
AB
330
1
100
AcDbSymbolTableRecord
100
AcDbBlockTableRecord
  2
_D_2
340
0
 70
     0
280
     1
281
     0
  0
BLOCK_RECORD
  5
B5
330
1
100
AcDbSymbolTableRecord
100
AcDbBlockTableRecord
  2
_D_3
340
0
 70
     0
280
     1
281
     0
  0
BLOCK_RECORD
  5
C1
330
1
100
AcDbSymbolTableRecord
100
AcDbBlockTableRecord
  2
_D_4
340
0
 70
     0
280
     1
281
     0
  0
BLOCK_RECORD
  5
CC
330
1
100
AcDbSymbolTableRecord
100
AcDbBlockTableRecord
  2
SW_CENTERMARKSYMBOL_0
340
0
102
{BLKREFS
331
D7
102
}
 70
     0
280
     1
281
     0
  0
BLOCK_RECORD
  5
D8
330
1
100
AcDbSymbolTableRecord
100
AcDbBlockTableRecord
  2
SW_CENTERMARKSYMBOL_1
340
0
102
{BLKREFS
331
E3
102
}
 70
     0
280
     1
281
     0
  0
ENDTAB
  0
ENDSEC
  0
SECTION
  2
BLOCKS
  0
BLOCK
  5
20
330
1F
100
AcDbEntity
  8
0
100
AcDbBlockBegin
  2
*Model_Space
 70
     0
 10
0.0
 20
0.0
 30
0.0
  3
*Model_Space
  1

  0
ENDBLK
  5
21
330
1F
100
AcDbEntity
  8
0
100
AcDbBlockEnd
  0
BLOCK
  5
1C
330
1B
100
AcDbEntity
 67
     1
  8
0
100
AcDbBlockBegin
  2
*Paper_Space
 70
     0
 10
0.0
 20
0.0
 30
0.0
  3
*Paper_Space
  1

  0
ENDBLK
  5
1D
330
1B
100
AcDbEntity
 67
     1
  8
0
100
AcDbBlockEnd
  0
BLOCK
  5
24
330
23
100
AcDbEntity
  8
0
100
AcDbBlockBegin
  2
*Paper_Space0
 70
     0
 10
0.0
 20
0.0
 30
0.0
  3
*Paper_Space0
  1

  0
ENDBLK
  5
25
330
23
100
AcDbEntity
  8
0
100
AcDbBlockEnd
  0
BLOCK
  5
94
330
93
100
AcDbEntity
  8
0
100
AcDbBlockBegin
  2
_D
 70
     0
 10
0.0
 20
0.0
 30
0.0
  3
_D
  1

  0
SOLID
  5
96
330
93
100
AcDbEntity
  8
0
 62
     7
420
 16777215
100
AcDbTrace
 10
0.0027086782
 20
32.4183185019
 30
0.0
 11
3.3047086782
 21
31.9103185019
 31
0.0
 12
3.3047086782
 22
32.9263185019
 32
0.0
 13
3.3047086782
 23
32.9263185019
 33
0.0
  0
SOLID
  5
97
330
93
100
AcDbEntity
  8
0
 62
     7
420
 16777215
100
AcDbTrace
 10
180.0027086782
 20
32.4183185019
 30
0.0
 11
176.7007086782
 21
32.9263185019
 31
0.0
 12
176.7007086782
 22
31.9103185019
 32
0.0
 13
176.7007086782
 23
31.9103185019
 33
0.0
  0
LINE
  5
98
330
93
100
AcDbEntity
  8
0
 62
     7
420
 16777215
100
AcDbLine
 10
0.0027086782
 20
0.9980059343
 30
0.0
 11
0.0027086782
 21
33.4183185019
 31
0.0
  0
LINE
  5
99
330
93
100
AcDbEntity
  8
0
 62
     7
420
 16777215
100
AcDbLine
 10
180.0027086782
 20
0.9980059343
 30
0.0
 11
180.0027086782
 21
33.4183185019
 31
0.0
  0
LINE
  5
9A
330
93
100
AcDbEntity
  8
0
 62
     7
420
 16777215
100
AcDbLine
 10
0.0027086782
 20
32.4183185019
 30
0.0
 11
180.0027086782
 21
32.4183185019
 31
0.0
  0
MTEXT
  5
9B
330
93
100
AcDbEntity
  8
0
 62
     7
420
 16777215
100
AcDbMText
 10
84.7016671496
 20
36.9300554165
 30
0.0
 40
3.5
 41
0.0
 46
0.0
 71
     1
 72
     1
  1
180
  7
SLDTEXTSTYLE0
 73
     1
 44
1.0
  0
ENDBLK
  5
95
330
93
100
AcDbEntity
  8
0
100
AcDbBlockEnd
  0
BLOCK
  5
9F
330
9E
100
AcDbEntity
  8
0
100
AcDbBlockBegin
  2
_D_1
 70
     0
 10
0.0
 20
0.0
 30
0.0
  3
_D_1
  1

  0
SOLID
  5
A1
330
9E
100
AcDbEntity
  8
0
  6
SLD-Durchgehend
 62
   208
420
  4194368
370
    15
100
AcDbTrace
 10
-5.9972913218
 20
-10.0019940657
 30
0.0
 11
-6.5052913218
 21
-13.3039940657
 31
0.0
 12
-5.4892913218
 22
-13.3039940657
 32
0.0
 13
-5.4892913218
 23
-13.3039940657
 33
0.0
  0
SOLID
  5
A2
330
9E
100
AcDbEntity
  8
0
  6
SLD-Durchgehend
 62
   208
420
  4194368
370
    15
100
AcDbTrace
 10
-5.9972913218
 20
9.9980059343
 30
0.0
 11
-5.4892913218
 21
13.3000059343
 31
0.0
 12
-6.5052913218
 22
13.3000059343
 32
0.0
 13
-6.5052913218
 23
13.3000059343
 33
0.0
  0
LINE
  5
A3
330
9E
100
AcDbEntity
  8
0
  6
SLD-Durchgehend
 62
   208
420
  4194368
370
    15
100
AcDbLine
 10
0.0027086782
 20
-10.0019940657
 30
0.0
 11
-6.9972913218
 21
-10.0019940657
 31
0.0
  0
LINE
  5
A4
330
9E
100
AcDbEntity
  8
0
  6
SLD-Durchgehend
 62
   208
420
  4194368
370
    15
100
AcDbLine
 10
0.0027086782
 20
9.9980059343
 30
0.0
 11
-6.9972913218
 21
9.9980059343
 31
0.0
  0
LINE
  5
A5
330
9E
100
AcDbEntity
  8
0
  6
SLD-Durchgehend
 62
   208
420
  4194368
370
    15
100
AcDbLine
 10
-5.9972913218
 20
-10.0019940657
 30
0.0
 11
-5.9972913218
 21
-15.0019940657
 31
0.0
  0
LINE
  5
A6
330
9E
100
AcDbEntity
  8
0
  6
SLD-Durchgehend
 62
   208
420
  4194368
370
    15
100
AcDbLine
 10
-5.9972913218
 20
-10.0019940657
 30
0.0
 11
-5.9972913218
 21
9.9980059343
 31
0.0
  0
LINE
  5
A7
330
9E
100
AcDbEntity
  8
0
  6
SLD-Durchgehend
 62
   208
420
  4194368
370
    15
100
AcDbLine
 10
-5.9972913218
 20
9.9980059343
 30
0.0
 11
-5.9972913218
 21
14.9980059343
 31
0.0
  0
MTEXT
  5
A8
330
9E
100
AcDbEntity
  8
0
  6
SLD-Durchgehend
 62
   208
420
  4194368
370
    15
100
AcDbMText
 10
-10.5090284111
 20
-6.649199046
 30
0.0
 40
3.5
 41
0.0
 46
0.0
 71
     1
 72
     1
  1
%%c
  7
SLDTEXTSTYLE0
 11
6.123233995736766E-17
 21
1.0
 31
0.0
 73
     1
 44
1.0
  0
MTEXT
  5
A9
330
9E
100
AcDbEntity
  8
0
  6
SLD-Durchgehend
 62
   208
420
  4194368
370
    15
100
AcDbMText
 10
-10.5625005877
 20
-1.3707616476
 30
0.0
 40
3.5
 41
0.0
 46
0.0
 71
     1
 72
     1
  1
20
  7
SLDTEXTSTYLE0
 11
6.123233995736766E-17
 21
1.0
 31
0.0
 73
     1
 44
1.0
  0
ENDBLK
  5
A0
330
9E
100
AcDbEntity
  8
0
100
AcDbBlockEnd
  0
BLOCK
  5
AC
330
AB
100
AcDbEntity
  8
0
100
AcDbBlockBegin
  2
_D_2
 70
     0
 10
0.0
 20
0.0
 30
0.0
  3
_D_2
  1

  0
SOLID
  5
AE
330
AB
100
AcDbEntity
  8
0
  6
SLD-Durchgehend
 62
   208
420
  4194368
370
    15
100
AcDbTrace
 10
180.0027086782
 20
26.4183185019
 30
0.0
 11
176.7007086782
 21
26.9263185019
 31
0.0
 12
176.7007086782
 22
25.9103185019
 32
0.0
 13
176.7007086782
 23
25.9103185019
 33
0.0
  0
SOLID
  5
AF
330
AB
100
AcDbEntity
  8
0
  6
SLD-Durchgehend
 62
   208
420
  4194368
370
    15
100
AcDbTrace
 10
140.0027086782
 20
26.4183185019
 30
0.0
 11
143.3047086782
 21
25.9103185019
 31
0.0
 12
143.3047086782
 22
26.9263185019
 32
0.0
 13
143.3047086782
 23
26.9263185019
 33
0.0
  0
LINE
  5
B0
330
AB
100
AcDbEntity
  8
0
  6
SLD-Durchgehend
 62
   208
420
  4194368
370
    15
100
AcDbLine
 10
180.0027086782
 20
6.3890730609
 30
0.0
 11
180.0027086782
 21
27.4183185019
 31
0.0
  0
LINE
  5
B1
330
AB
100
AcDbEntity
  8
0
  6
SLD-Durchgehend
 62
   208
420
  4194368
370
    15
100
AcDbLine
 10
140.0027086782
 20
0.9980059343
 30
0.0
 11
140.0027086782
 21
27.4183185019
 31
0.0
  0
LINE
  5
B2
330
AB
100
AcDbEntity
  8
0
  6
SLD-Durchgehend
 62
   208
420
  4194368
370
    15
100
AcDbLine
 10
180.0027086782
 20
26.4183185019
 30
0.0
 11
140.0027086782
 21
26.4183185019
 31
0.0
  0
MTEXT
  5
B3
330
AB
100
AcDbEntity
  8
0
  6
SLD-Durchgehend
 62
   208
420
  4194368
370
    15
100
AcDbMText
 10
155.9947223971
 20
30.9300554165
 30
0.0
 40
3.5
 41
0.0
 46
0.0
 71
     1
 72
     1
  1
40
  7
SLDTEXTSTYLE0
 73
     1
 44
1.0
  0
ENDBLK
  5
AD
330
AB
100
AcDbEntity
  8
0
100
AcDbBlockEnd
  0
BLOCK
  5
B6
330
B5
100
AcDbEntity
  8
0
100
AcDbBlockBegin
  2
_D_3
 70
     0
 10
0.0
 20
0.0
 30
0.0
  3
_D_3
  1

  0
SOLID
  5
B8
330
B5
100
AcDbEntity
  8
0
  6
SLD-Durchgehend
 62
   208
420
  4194368
370
    15
100
AcDbTrace
 10
204.868615024
 20
15.4980059343
 30
0.0
 11
205.376615024
 21
18.8000059343
 31
0.0
 12
204.360615024
 22
18.8000059343
 32
0.0
 13
204.360615024
 23
18.8000059343
 33
0.0
  0
SOLID
  5
B9
330
B5
100
AcDbEntity
  8
0
  6
SLD-Durchgehend
 62
   208
420
  4194368
370
    15
100
AcDbTrace
 10
204.868615024
 20
-0.0019940657
 30
0.0
 11
204.360615024
 21
-3.3039940657
 31
0.0
 12
205.376615024
 22
-3.3039940657
 32
0.0
 13
205.376615024
 23
-3.3039940657
 33
0.0
  0
LINE
  5
BA
330
B5
100
AcDbEntity
  8
0
  6
SLD-Durchgehend
 62
   208
420
  4194368
370
    15
100
AcDbLine
 10
180.0027086782
 20
15.4980059343
 30
0.0
 11
205.868615024
 21
15.4980059343
 31
0.0
  0
LINE
  5
BB
330
B5
100
AcDbEntity
  8
0
  6
SLD-Durchgehend
 62
   208
420
  4194368
370
    15
100
AcDbLine
 10
181.0027086782
 20
-0.0019940657
 30
0.0
 11
205.868615024
 21
-0.0019940657
 31
0.0
  0
LINE
  5
BC
330
B5
100
AcDbEntity
  8
0
  6
SLD-Durchgehend
 62
   208
420
  4194368
370
    15
100
AcDbLine
 10
204.868615024
 20
15.4980059343
 30
0.0
 11
204.868615024
 21
20.4980059343
 31
0.0
  0
LINE
  5
BD
330
B5
100
AcDbEntity
  8
0
  6
SLD-Durchgehend
 62
   208
420
  4194368
370
    15
100
AcDbLine
 10
204.868615024
 20
15.4980059343
 30
0.0
 11
204.868615024
 21
-0.0019940657
 31
0.0
  0
LINE
  5
BE
330
B5
100
AcDbEntity
  8
0
  6
SLD-Durchgehend
 62
   208
420
  4194368
370
    15
100
AcDbLine
 10
204.868615024
 20
-0.0019940657
 30
0.0
 11
204.868615024
 21
-5.0019940657
 31
0.0
  0
MTEXT
  5
BF
330
B5
100
AcDbEntity
  8
0
  6
SLD-Durchgehend
 62
   208
420
  4194368
370
    15
100
AcDbMText
 10
200.3568781094
 20
0.5073808359
 30
0.0
 40
3.5
 41
0.0
 46
0.0
 71
     1
 72
     1
  1
15,50
  7
SLDTEXTSTYLE0
 11
-7.044195017643634E-15
 21
1.0
 31
0.0
 73
     1
 44
1.0
  0
ENDBLK
  5
B7
330
B5
100
AcDbEntity
  8
0
100
AcDbBlockEnd
  0
BLOCK
  5
C2
330
C1
100
AcDbEntity
  8
0
100
AcDbBlockBegin
  2
_D_4
 70
     0
 10
0.0
 20
0.0
 30
0.0
  3
_D_4
  1

  0
SOLID
  5
C4
330
C1
100
AcDbEntity
  8
0
  6
SLD-Durchgehend
 62
   208
420
  4194368
370
    15
100
AcDbTrace
 10
180.0027086782
 20
20.4183185019
 30
0.0
 11
183.3047086782
 21
19.9103185019
 31
0.0
 12
183.3047086782
 22
20.9263185019
 32
0.0
 13
183.3047086782
 23
20.9263185019
 33
0.0
  0
SOLID
  5
C5
330
C1
100
AcDbEntity
  8
0
  6
SLD-Durchgehend
 62
   208
420
  4194368
370
    15
100
AcDbTrace
 10
178.0027086782
 20
20.4183185019
 30
0.0
 11
174.7007086782
 21
20.9263185019
 31
0.0
 12
174.7007086782
 22
19.9103185019
 32
0.0
 13
174.7007086782
 23
19.9103185019
 33
0.0
  0
LINE
  5
C6
330
C1
100
AcDbEntity
  8
0
  6
SLD-Durchgehend
 62
   208
420
  4194368
370
    15
100
AcDbLine
 10
180.0027086782
 20
14.9181830748
 30
0.0
 11
180.0027086782
 21
21.4183185019
 31
0.0
  0
LINE
  5
C7
330
C1
100
AcDbEntity
  8
0
  6
SLD-Durchgehend
 62
   208
420
  4194368
370
    15
100
AcDbLine
 10
178.0027086782
 20
14.9181830748
 30
0.0
 11
178.0027086782
 21
21.4183185019
 31
0.0
  0
LINE
  5
C8
330
C1
100
AcDbEntity
  8
0
  6
SLD-Durchgehend
 62
   208
420
  4194368
370
    15
100
AcDbLine
 10
180.0027086782
 20
20.4183185019
 30
0.0
 11
190.3037504396
 21
20.4183185019
 31
0.0
  0
LINE
  5
C9
330
C1
100
AcDbEntity
  8
0
  6
SLD-Durchgehend
 62
   208
420
  4194368
370
    15
100
AcDbLine
 10
180.0027086782
 20
20.4183185019
 30
0.0
 11
178.0027086782
 21
20.4183185019
 31
0.0
  0
LINE
  5
CA
330
C1
100
AcDbEntity
  8
0
  6
SLD-Durchgehend
 62
   208
420
  4194368
370
    15
100
AcDbLine
 10
178.0027086782
 20
20.4183185019
 30
0.0
 11
173.0027086782
 21
20.4183185019
 31
0.0
  0
MTEXT
  5
CB
330
C1
100
AcDbEntity
  8
0
  6
SLD-Durchgehend
 62
   208
420
  4194368
370
    15
100
AcDbMText
 10
184.8738893038
 20
24.9300554165
 30
0.0
 40
3.5
 41
0.0
 46
0.0
 71
     1
 72
     1
  1
2
  7
SLDTEXTSTYLE0
 73
     1
 44
1.0
  0
ENDBLK
  5
C3
330
C1
100
AcDbEntity
  8
0
100
AcDbBlockEnd
  0
BLOCK
  5
CD
330
CC
100
AcDbEntity
  8
0
100
AcDbBlockBegin
  2
SW_CENTERMARKSYMBOL_0
 70
     0
 10
0.0
 20
0.0
 30
0.0
  3
SW_CENTERMARKSYMBOL_0
  1

  0
LINE
  5
CF
330
CC
100
AcDbEntity
  8
0
  6
SLD-Punktstrich
 62
     0
370
    15
100
AcDbLine
 10
0.0
 20
0.0
 30
0.0
 11
0.0
 21
2.5
 31
0.0
  0
LINE
  5
D0
330
CC
100
AcDbEntity
  8
0
  6
SLD-Punktstrich
 62
     0
370
    15
100
AcDbLine
 10
0.0
 20
0.0
 30
0.0
 11
-2.5
 21
0.0
 31
0.0
  0
LINE
  5
D1
330
CC
100
AcDbEntity
  8
0
  6
SLD-Punktstrich
 62
     0
370
    15
100
AcDbLine
 10
0.0
 20
0.0
 30
0.0
 11
0.0
 21
-2.5
 31
0.0
  0
LINE
  5
D2
330
CC
100
AcDbEntity
  8
0
  6
SLD-Punktstrich
 62
     0
370
    15
100
AcDbLine
 10
0.0
 20
0.0
 30
0.0
 11
2.5
 21
0.0
 31
0.0
  0
LINE
  5
D3
330
CC
100
AcDbEntity
  8
0
  6
SLD-Punktstrich
 62
     0
370
    15
100
AcDbLine
 10
0.0
 20
2.5
 30
0.0
 11
0.0
 21
4.7
 31
0.0
  0
LINE
  5
D4
330
CC
100
AcDbEntity
  8
0
  6
SLD-Punktstrich
 62
     0
370
    15
100
AcDbLine
 10
-2.5
 20
0.0
 30
0.0
 11
-4.7
 21
0.0
 31
0.0
  0
LINE
  5
D5
330
CC
100
AcDbEntity
  8
0
  6
SLD-Punktstrich
 62
     0
370
    15
100
AcDbLine
 10
0.0
 20
-2.5
 30
0.0
 11
0.0
 21
-4.7
 31
0.0
  0
LINE
  5
D6
330
CC
100
AcDbEntity
  8
0
  6
SLD-Punktstrich
 62
     0
370
    15
100
AcDbLine
 10
2.5
 20
0.0
 30
0.0
 11
4.7
 21
0.0
 31
0.0
  0
ENDBLK
  5
CE
330
CC
100
AcDbEntity
  8
0
100
AcDbBlockEnd
  0
BLOCK
  5
D9
330
D8
100
AcDbEntity
  8
0
100
AcDbBlockBegin
  2
SW_CENTERMARKSYMBOL_1
 70
     0
 10
0.0
 20
0.0
 30
0.0
  3
SW_CENTERMARKSYMBOL_1
  1

  0
LINE
  5
DB
330
D8
100
AcDbEntity
  8
0
  6
SLD-Punktstrich
 62
     0
370
    15
100
AcDbLine
 10
0.0
 20
0.0
 30
0.0
 11
0.0
 21
2.5
 31
0.0
  0
LINE
  5
DC
330
D8
100
AcDbEntity
  8
0
  6
SLD-Punktstrich
 62
     0
370
    15
100
AcDbLine
 10
0.0
 20
0.0
 30
0.0
 11
-2.5
 21
0.0
 31
0.0
  0
LINE
  5
DD
330
D8
100
AcDbEntity
  8
0
  6
SLD-Punktstrich
 62
     0
370
    15
100
AcDbLine
 10
0.0
 20
0.0
 30
0.0
 11
0.0
 21
-2.5
 31
0.0
  0
LINE
  5
DE
330
D8
100
AcDbEntity
  8
0
  6
SLD-Punktstrich
 62
     0
370
    15
100
AcDbLine
 10
0.0
 20
0.0
 30
0.0
 11
2.5
 21
0.0
 31
0.0
  0
LINE
  5
DF
330
D8
100
AcDbEntity
  8
0
  6
SLD-Punktstrich
 62
     0
370
    15
100
AcDbLine
 10
0.0
 20
2.5
 30
0.0
 11
0.0
 21
4.7
 31
0.0
  0
LINE
  5
E0
330
D8
100
AcDbEntity
  8
0
  6
SLD-Punktstrich
 62
     0
370
    15
100
AcDbLine
 10
-2.5
 20
0.0
 30
0.0
 11
-4.7
 21
0.0
 31
0.0
  0
LINE
  5
E1
330
D8
100
AcDbEntity
  8
0
  6
SLD-Punktstrich
 62
     0
370
    15
100
AcDbLine
 10
0.0
 20
-2.5
 30
0.0
 11
0.0
 21
-4.7
 31
0.0
  0
LINE
  5
E2
330
D8
100
AcDbEntity
  8
0
  6
SLD-Punktstrich
 62
     0
370
    15
100
AcDbLine
 10
2.5
 20
0.0
 30
0.0
 11
4.7
 21
0.0
 31
0.0
  0
ENDBLK
  5
DA
330
D8
100
AcDbEntity
  8
0
100
AcDbBlockEnd
  0
ENDSEC
  0
SECTION
  2
ENTITIES
  0
LINE
  5
46
330
1F
100
AcDbEntity
  8
0
  6
SLD-Punktstrich
 62
     7
100
AcDbLine
 10
0.0027086782
 20
-0.0019940657
 30
0.0
 11
180.0027086782
 21
-0.0019940657
 31
0.0
  0
LINE
  5
47
330
1F
100
AcDbEntity
  8
0
  6
SLD-Punktstrich
 62
     7
100
AcDbLine
 10
179.0027086782
 20
15.4980059343
 30
0.0
 11
179.0027086782
 21
10.4980059343
 31
0.0
  0
LINE
  5
48
330
1F
100
AcDbEntity
  8
0
  6
SLD-Punktstrich
 62
     7
100
AcDbLine
 10
179.0027086782
 20
15.4980059343
 30
0.0
 11
179.0027086782
 21
10.4980059343
 31
0.0
  0
POINT
  5
49
330
1F
100
AcDbEntity
  8
0
  6
SLD-Durchgehend
 62
     7
100
AcDbPoint
 10
0.0027086782
 20
-0.0019940657
 30
0.0
  0
POINT
  5
4A
330
1F
100
AcDbEntity
  8
0
  6
SLD-Durchgehend
 62
     7
100
AcDbPoint
 10
180.0027086782
 20
-0.0019940657
 30
0.0
  0
POINT
  5
4B
330
1F
100
AcDbEntity
  8
0
  6
SLD-Durchgehend
 62
     7
100
AcDbPoint
 10
0.0027086782
 20
-0.0019940657
 30
0.0
  0
POINT
  5
4C
330
1F
100
AcDbEntity
  8
0
  6
SLD-Durchgehend
 62
     7
100
AcDbPoint
 10
140.0027086782
 20
-0.0019940657
 30
0.0
  0
POINT
  5
4D
330
1F
100
AcDbEntity
  8
0
  6
SLD-Durchgehend
 62
     7
100
AcDbPoint
 10
179.0027086782
 20
15.4980059343
 30
0.0
  0
POINT
  5
4E
330
1F
100
AcDbEntity
  8
0
  6
SLD-Durchgehend
 62
     7
100
AcDbPoint
 10
179.0027086782
 20
15.4980059343
 30
0.0
  0
POINT
  5
4F
330
1F
100
AcDbEntity
  8
0
  6
SLD-Durchgehend
 62
     7
100
AcDbPoint
 10
179.0027086782
 20
10.4980059343
 30
0.0
  0
POINT
  5
50
330
1F
100
AcDbEntity
  8
0
  6
SLD-Durchgehend
 62
     7
100
AcDbPoint
 10
179.0027086782
 20
10.4980059343
 30
0.0
  0
LINE
  5
51
330
1F
100
AcDbEntity
  8
0
  6
SLD-Durchgehend
 62
   131
420
  8454143
370
    15
100
AcDbLine
 10
177.0027086782
 20
9.7480059343
 30
0.0
 11
140.0027086782
 21
9.7480059343
 31
0.0
  0
LINE
  5
52
330
1F
100
AcDbEntity
  8
0
  6
SLD-Durchgehend
 62
   131
420
  8454143
370
    15
100
AcDbLine
 10
140.0027086782
 20
9.9980059343
 30
0.0
 11
1.0027086782
 21
9.9980059343
 31
0.0
  0
LINE
  5
53
330
1F
100
AcDbEntity
  8
0
  6
SLD-Durchgehend
 62
   131
420
  8454143
370
    15
100
AcDbLine
 10
1.0027086782
 20
-10.0019940657
 30
0.0
 11
138.5097200818
 21
-10.0019940657
 31
0.0
  0
LINE
  5
54
330
1F
100
AcDbEntity
  8
0
  6
SLD-Durchgehend
 62
   131
420
  8454143
370
    15
100
AcDbLine
 10
1.0027086782
 20
9.9980059343
 30
0.0
 11
0.0027086782
 21
8.9980059343
 31
0.0
  0
LINE
  5
55
330
1F
100
AcDbEntity
  8
0
  6
SLD-Durchgehend
 62
   131
420
  8454143
370
    15
100
AcDbLine
 10
0.0027086782
 20
-9.0019940657
 30
0.0
 11
1.0027086782
 21
-10.0019940657
 31
0.0
  0
LINE
  5
56
330
1F
100
AcDbEntity
  8
0
  6
SLD-Durchgehend
 62
   131
420
  8454143
370
    15
100
AcDbLine
 10
138.5027086782
 20
-10.0019940657
 30
0.0
 11
140.0027086782
 21
-8.5019940657
 31
0.0
  0
LINE
  5
57
330
1F
100
AcDbEntity
  8
0
  6
SLD-Durchgehend
 62
   131
420
  8454143
370
    15
100
AcDbLine
 10
140.0027086782
 20
-8.5019940657
 30
0.0
 11
172.1027086782
 21
-8.5019940657
 31
0.0
  0
LINE
  5
58
330
1F
100
AcDbEntity
  8
0
  6
SLD-Durchgehend
 62
   131
420
  8454143
370
    15
100
AcDbLine
 10
178.0027086782
 20
9.747823319
 30
0.0
 11
177.0027086782
 21
9.747823319
 31
0.0
  0
ELLIPSE
  5
59
330
1F
100
AcDbEntity
  8
0
  6
SLD-Durchgehend
 62
   131
420
  8454143
370
    15
100
AcDbEllipse
 10
184.4555931583
 20
-0.0019940657
 30
0.0
 11
-8.836500923607275
 21
8.836500923607325
 31
0.0
210
0.0
220
0.0
230
1.0
 40
0.4663076582
 41
5.871984301692163
 42
6.532692501914187
  0
ELLIPSE
  5
5A
330
1F
100
AcDbEntity
  8
0
  6
SLD-Durchgehend
 62
   131
420
  8454143
370
    15
100
AcDbEllipse
 10
187.9830350375
 20
-0.0019940657
 30
0.0
 11
26.77895346228055
 21
1.94070887931359
 31
0.0
210
0.0
220
0.0
230
1.0
 40
0.3568063945
 41
2.056250403043404
 42
2.546416102405366
  0
LINE
  5
5B
330
1F
100
AcDbEntity
  8
0
  6
SLD-Durchgehend
 62
   131
420
  8454143
370
    15
100
AcDbLine
 10
165.4205056389
 20
3.7480059343
 30
0.0
 11
140.0027086782
 21
3.7480059343
 31
0.0
  0
LINE
  5
5C
330
1F
100
AcDbEntity
  8
0
  6
SLD-Durchgehend
 62
   131
420
  8454143
370
    15
100
AcDbLine
 10
140.0027086782
 20
4.3569048778
 30
0.0
 11
1.0027086782
 21
4.3569048778
 31
0.0
  0
LINE
  5
5D
330
1F
100
AcDbEntity
  8
0
  6
SLD-Durchgehend
 62
   131
420
  8454143
370
    15
100
AcDbLine
 10
1.0027086782
 20
-4.3608930092
 30
0.0
 11
1.0027086782
 21
-10.0019940657
 31
0.0
  0
LINE
  5
5E
330
1F
100
AcDbEntity
  8
0
  6
SLD-Durchgehend
 62
   131
420
  8454143
370
    15
100
AcDbLine
 10
1.0027086782
 20
9.9980059343
 30
0.0
 11
1.0027086782
 21
4.3569048778
 31
0.0
  0
LINE
  5
5F
330
1F
100
AcDbEntity
  8
0
  6
SLD-Durchgehend
 62
   131
420
  8454143
370
    15
100
AcDbLine
 10
1.0027086782
 20
-4.3608930092
 30
0.0
 11
139.9673218312
 21
-4.3608930092
 31
0.0
  0
SPLINE
  5
60
330
1F
100
AcDbEntity
  8
0
  6
SLD-Durchgehend
 62
   131
420
  8454143
370
    15
100
AcDbSpline
210
0.0
220
0.0
230
1.0
 70
     8
 71
     3
 72
    15
 73
    11
 74
     0
 42
0.00000001
 43
0.00000001
 12
1.0
 22
0.0
 32
0.0
 13
1.0
 23
0.0
 33
0.0
 40
0.0
 40
0.0
 40
0.0
 40
0.0
 40
0.0455096407704971
 40
0.1932692208168684
 40
0.336005789513445
 40
0.4828067048495779
 40
0.6269995730309038
 40
0.7751919752641498
 40
0.8867390816245591
 40
1.0
 40
1.0
 40
1.0
 40
1.0
 10
138.5097200817536
 20
-9.97342134144253
 30
0.0
 10
138.5077526011026
 20
-9.981438897733955
 30
0.0
 10
138.4993971527637
 20
-10.0154876581958
 30
0.0
 10
138.5522915866057
 20
-9.799830599091328
 30
0.0
 10
138.6689465030553
 20
-9.327401046240961
 30
0.0
 10
138.8520836952478
 20
-8.594098945708831
 30
0.0
 10
139.0964953659691
 20
-7.63146390808908
 30
0.0
 10
139.374360536262
 20
-6.561350402959752
 30
0.0
 10
139.6673481603487
 20
-5.457121078871139
 30
0.0
 10
139.8668237104811
 20
-4.728154777726916
 30
0.0
 10
139.9673218311687
 20
-4.360893009249769
 30
0.0
  0
LINE
  5
61
330
1F
100
AcDbEntity
  8
0
  6
SLD-Durchgehend
 62
   131
420
  8454143
370
    15
100
AcDbLine
 10
140.0027086782
 20
9.9980059343
 30
0.0
 11
140.0027086782
 21
4.3569048778
 31
0.0
  0
LINE
  5
62
330
1F
100
AcDbEntity
  8
0
  6
SLD-Durchgehend
 62
   131
420
  8454143
370
    15
100
AcDbLine
 10
0.0027086782
 20
-0.0019940657
 30
0.0
 11
0.0027086782
 21
-9.0019940657
 31
0.0
  0
LINE
  5
63
330
1F
100
AcDbEntity
  8
0
  6
SLD-Durchgehend
 62
   131
420
  8454143
370
    15
100
AcDbLine
 10
0.0027086782
 20
8.9980059343
 30
0.0
 11
0.0027086782
 21
-0.0019940657
 31
0.0
  0
SPLINE
  5
64
330
1F
100
AcDbEntity
  8
0
  6
SLD-Durchgehend
 62
   131
420
  8454143
370
    15
100
AcDbSpline
210
0.0
220
0.0
230
1.0
 70
     8
 71
     3
 72
    12
 73
     8
 74
     0
 42
0.00000001
 43
0.00000001
 12
1.0
 22
0.0
 32
0.0
 13
1.0
 23
0.0
 33
0.0
 40
0.0
 40
0.0
 40
0.0
 40
0.0
 40
0.25
 40
0.25
 40
0.5
 40
0.5
 40
1.0
 40
1.0
 40
1.0
 40
1.0
 10
0.0027086781506005
 20
-0.0019940657091762
 30
0.0
 10
0.0027086781506005
 20
-0.3797292932370201
 30
0.0
 10
0.0268396711725939
 20
-0.757558887954968
 30
0.0
 10
0.119189666532106
 20
-1.500714731115712
 30
0.0
 10
0.187348530825247
 20
-1.868055668520644
 30
0.0
 10
0.4496742366195492
 20
-2.95892913288439
 30
0.0
 10
0.7041296384608375
 20
-3.67590571416184
 30
0.0
 10
1.0027086781506
 20
-4.36089300924977
 30
0.0
  0
SPLINE
  5
65
330
1F
100
AcDbEntity
  8
0
  6
SLD-Durchgehend
 62
   131
420
  8454143
370
    15
100
AcDbSpline
210
0.0
220
0.0
230
1.0
 70
     8
 71
     3
 72
    12
 73
     8
 74
     0
 42
0.00000001
 43
0.00000001
 12
1.0
 22
0.0
 32
0.0
 13
1.0
 23
0.0
 33
0.0
 40
0.0
 40
0.0
 40
0.0
 40
0.0
 40
0.25
 40
0.25
 40
0.5
 40
0.5
 40
1.0
 40
1.0
 40
1.0
 40
1.0
 10
1.002708678150599
 20
4.356904877831416
 30
0.0
 10
0.8535530030494756
 20
4.014718291188588
 30
0.0
 10
0.7162062256524191
 20
3.667147821623947
 30
0.0
 10
0.4712676310154301
 20
2.95844107594407
 30
0.0
 10
0.3632633670968208
 20
2.595399880823716
 30
0.0
 10
0.0987944406922354
 20
1.496225248825218
 30
0.0
 10
0.0027086781506005
 20
0.7532306382661565
 30
0.0
 10
0.0027086781506005
 20
-0.0019940657091767
 30
0.0
  0
ELLIPSE
  5
66
330
1F
100
AcDbEntity
  8
0
  6
SLD-Durchgehend
 62
   131
420
  8454143
370
    15
100
AcDbEllipse
 10
189.5335919905
 20
3.2480059343
 30
0.0
 11
32.27207212120995
 21
2.338803008403565
 31
0.0
210
0.0
220
0.0
230
1.0
 40
0.3568063945
 41
3.718439797435914
 42
4.161159345147775
  0
ELLIPSE
  5
67
330
1F
100
AcDbEntity
  8
0
  6
SLD-Durchgehend
 62
   131
420
  8454143
370
    15
100
AcDbEllipse
 10
187.9830350375
 20
-0.0019940657
 30
0.0
 11
26.77895346228055
 21
1.94070887931359
 31
0.0
210
0.0
220
0.0
230
1.0
 40
0.3568063945
 41
3.335998341804908
 42
3.478525861064522
  0
LINE
  5
68
330
1F
100
AcDbEntity
  8
0
  6
SLD-Durchgehend
 62
   131
420
  8454143
370
    15
100
AcDbLine
 10
165.4205056389
 20
3.7480059343
 30
0.0
 11
161.8422972858
 21
-3.7519940657
 31
0.0
  0
LINE
  5
69
330
1F
100
AcDbEntity
  8
0
  6
SLD-Durchgehend
 62
   131
420
  8454143
370
    15
100
AcDbLine
 10
178.0027086782
 20
4.6611325924
 30
0.0
 11
174.8752539854
 21
7.5434104279
 31
0.0
  0
LINE
  5
6A
330
1F
100
AcDbEntity
  8
0
  6
SLD-Durchgehend
 62
   131
420
  8454143
370
    15
100
AcDbLine
 10
180.0027086782
 20
5.3890730609
 30
0.0
 11
178.0027086782
 21
4.6611325924
 31
0.0
  0
LINE
  5
6B
330
1F
100
AcDbEntity
  8
0
  6
SLD-Durchgehend
 62
   131
420
  8454143
370
    15
100
AcDbLine
 10
180.0027086782
 20
5.3890730609
 30
0.0
 11
180.0027086782
 21
-3.9409269391
 31
0.0
  0
LINE
  5
6C
330
1F
100
AcDbEntity
  8
0
  6
SLD-Durchgehend
 62
   131
420
  8454143
370
    15
100
AcDbLine
 10
173.3424688956
 20
-7.7862181704
 30
0.0
 11
180.0027086782
 21
-3.9409269391
 31
0.0
  0
LINE
  5
6D
330
1F
100
AcDbEntity
  8
0
  6
SLD-Durchgehend
 62
   131
420
  8454143
370
    15
100
AcDbLine
 10
140.0027086782
 20
-3.7519940657
 30
0.0
 11
161.8422972858
 21
-3.7519940657
 31
0.0
  0
LINE
  5
6E
330
1F
100
AcDbEntity
  8
0
  6
SLD-Durchgehend
 62
   131
420
  8454143
370
    15
100
AcDbLine
 10
140.0027086782
 20
-4.3059665306
 30
0.0
 11
140.0027086782
 21
-3.7519940657
 31
0.0
  0
SPLINE
  5
6F
330
1F
100
AcDbEntity
  8
0
  6
SLD-Durchgehend
 62
   131
420
  8454143
370
    15
100
AcDbSpline
210
0.0
220
0.0
230
1.0
 70
     8
 71
     3
 72
     8
 73
     4
 74
     0
 42
0.00000001
 43
0.00000001
 12
1.0
 22
0.0
 32
0.0
 13
1.0
 23
0.0
 33
0.0
 40
0.0
 40
0.0
 40
0.0
 40
0.0
 40
1.0
 40
1.0
 40
1.0
 40
1.0
 10
140.0027086781505
 20
-4.305966530578221
 30
0.0
 10
139.9909319253806
 20
-4.324284951209307
 30
0.0
 10
139.9791362334222
 20
-4.342593738625117
 30
0.0
 10
139.9673218311687
 20
-4.360893009249774
 30
0.0
  0
LINE
  5
70
330
1F
100
AcDbEntity
  8
0
  6
SLD-Durchgehend
 62
   131
420
  8454143
370
    15
100
AcDbLine
 10
140.0027086782
 20
3.7480059343
 30
0.0
 11
140.0027086782
 21
4.3569048778
 31
0.0
  0
LINE
  5
71
330
1F
100
AcDbEntity
  8
0
  6
SLD-Durchgehend
 62
   131
420
  8454143
370
    15
100
AcDbLine
 10
140.0027086782
 20
-4.3059665306
 30
0.0
 11
140.0027086782
 21
-4.9923786811
 31
0.0
  0
LINE
  5
72
330
1F
100
AcDbEntity
  8
0
  6
SLD-Durchgehend
 62
   131
420
  8454143
370
    15
100
AcDbLine
 10
140.0027086782
 20
-4.9923786811
 30
0.0
 11
140.0027086782
 21
-8.5019940657
 31
0.0
  0
LINE
  5
73
330
1F
100
AcDbEntity
  8
0
  6
SLD-Durchgehend
 62
   131
420
  8454143
370
    15
100
AcDbLine
 10
140.0027086782
 20
-4.9923786811
 30
0.0
 11
162.9387051413
 21
-4.9923786811
 31
0.0
  0
LINE
  5
74
330
1F
100
AcDbEntity
  8
0
  6
SLD-Durchgehend
 62
   131
420
  8454143
370
    15
100
AcDbLine
 10
179.6428149403
 20
14.3265137605
 30
0.0
 11
179.6489111546
 21
14.3265137605
 31
0.0
  0
ELLIPSE
  5
75
330
1F
100
AcDbEntity
  8
0
  6
SLD-Durchgehend
 62
   131
420
  8454143
370
    15
100
AcDbEllipse
 10
164.4358019576
 20
3.2480059343
 30
0.0
 11
34.12000013604137
 21
1.620698953466035
 31
0.0
210
0.0
220
0.0
230
1.0
 40
0.3410811907
 41
1.092714529113622
 42
1.109337183764746
  0
SPLINE
  5
76
330
1F
100
AcDbEntity
  8
0
  6
SLD-Durchgehend
 62
   131
420
  8454143
370
    15
100
AcDbSpline
210
0.0
220
0.0
230
1.0
 70
     8
 71
     3
 72
     8
 73
     4
 74
     0
 42
0.00000001
 43
0.00000001
 12
1.0
 22
0.0
 32
0.0
 13
1.0
 23
0.0
 33
0.0
 40
0.0
 40
0.0
 40
0.0
 40
0.0
 40
1.0
 40
1.0
 40
1.0
 40
1.0
 10
179.1329359399335
 20
14.390062042709
 30
0.0
 10
179.0492603489959
 20
14.40019789256774
 30
0.0
 10
178.9561638670692
 20
14.40019872350943
 30
0.0
 10
178.8724814163677
 20
14.39006204270901
 30
0.0
  0
ELLIPSE
  5
77
330
1F
100
AcDbEntity
  8
0
  6
SLD-Durchgehend
 62
   131
420
  8454143
370
    15
100
AcDbEllipse
 10
193.5696153987
 20
3.2480059343
 30
0.0
 11
34.12000013604137
 21
-1.620698953466026
 31
0.0
210
0.0
220
0.0
230
1.0
 40
0.3410811907
 41
2.032255469825047
 42
2.048878124476174
  0
LINE
  5
78
330
1F
100
AcDbEntity
  8
0
  6
SLD-Durchgehend
 62
   131
420
  8454143
370
    15
100
AcDbLine
 10
178.3565062017
 20
14.3265137605
 30
0.0
 11
178.362602416
 21
14.3265137605
 31
0.0
  0
LINE
  5
79
330
1F
100
AcDbEntity
  8
0
  6
SLD-Durchgehend
 62
   131
420
  8454143
370
    15
100
AcDbLine
 10
173.3424688956
 20
-7.7862181704
 30
0.0
 11
172.1027086782
 21
-8.5019940657
 31
0.0
  0
LINE
  5
7A
330
1F
100
AcDbEntity
  8
0
  6
SLD-Durchgehend
 62
   131
420
  8454143
370
    15
100
AcDbLine
 10
178.0027086782
 20
9.7449271311
 30
0.0
 11
178.0027086782
 21
4.6611325924
 31
0.0
  0
LINE
  5
7B
330
1F
100
AcDbEntity
  8
0
  6
SLD-Durchgehend
 62
   131
420
  8454143
370
    15
100
AcDbLine
 10
178.0027086782
 20
9.9520043629
 30
0.0
 11
178.0027086782
 21
9.7449271311
 31
0.0
  0
LINE
  5
7C
330
1F
100
AcDbEntity
  8
0
  6
SLD-Durchgehend
 62
   131
420
  8454143
370
    15
100
AcDbLine
 10
178.0027086782
 20
9.9520043629
 30
0.0
 11
178.0527086782
 21
9.9379714135
 31
0.0
  0
LINE
  5
7D
330
1F
100
AcDbEntity
  8
0
  6
SLD-Durchgehend
 62
   131
420
  8454143
370
    15
100
AcDbLine
 10
178.0527086782
 20
9.9379714135
 30
0.0
 11
178.8724814164
 21
10.2336309056
 31
0.0
  0
ELLIPSE
  5
7E
330
1F
100
AcDbEntity
  8
0
  6
SLD-Durchgehend
 62
   131
420
  8454143
370
    15
100
AcDbEllipse
 10
179.0027086782
 20
9.8374837341
 30
0.0
 11
0.0
 21
0.4189734413994248
 31
0.0
210
0.0
220
0.0
230
1.0
 40
0.9547144532
 41
5.951572749300755
 42
6.6147978650585
  0
LINE
  5
7F
330
1F
100
AcDbEntity
  8
0
  6
SLD-Durchgehend
 62
   131
420
  8454143
370
    15
100
AcDbLine
 10
179.1329359399
 20
10.2336309056
 30
0.0
 11
179.9527086782
 21
9.9379714135
 31
0.0
  0
LINE
  5
80
330
1F
100
AcDbEntity
  8
0
  6
SLD-Durchgehend
 62
   131
420
  8454143
370
    15
100
AcDbLine
 10
179.9527086782
 20
9.9379714135
 30
0.0
 11
180.0027086782
 21
9.9520043629
 31
0.0
  0
LINE
  5
81
330
1F
100
AcDbEntity
  8
0
  6
SLD-Durchgehend
 62
   131
420
  8454143
370
    15
100
AcDbLine
 10
180.0027086782
 20
5.3890730609
 30
0.0
 11
180.0027086782
 21
9.9520043629
 31
0.0
  0
LINE
  5
82
330
1F
100
AcDbEntity
  8
0
  6
SLD-Durchgehend
 62
   131
420
  8454143
370
    15
100
AcDbLine
 10
179.9527086782
 20
9.9379714135
 30
0.0
 11
179.9527086782
 21
13.9681156422
 31
0.0
  0
LINE
  5
83
330
1F
100
AcDbEntity
  8
0
  6
SLD-Durchgehend
 62
   131
420
  8454143
370
    15
100
AcDbLine
 10
179.6428149403
 20
14.3265137605
 30
0.0
 11
179.651838193
 21
14.3224882856
 31
0.0
  0
SPLINE
  5
84
330
1F
100
AcDbEntity
  8
0
  6
SLD-Durchgehend
 62
   131
420
  8454143
370
    15
100
AcDbSpline
210
0.0
220
0.0
230
1.0
 70
     8
 71
     3
 72
     8
 73
     4
 74
     0
 42
0.00000001
 43
0.00000001
 12
1.0
 22
0.0
 32
0.0
 13
1.0
 23
0.0
 33
0.0
 40
0.0000003253478929
 40
0.0000003253478929
 40
0.0000003253478929
 40
0.0000003253478929
 40
0.0004881504150135
 40
0.0004881504150135
 40
0.0004881504150135
 40
0.0004881504150135
 10
179.9527086781506
 20
13.96811564222149
 30
0.0
 10
179.8527495608206
 20
14.08655195467716
 30
0.0
 10
179.7524518171627
 20
14.20467068074179
 30
0.0
 10
179.6518381930128
 20
14.3224882855894
 30
0.0
  0
LINE
  5
85
330
1F
100
AcDbEntity
  8
0
  6
SLD-Durchgehend
 62
   131
420
  8454143
370
    15
100
AcDbLine
 10
178.3535791633
 20
14.3224882856
 30
0.0
 11
178.362602416
 21
14.3265137605
 31
0.0
  0
LINE
  5
86
330
1F
100
AcDbEntity
  8
0
  6
SLD-Durchgehend
 62
   131
420
  8454143
370
    15
100
AcDbLine
 10
178.0527086782
 20
9.9379714135
 30
0.0
 11
178.0527086782
 21
13.9681156422
 31
0.0
  0
SPLINE
  5
87
330
1F
100
AcDbEntity
  8
0
  6
SLD-Durchgehend
 62
   131
420
  8454143
370
    15
100
AcDbSpline
210
0.0
220
0.0
230
1.0
 70
     8
 71
     3
 72
     8
 73
     4
 74
     0
 42
0.00000001
 43
0.00000001
 12
1.0
 22
0.0
 32
0.0
 13
1.0
 23
0.0
 33
0.0
 40
0.0002409702622891
 40
0.0002409702622891
 40
0.0002409702622891
 40
0.0002409702622891
 40
0.0007287953294098
 40
0.0007287953294098
 40
0.0007287953294098
 40
0.0007287953294098
 10
178.3535791632885
 20
14.32248828558941
 30
0.0
 10
178.2529655391384
 20
14.20467068074178
 30
0.0
 10
178.1526677954805
 20
14.08655195467712
 30
0.0
 10
178.0527086781506
 20
13.96811564222143
 30
0.0
  0
LINE
  5
88
330
1F
100
AcDbEntity
  8
0
  6
SLD-Durchgehend
 62
   131
420
  8454143
370
    15
100
AcDbLine
 10
178.3535791633
 20
14.3224882856
 30
0.0
 11
178.3565062017
 21
14.3265137605
 31
0.0
  0
LINE
  5
89
330
1F
100
AcDbEntity
  8
0
  6
SLD-Durchgehend
 62
   131
420
  8454143
370
    15
100
AcDbLine
 10
179.6489111546
 20
14.3265137605
 30
0.0
 11
179.651838193
 21
14.3224882856
 31
0.0
  0
LINE
  5
8A
330
1F
100
AcDbEntity
  8
0
  6
SLD-Durchgehend
 62
   131
420
  8454143
370
    15
100
AcDbLine
 10
180.0027086782
 20
13.9181830748
 30
0.0
 11
179.9527086782
 21
13.9681156422
 31
0.0
  0
LINE
  5
8B
330
1F
100
AcDbEntity
  8
0
  6
SLD-Durchgehend
 62
   131
420
  8454143
370
    15
100
AcDbLine
 10
180.0027086782
 20
9.9520043629
 30
0.0
 11
180.0027086782
 21
13.9181830748
 31
0.0
  0
LINE
  5
8C
330
1F
100
AcDbEntity
  8
0
  6
SLD-Durchgehend
 62
   131
420
  8454143
370
    15
100
AcDbLine
 10
178.0027086782
 20
13.9181830748
 30
0.0
 11
178.0027086782
 21
9.9520043629
 31
0.0
  0
LINE
  5
8D
330
1F
100
AcDbEntity
  8
0
  6
SLD-Durchgehend
 62
   131
420
  8454143
370
    15
100
AcDbLine
 10
178.0527086782
 20
13.9681156422
 30
0.0
 11
178.0027086782
 21
13.9181830748
 31
0.0
  0
LINE
  5
8E
330
1F
100
AcDbEntity
  8
0
  6
SLD-Durchgehend
 62
   131
420
  8454143
370
    15
100
AcDbLine
 10
179.1329359399
 20
10.2336309056
 30
0.0
 11
179.1329359399
 21
14.3900620427
 31
0.0
  0
LINE
  5
8F
330
1F
100
AcDbEntity
  8
0
  6
SLD-Durchgehend
 62
   131
420
  8454143
370
    15
100
AcDbLine
 10
178.8724814164
 20
10.2336309056
 30
0.0
 11
178.8724814164
 21
14.3900620427
 31
0.0
  0
DIMENSION
  5
90
330
1F
100
AcDbEntity
  8
0
 62
     7
420
 16777215
100
AcDbDimension
  2
_D
 10
180.0027086782
 20
32.4183185019
 30
0.0
 11
90.0027086782
 21
32.4183185019
 31
0.0
 70
   160
  1
<>
 71
     2
 42
-1.0
 73
     0
 74
     0
 75
     0
  3
SLDDIMSTYLE0
100
AcDbAlignedDimension
 13
0.0027086782
 23
-0.0019940657
 33
0.0
 14
180.0027086782
 24
-0.0019940657
 34
0.0
 50
0.0
100
AcDbRotatedDimension
  0
DIMENSION
  5
9C
330
1F
100
AcDbEntity
  8
0
  6
SLD-Durchgehend
 62
   208
420
  4194368
370
    15
100
AcDbDimension
  2
_D_1
 10
-5.9972913218
 20
9.9980059343
 30
0.0
 11
-5.9972913218
 21
-0.0019940657
 31
0.0
 70
   160
  1
%%c<>
 71
     2
 42
-1.0
 73
     0
 74
     0
 75
     0
  3
SLDDIMSTYLE1
100
AcDbAlignedDimension
 13
1.0027086782
 23
-10.0019940657
 33
0.0
 14
1.0027086782
 24
9.9980059343
 34
0.0
 50
90.0
100
AcDbRotatedDimension
  0
DIMENSION
  5
AA
330
1F
100
AcDbEntity
  8
0
  6
SLD-Durchgehend
 62
   208
420
  4194368
370
    15
100
AcDbDimension
  2
_D_2
 10
140.0027086782
 20
26.4183185019
 30
0.0
 11
160.0027086782
 21
26.4183185019
 31
0.0
 70
   160
  1
<>
 71
     2
 42
-1.0
 73
     0
 74
     0
 75
     0
  3
SLDDIMSTYLE0
100
AcDbAlignedDimension
 13
180.0027086782
 23
5.3890730609
 33
0.0
 14
140.0027086782
 24
-0.0019940657
 34
0.0
100
AcDbRotatedDimension
  0
DIMENSION
  5
B4
330
1F
100
AcDbEntity
  8
0
  6
SLD-Durchgehend
 62
   208
420
  4194368
370
    15
100
AcDbDimension
  2
_D_3
 10
204.868615024
 20
-0.0019940657
 30
0.0
 11
204.868615024
 21
7.7480059343
 31
0.0
 70
   160
  1
<>
 71
     2
 42
-1.0
 73
     0
 74
     0
 75
     0
  3
SLDDIMSTYLE1
100
AcDbAlignedDimension
 13
179.0027086782
 23
15.4980059343
 33
0.0
 14
180.0027086782
 24
-0.0019940657
 34
0.0
 50
90.0
100
AcDbRotatedDimension
  0
DIMENSION
  5
C0
330
1F
100
AcDbEntity
  8
0
  6
SLD-Durchgehend
 62
   208
420
  4194368
370
    15
100
AcDbDimension
  2
_D_4
 10
178.0027086782
 20
20.4183185019
 30
0.0
 11
187.5888198717
 21
20.4183185019
 31
0.0
 70
   160
  1
<>
 71
     2
 42
-1.0
 73
     0
 74
     0
 75
     0
  3
SLDDIMSTYLE1
100
AcDbAlignedDimension
 13
180.0027086782
 23
13.9181830748
 33
0.0
 14
178.0027086782
 24
13.9181830748
 34
0.0
100
AcDbRotatedDimension
  0
INSERT
  5
D7
330
1F
100
AcDbEntity
  8
0
  6
SLD-Punktstrich
 62
     2
420
 16776960
370
    15
100
AcDbBlockReference
  2
SW_CENTERMARKSYMBOL_0
 10
139.8836073308
 20
6.6862783167
 30
0.0
  0
INSERT
  5
E3
330
1F
100
AcDbEntity
  8
0
  6
SLD-Punktstrich
 62
     2
420
 16776960
370
    15
100
AcDbBlockReference
  2
SW_CENTERMARKSYMBOL_1
 10
139.8836073308
 20
-11.6637216833
 30
0.0
  0
ENDSEC
  0
SECTION
  2
OBJECTS
  0
DICTIONARY
  5
C
330
0
100
AcDbDictionary
281
     1
  3
ACAD_GROUP
350
D
  3
ACAD_LAYOUT
350
1A
  3
ACAD_MATERIAL
350
3B
  3
ACAD_MLEADERSTYLE
350
E5
  3
ACAD_MLINESTYLE
350
17
  3
ACAD_PLOTSETTINGS
350
19
  3
ACAD_PLOTSTYLENAME
350
E
  3
ACAD_TABLESTYLE
350
E4
  3
ACAD_VISUALSTYLE
350
2A
  0
DICTIONARY
  5
D
102
{ACAD_REACTORS
330
C
102
}
330
C
100
AcDbDictionary
281
     1
  0
DICTIONARY
  5
1A
102
{ACAD_REACTORS
330
C
102
}
330
C
100
AcDbDictionary
281
     1
  3
Layout1
350
1E
  3
Layout2
350
26
  3
Model
350
22
  0
DICTIONARY
  5
3B
102
{ACAD_REACTORS
330
C
102
}
330
C
100
AcDbDictionary
281
     1
  3
ByBlock
350
3D
  3
ByLayer
350
3C
  3
Global
350
3E
  0
DICTIONARY
  5
E5
102
{ACAD_REACTORS
330
C
102
}
330
C
100
AcDbDictionary
281
     1
  0
DICTIONARY
  5
17
102
{ACAD_REACTORS
330
C
102
}
330
C
100
AcDbDictionary
281
     1
  3
Standard
350
18
  0
DICTIONARY
  5
19
102
{ACAD_REACTORS
330
C
102
}
330
C
100
AcDbDictionary
281
     1
  0
ACDBDICTIONARYWDFLT
  5
E
102
{ACAD_REACTORS
330
C
102
}
330
C
100
AcDbDictionary
281
     1
  3
Normal
350
F
100
AcDbDictionaryWithDefault
340
F
  0
DICTIONARY
  5
E4
102
{ACAD_REACTORS
330
C
102
}
330
C
100
AcDbDictionary
281
     1
  0
DICTIONARY
  5
2A
102
{ACAD_REACTORS
330
C
102
}
330
C
100
AcDbDictionary
281
     1
  3
2dWireframe
350
2F
  3
3D Hidden
350
31
  3
3dWireframe
350
30
  3
Basic
350
32
  3
Brighten
350
36
  3
ColorChange
350
3A
  3
Conceptual
350
34
  3
Dim
350
35
  3
Facepattern
350
39
  3
Flat
350
2B
  3
FlatWithEdges
350
2C
  3
Gouraud
350
2D
  3
GouraudWithEdges
350
2E
  3
Linepattern
350
38
  3
Realistic
350
33
  3
Thicken
350
37
  0
LAYOUT
  5
1E
102
{ACAD_REACTORS
330
1A
102
}
330
1A
100
AcDbPlotSettings
  1

  2
none_device
  4

  6

 40
0.0
 41
0.0
 42
0.0
 43
0.0
 44
0.0
 45
0.0
 46
0.0
 47
0.0
 48
0.0
 49
0.0
140
0.0
141
0.0
142
1.0
143
1.0
 70
   688
 72
     0
 73
     0
 74
     5
  7

 75
    16
 76
     0
 77
     2
 78
   300
147
1.0
148
0.0
149
0.0
100
AcDbLayout
  1
Layout1
 70
     1
 71
     1
 10
0.0
 20
0.0
 11
420.0
 21
297.0
 12
0.0
 22
0.0
 32
0.0
 14
1.0000000000E+20
 24
1.0000000000E+20
 34
1.0000000000E+20
 15
-1.0000000000E+20
 25
-1.0000000000E+20
 35
-1.0000000000E+20
146
0.0
 13
0.0
 23
0.0
 33
0.0
 16
1.0
 26
0.0
 36
0.0
 17
0.0
 27
1.0
 37
0.0
 76
     0
330
1B
  0
LAYOUT
  5
26
102
{ACAD_REACTORS
330
1A
102
}
330
1A
100
AcDbPlotSettings
  1

  2
none_device
  4

  6

 40
0.0
 41
0.0
 42
0.0
 43
0.0
 44
0.0
 45
0.0
 46
0.0
 47
0.0
 48
0.0
 49
0.0
140
0.0
141
0.0
142
1.0
143
1.0
 70
   688
 72
     0
 73
     0
 74
     5
  7

 75
    16
 76
     0
 77
     2
 78
   300
147
1.0
148
0.0
149
0.0
100
AcDbLayout
  1
Layout2
 70
     1
 71
     2
 10
0.0
 20
0.0
 11
0.0
 21
0.0
 12
0.0
 22
0.0
 32
0.0
 14
0.0
 24
0.0
 34
0.0
 15
0.0
 25
0.0
 35
0.0
146
0.0
 13
0.0
 23
0.0
 33
0.0
 16
1.0
 26
0.0
 36
0.0
 17
0.0
 27
1.0
 37
0.0
 76
     0
330
23
  0
LAYOUT
  5
22
102
{ACAD_REACTORS
330
1A
102
}
330
1A
100
AcDbPlotSettings
  1

  2
none_device
  4

  6

 40
0.0
 41
0.0
 42
0.0
 43
0.0
 44
0.0
 45
0.0
 46
0.0
 47
0.0
 48
0.0
 49
0.0
140
0.0
141
0.0
142
1.0
143
1.0
 70
  1712
 72
     0
 73
     0
 74
     0
  7

 75
     0
 76
     0
 77
     2
 78
   300
147
1.0
148
0.0
149
0.0
100
AcDbLayout
  1
Model
 70
     1
 71
     0
 10
0.0
 20
0.0
 11
297.0
 21
210.0
 12
0.0
 22
0.0
 32
0.0
 14
0.0
 24
0.0
 34
0.0
 15
297.0
 25
210.0
 35
0.0
146
0.0
 13
0.0
 23
0.0
 33
0.0
 16
1.0
 26
0.0
 36
0.0
 17
0.0
 27
1.0
 37
0.0
 76
     0
330
1F
331
29
  0
MATERIAL
  5
3D
102
{ACAD_REACTORS
330
3B
102
}
330
3B
100
AcDbMaterial
  1
ByBlock
 72
     1
 94
      127
  0
MATERIAL
  5
3C
102
{ACAD_REACTORS
330
3B
102
}
330
3B
100
AcDbMaterial
  1
ByLayer
 72
     1
 94
      127
  0
MATERIAL
  5
3E
102
{ACAD_REACTORS
330
3B
102
}
330
3B
100
AcDbMaterial
  1
Global
 72
     1
 94
      127
  0
MLINESTYLE
  5
18
102
{ACAD_REACTORS
330
17
102
}
330
17
100
AcDbMlineStyle
  2
Standard
 70
     0
  3

 62
   256
 51
90.0
 52
90.0
 71
     2
 49
0.5
 62
   256
  6
BYLAYER
 49
-0.5
 62
   256
  6
BYLAYER
  0
ACDBPLACEHOLDER
  5
F
102
{ACAD_REACTORS
330
E
102
}
330
E
  0
VISUALSTYLE
  5
2F
102
{ACAD_REACTORS
330
2A
102
}
330
2A
100
AcDbVisualStyle
  2
2dWireframe
 70
     4
 71
     0
 72
     2
 73
     0
 90
        0
 40
-0.6
 41
-30.0
 62
     5
 63
     7
421
 16777215
 74
     1
 91
        4
 64
     7
 65
   257
 75
     1
175
     1
 42
1.0
 92
        0
 66
   257
 43
1.0
 76
     1
 77
     6
 78
     2
 67
     7
 79
     5
170
     0
171
     0
290
     0
174
     0
 93
        1
 44
0.0
173
     0
291
     0
 45
0.0
  0
VISUALSTYLE
  5
31
102
{ACAD_REACTORS
330
2A
102
}
330
2A
100
AcDbVisualStyle
  2
3D Hidden
 70
     6
 71
     1
 72
     2
 73
     2
 90
        0
 40
-0.6
 41
-30.0
 62
     5
 63
     7
421
 16777215
 74
     2
 91
        2
 64
     7
 65
   257
 75
     2
175
     1
 42
40.0
 92
        0
 66
   257
 43
1.0
 76
     1
 77
     6
 78
     2
 67
     7
 79
     3
170
     0
171
     0
290
     0
174
     0
 93
        1
 44
0.0
173
     0
291
     0
 45
0.0
  0
VISUALSTYLE
  5
30
102
{ACAD_REACTORS
330
2A
102
}
330
2A
100
AcDbVisualStyle
  2
3dWireframe
 70
     5
 71
     0
 72
     2
 73
     0
 90
        0
 40
-0.6
 41
-30.0
 62
     5
 63
     7
421
 16777215
 74
     1
 91
        4
 64
     7
 65
   257
 75
     1
175
     1
 42
1.0
 92
        0
 66
   257
 43
1.0
 76
     1
 77
     6
 78
     2
 67
     7
 79
     5
170
     0
171
     0
290
     0
174
     0
 93
        1
 44
0.0
173
     0
291
     0
 45
0.0
  0
VISUALSTYLE
  5
32
102
{ACAD_REACTORS
330
2A
102
}
330
2A
100
AcDbVisualStyle
  2
Basic
 70
     7
 71
     1
 72
     0
 73
     1
 90
        0
 40
-0.6
 41
-30.0
 62
     5
 63
     7
421
 16777215
 74
     0
 91
        4
 64
     7
 65
   257
 75
     1
175
     1
 42
1.0
 92
        8
 66
     7
 43
1.0
 76
     1
 77
     6
 78
     2
 67
     7
 79
     5
170
     0
171
     0
290
     0
174
     0
 93
        1
 44
0.0
173
     0
291
     1
 45
0.0
  0
VISUALSTYLE
  5
36
102
{ACAD_REACTORS
330
2A
102
}
330
2A
100
AcDbVisualStyle
  2
Brighten
 70
    12
 71
     2
 72
     2
 73
     0
 90
        0
 40
-0.6
 41
-30.0
 62
     5
 63
     7
421
 16777215
 74
     1
 91
        4
 64
     7
 65
   257
 75
     1
175
     1
 42
1.0
 92
        8
 66
     7
 43
1.0
 76
     1
 77
     6
 78
     2
 67
     7
 79
     5
170
     0
171
     0
290
     0
174
     0
 93
        1
 44
50.0
173
     0
291
     1
 45
0.0
  0
VISUALSTYLE
  5
3A
102
{ACAD_REACTORS
330
2A
102
}
330
2A
100
AcDbVisualStyle
  2
ColorChange
 70
    16
 71
     2
 72
     2
 73
     3
 90
        0
 40
-0.6
 41
-30.0
 62
     5
 63
     8
421
  8421504
 74
     1
 91
        4
 64
     7
 65
   257
 75
     1
175
     1
 42
1.0
 92
        8
 66
     8
424
  8421504
 43
1.0
 76
     1
 77
     6
 78
     2
 67
     7
 79
     5
170
     0
171
     0
290
     0
174
     0
 93
        1
 44
0.0
173
     0
291
     1
 45
0.0
  0
VISUALSTYLE
  5
34
102
{ACAD_REACTORS
330
2A
102
}
330
2A
100
AcDbVisualStyle
  2
Conceptual
 70
     9
 71
     3
 72
     2
 73
     0
 90
        0
 40
-0.6
 41
-30.0
 62
     5
 63
     7
421
 16777215
 74
     2
 91
        2
 64
     7
 65
   257
 75
     1
175
     1
 42
40.0
 92
        8
 66
     7
 43
1.0
 76
     1
 77
     6
 78
     2
 67
     7
 79
     3
170
     0
171
     0
290
     0
174
     0
 93
        1
 44
0.0
173
     0
291
     0
 45
0.0
  0
VISUALSTYLE
  5
35
102
{ACAD_REACTORS
330
2A
102
}
330
2A
100
AcDbVisualStyle
  2
Dim
 70
    11
 71
     2
 72
     2
 73
     0
 90
        0
 40
-0.6
 41
-30.0
 62
     5
 63
     7
421
 16777215
 74
     1
 91
        4
 64
     7
 65
   257
 75
     1
175
     1
 42
1.0
 92
        8
 66
     7
 43
1.0
 76
     1
 77
     6
 78
     2
 67
     7
 79
     5
170
     0
171
     0
290
     0
174
     0
 93
        1
 44
-50.0
173
     0
291
     1
 45
0.0
  0
VISUALSTYLE
  5
39
102
{ACAD_REACTORS
330
2A
102
}
330
2A
100
AcDbVisualStyle
  2
Facepattern
 70
    15
 71
     2
 72
     2
 73
     0
 90
        0
 40
-0.6
 41
-30.0
 62
     5
 63
     7
421
 16777215
 74
     1
 91
        4
 64
     7
 65
   257
 75
     1
175
     1
 42
1.0
 92
        8
 66
     7
 43
1.0
 76
     1
 77
     6
 78
     2
 67
     7
 79
     5
170
     0
171
     0
290
     0
174
     0
 93
        1
 44
0.0
173
     0
291
     1
 45
0.0
  0
VISUALSTYLE
  5
2B
102
{ACAD_REACTORS
330
2A
102
}
330
2A
100
AcDbVisualStyle
  2
Flat
 70
     0
 71
     2
 72
     1
 73
     1
 90
        2
 40
-0.6
 41
30.0
 62
     5
 63
     7
421
 16777215
 74
     0
 91
        4
 64
     7
 65
   257
 75
     1
175
     1
 42
1.0
 92
        8
 66
     7
 43
1.0
 76
     1
 77
     6
 78
     2
 67
     7
 79
     5
170
     0
171
     0
290
     0
174
     0
 93
       13
 44
0.0
173
     0
291
     1
 45
0.0
  0
VISUALSTYLE
  5
2C
102
{ACAD_REACTORS
330
2A
102
}
330
2A
100
AcDbVisualStyle
  2
FlatWithEdges
 70
     1
 71
     2
 72
     1
 73
     1
 90
        2
 40
-0.6
 41
30.0
 62
     5
 63
     7
421
 16777215
 74
     1
 91
        4
 64
     7
 65
   257
 75
     1
175
     1
 42
1.0
 92
        0
 66
   257
 43
1.0
 76
     1
 77
     6
 78
     2
 67
     7
 79
     5
170
     0
171
     0
290
     0
174
     0
 93
       13
 44
0.0
173
     0
291
     1
 45
0.0
  0
VISUALSTYLE
  5
2D
102
{ACAD_REACTORS
330
2A
102
}
330
2A
100
AcDbVisualStyle
  2
Gouraud
 70
     2
 71
     2
 72
     2
 73
     1
 90
        2
 40
-0.6
 41
30.0
 62
     5
 63
     7
421
 16777215
 74
     0
 91
        4
 64
     7
 65
   257
 75
     1
175
     1
 42
1.0
 92
        0
 66
     7
 43
1.0
 76
     1
 77
     6
 78
     2
 67
     7
 79
     5
170
     0
171
     0
290
     0
174
     0
 93
       13
 44
0.0
173
     0
291
     1
 45
0.0
  0
VISUALSTYLE
  5
2E
102
{ACAD_REACTORS
330
2A
102
}
330
2A
100
AcDbVisualStyle
  2
GouraudWithEdges
 70
     3
 71
     2
 72
     2
 73
     1
 90
        2
 40
-0.6
 41
30.0
 62
     5
 63
     7
421
 16777215
 74
     1
 91
        4
 64
     7
 65
   257
 75
     1
175
     1
 42
1.0
 92
        0
 66
   257
 43
1.0
 76
     1
 77
     6
 78
     2
 67
     7
 79
     5
170
     0
171
     0
290
     0
174
     0
 93
       13
 44
0.0
173
     0
291
     1
 45
0.0
  0
VISUALSTYLE
  5
38
102
{ACAD_REACTORS
330
2A
102
}
330
2A
100
AcDbVisualStyle
  2
Linepattern
 70
    14
 71
     2
 72
     2
 73
     0
 90
        0
 40
-0.6
 41
-30.0
 62
     5
 63
     7
421
 16777215
 74
     1
 91
        4
 64
     7
 65
   257
 75
     7
175
     7
 42
1.0
 92
        8
 66
     7
 43
1.0
 76
     1
 77
     6
 78
     2
 67
     7
 79
     5
170
     0
171
     0
290
     0
174
     0
 93
        1
 44
0.0
173
     0
291
     1
 45
0.0
  0
VISUALSTYLE
  5
33
102
{ACAD_REACTORS
330
2A
102
}
330
2A
100
AcDbVisualStyle
  2
Realistic
 70
     8
 71
     2
 72
     2
 73
     0
 90
        0
 40
-0.6
 41
-30.0
 62
     5
 63
     7
421
 16777215
 74
     1
 91
        0
 64
     7
 65
   257
 75
     1
175
     1
 42
1.0
 92
        8
 66
     8
424
  7895160
 43
1.0
 76
     1
 77
     6
 78
     2
 67
     7
 79
     5
170
     0
171
     0
290
     0
174
     0
 93
       13
 44
0.0
173
     0
291
     0
 45
0.0
  0
VISUALSTYLE
  5
37
102
{ACAD_REACTORS
330
2A
102
}
330
2A
100
AcDbVisualStyle
  2
Thicken
 70
    13
 71
     2
 72
     2
 73
     0
 90
        0
 40
-0.6
 41
-30.0
 62
     5
 63
     7
421
 16777215
 74
     1
 91
        4
 64
     7
 65
   257
 75
     1
175
     1
 42
1.0
 92
       12
 66
     7
 43
1.0
 76
     1
 77
     6
 78
     2
 67
     7
 79
     5
170
     0
171
     0
290
     0
174
     0
 93
        1
 44
0.0
173
     0
291
     1
 45
0.0
  0
ENDSEC
  0
EOF
