  0
SECTION
  2
HEADER
  9
$ACADVER
  1
AC1021
  9
$ACADMAINTVER
 70
    25
  9
$DWGCODEPAGE
  3
ANSI_1252
  9
$INSBASE
 10
0.0
 20
0.0
 30
0.0
  9
$EXTMIN
 10
0.0
 20
0.0
 30
0.0
  9
$EXTMAX
 10
297.0
 20
210.0
 30
0.0
  9
$LIMMIN
 10
0.0
 20
0.0
  9
$LIMMAX
 10
297.0
 20
210.0
  9
$ORTHOMODE
 70
     0
  9
$REGENMODE
 70
     1
  9
$FILLMODE
 70
     1
  9
$QTEXTMODE
 70
     0
  9
$MIRRTEXT
 70
     1
  9
$LTSCALE
 40
1.0
  9
$ATTMODE
 70
     1
  9
$TEXTSIZE
 40
3.5
  9
$TRACEWID
 40
1.0
  9
$TEXTSTYLE
  7
Standard
  9
$CLAYER
  8
0
  9
$CELTYPE
  6
ByLayer
  9
$CECOLOR
 62
   256
  9
$CELTSCALE
 40
1.0
  9
$DISPSILH
 70
     0
  9
$DIMSCALE
 40
1.0
  9
$DIMASZ
 40
3.302
  9
$DIMEXO
 40
1.0
  9
$DIMDLI
 40
3.75
  9
$DIMRND
 40
0.0
  9
$DIMDLE
 40
0.0
  9
$DIMEXE
 40
1.0
  9
$DIMTP
 40
0.0
  9
$DIMTM
 40
0.0
  9
$DIMTXT
 40
3.5
  9
$DIMCEN
 40
2.5
  9
$DIMTSZ
 40
0.0
  9
$DIMTOL
 70
     0
  9
$DIMLIM
 70
     0
  9
$DIMTIH
 70
     1
  9
$DIMTOH
 70
     1
  9
$DIMSE1
 70
     0
  9
$DIMSE2
 70
     0
  9
$DIMTAD
 70
     1
  9
$DIMZIN
 70
     0
  9
$DIMBLK
  1

  9
$DIMASO
 70
     1
  9
$DIMSHO
 70
     1
  9
$DIMPOST
  1

  9
$DIMAPOST
  1

  9
$DIMALT
 70
     0
  9
$DIMALTD
 70
     3
  9
$DIMALTF
 40
0.0393700787
  9
$DIMLFAC
 40
1.0
  9
$DIMTOFL
 70
     1
  9
$DIMTVP
 40
0.0
  9
$DIMTIX
 70
     0
  9
$DIMSOXD
 70
     0
  9
$DIMSAH
 70
     0
  9
$DIMBLK1
  1

  9
$DIMBLK2
  1

  9
$DIMSTYLE
  2
ISO-25
  9
$DIMCLRD
 70
     0
  9
$DIMCLRE
 70
     0
  9
$DIMCLRT
 70
     0
  9
$DIMTFAC
 40
1.0
  9
$DIMGAP
 40
1.524
  9
$DIMJUST
 70
     0
  9
$DIMSD1
 70
     0
  9
$DIMSD2
 70
     0
  9
$DIMTOLJ
 70
     0
  9
$DIMTZIN
 70
     0
  9
$DIMALTZ
 70
     0
  9
$DIMALTTZ
 70
     0
  9
$DIMUPT
 70
     0
  9
$DIMDEC
 70
     2
  9
$DIMTDEC
 70
     2
  9
$DIMALTU
 70
     2
  9
$DIMALTTD
 70
     3
  9
$DIMTXSTY
  7
Standard
  9
$DIMAUNIT
 70
     0
  9
$DIMADEC
 70
     2
  9
$DIMALTRND
 40
0.0
  9
$DIMAZIN
 70
     0
  9
$DIMDSEP
 70
    44
  9
$DIMATFIT
 70
     3
  9
$DIMFRAC
 70
     0
  9
$DIMLDRBLK
  1

  9
$DIMLUNIT
 70
     2
  9
$DIMLWD
 70
    -2
  9
$DIMLWE
 70
    -2
  9
$DIMTMOVE
 70
     0
  9
$DIMFXL
 40
1.0
  9
$DIMFXLON
 70
     0
  9
$DIMJOGANG
 40
0.7853981634
  9
$DIMTFILL
 70
     0
  9
$DIMTFILLCLR
 70
     0
  9
$DIMARCSYM
 70
     0
  9
$DIMLTYPE
  6

  9
$DIMLTEX1
  6

  9
$DIMLTEX2
  6

  9
$LUNITS
 70
     2
  9
$LUPREC
 70
     2
  9
$SKETCHINC
 40
1.0
  9
$FILLETRAD
 40
10.0
  9
$AUNITS
 70
     0
  9
$AUPREC
 70
     2
  9
$MENU
  1
.
  9
$ELEVATION
 40
0.0
  9
$PELEVATION
 40
0.0
  9
$THICKNESS
 40
0.0
  9
$LIMCHECK
 70
     0
  9
$CHAMFERA
 40
10.0
  9
$CHAMFERB
 40
10.0
  9
$CHAMFERC
 40
20.0
  9
$CHAMFERD
 40
0.0
  9
$SKPOLY
 70
     0
  9
$TDCREATE
 40
2456510.364326331
  9
$TDUCREATE
 40
2456510.280992998
  9
$TDUPDATE
 40
2456510.364326864
  9
$TDUUPDATE
 40
2456510.28099353
  9
$TDINDWG
 40
0.0000000116
  9
$TDUSRTIMER
 40
0.0000000116
  9
$USRTIMER
 70
     1
  9
$ANGBASE
 50
0.0
  9
$ANGDIR
 70
     0
  9
$PDMODE
 70
     0
  9
$PDSIZE
 40
-1.0
  9
$PLINEWID
 40
0.0
  9
$SPLFRAME
 70
     0
  9
$SPLINETYPE
 70
     6
  9
$SPLINESEGS
 70
     8
  9
$HANDSEED
  5
105
  9
$SURFTAB1
 70
     6
  9
$SURFTAB2
 70
     6
  9
$SURFTYPE
 70
     6
  9
$SURFU
 70
     6
  9
$SURFV
 70
     6
  9
$UCSBASE
  2

  9
$UCSNAME
  2

  9
$UCSORG
 10
0.0
 20
0.0
 30
0.0
  9
$UCSXDIR
 10
1.0
 20
0.0
 30
0.0
  9
$UCSYDIR
 10
0.0
 20
1.0
 30
0.0
  9
$UCSORTHOREF
  2

  9
$UCSORTHOVIEW
 70
     0
  9
$UCSORGTOP
 10
0.0
 20
0.0
 30
0.0
  9
$UCSORGBOTTOM
 10
0.0
 20
0.0
 30
0.0
  9
$UCSORGLEFT
 10
0.0
 20
0.0
 30
0.0
  9
$UCSORGRIGHT
 10
0.0
 20
0.0
 30
0.0
  9
$UCSORGFRONT
 10
0.0
 20
0.0
 30
0.0
  9
$UCSORGBACK
 10
0.0
 20
0.0
 30
0.0
  9
$PUCSBASE
  2

  9
$PUCSNAME
  2

  9
$PUCSORG
 10
0.0
 20
0.0
 30
0.0
  9
$PUCSXDIR
 10
1.0
 20
0.0
 30
0.0
  9
$PUCSYDIR
 10
0.0
 20
1.0
 30
0.0
  9
$PUCSORTHOREF
  2

  9
$PUCSORTHOVIEW
 70
     0
  9
$PUCSORGTOP
 10
0.0
 20
0.0
 30
0.0
  9
$PUCSORGBOTTOM
 10
0.0
 20
0.0
 30
0.0
  9
$PUCSORGLEFT
 10
0.0
 20
0.0
 30
0.0
  9
$PUCSORGRIGHT
 10
0.0
 20
0.0
 30
0.0
  9
$PUCSORGFRONT
 10
0.0
 20
0.0
 30
0.0
  9
$PUCSORGBACK
 10
0.0
 20
0.0
 30
0.0
  9
$USERI1
 70
     0
  9
$USERI2
 70
     0
  9
$USERI3
 70
     0
  9
$USERI4
 70
     0
  9
$USERI5
 70
     0
  9
$USERR1
 40
0.0
  9
$USERR2
 40
0.0
  9
$USERR3
 40
0.0
  9
$USERR4
 40
0.0
  9
$USERR5
 40
0.0
  9
$WORLDVIEW
 70
     1
  9
$SHADEDGE
 70
     3
  9
$SHADEDIF
 70
    70
  9
$TILEMODE
 70
     1
  9
$MAXACTVP
 70
    64
  9
$PINSBASE
 10
0.0
 20
0.0
 30
0.0
  9
$PLIMCHECK
 70
     0
  9
$PEXTMIN
 10
1.0000000000E+20
 20
1.0000000000E+20
 30
1.0000000000E+20
  9
$PEXTMAX
 10
-1.0000000000E+20
 20
-1.0000000000E+20
 30
-1.0000000000E+20
  9
$PLIMMIN
 10
0.0
 20
0.0
  9
$PLIMMAX
 10
420.0
 20
297.0
  9
$UNITMODE
 70
     0
  9
$VISRETAIN
 70
     1
  9
$PLINEGEN
 70
     0
  9
$PSLTSCALE
 70
     1
  9
$TREEDEPTH
 70
  3020
  9
$CMLSTYLE
  2
Standard
  9
$CMLJUST
 70
     0
  9
$CMLSCALE
 40
20.0
  9
$PROXYGRAPHICS
 70
     1
  9
$MEASUREMENT
 70
     1
  9
$CELWEIGHT
370
    -1
  9
$ENDCAPS
280
     0
  9
$JOINSTYLE
280
     0
  9
$LWDISPLAY
290
     1
  9
$INSUNITS
 70
     4
  9
$HYPERLINKBASE
  1

  9
$STYLESHEET
  1

  9
$XEDIT
290
     1
  9
$CEPSNTYPE
380
     0
  9
$PSTYLEMODE
290
     1
  9
$FINGERPRINTGUID
  2
{E6DF339A-0AE1-4340-9AFF-A60DC638B7B4}
  9
$VERSIONGUID
  2
{FAEB1C32-E019-11D5-929B-00C0DF256EC4}
  9
$EXTNAMES
290
     1
  9
$PSVPSCALE
 40
0.0
  9
$OLESTARTUP
290
     0
  9
$SORTENTS
280
   127
  9
$INDEXCTL
280
     0
  9
$HIDETEXT
280
     1
  9
$XCLIPFRAME
290
     0
  9
$HALOGAP
280
     0
  9
$OBSCOLOR
 70
   257
  9
$OBSLTYPE
280
     0
  9
$INTERSECTIONDISPLAY
280
     0
  9
$INTERSECTIONCOLOR
 70
   257
  9
$DIMASSOC
280
     2
  9
$PROJECTNAME
  1

  9
$CAMERADISPLAY
290
     0
  9
$LENSLENGTH
 40
50.0
  9
$CAMERAHEIGHT
 40
0.0
  9
$STEPSPERSEC
 40
2.0
  9
$STEPSIZE
 40
6.0
  9
$3DDWFPREC
 40
2.0
  9
$PSOLWIDTH
 40
5.0
  9
$PSOLHEIGHT
 40
80.0
  9
$LOFTANG1
 40
1.5707963268
  9
$LOFTANG2
 40
1.5707963268
  9
$LOFTMAG1
 40
0.0
  9
$LOFTMAG2
 40
0.0
  9
$LOFTPARAM
 70
     7
  9
$LOFTNORMALS
280
     1
  9
$LATITUDE
 40
37.795
  9
$LONGITUDE
 40
-122.394
  9
$NORTHDIRECTION
 40
0.0
  9
$TIMEZONE
 70
 -8000
  9
$LIGHTGLYPHDISPLAY
280
     1
  9
$TILEMODELIGHTSYNCH
280
     1
  9
$SOLIDHIST
280
     1
  9
$SHOWHIST
280
     1
  9
$DWFFRAME
280
     2
  9
$DGNFRAME
280
     2
  9
$REALWORLDSCALE
290
     1
  9
$INTERFERECOLOR
 62
   256
  9
$CSHADOW
280
     0
  9
$SHADOWPLANELOCATION
 40
0.0
  0
ENDSEC
  0
SECTION
  2
CLASSES
  0
CLASS
  1
ACDBDICTIONARYWDFLT
  2
AcDbDictionaryWithDefault
  3
ObjectDBX Classes
 90
        0
 91
        4
280
     0
281
     0
  0
CLASS
  1
VISUALSTYLE
  2
AcDbVisualStyle
  3
ObjectDBX Classes
 90
     4095
 91
        4
280
     0
281
     0
  0
CLASS
  1
MATERIAL
  2
AcDbMaterial
  3
ObjectDBX Classes
 90
     1153
 91
        4
280
     0
281
     0
  0
ENDSEC
  0
SECTION
  2
TABLES
  0
TABLE
  2
VPORT
  5
8
330
0
100
AcDbSymbolTable
 70
     1
  0
VPORT
  5
29
330
8
100
AcDbSymbolTableRecord
100
AcDbViewportTableRecord
  2
*Active
 70
     0
 10
0.0
 20
0.0
 11
1.0
 21
1.0
 12
148.5
 22
105.0
 13
0.0
 23
0.0
 14
10.0
 24
10.0
 15
10.0
 25
10.0
 16
0.0
 26
0.0
 36
1.0
 17
0.0
 27
0.0
 37
0.0
 40
210.0
 41
1.4142857143
 42
50.0
 43
0.0
 44
0.0
 50
0.0
 51
0.0
 71
     0
 72
  2000
 73
     1
 74
     3
 75
     0
 76
     0
 77
     0
 78
     0
281
     0
 65
     1
110
0.0
120
0.0
130
0.0
111
1.0
121
0.0
131
0.0
112
0.0
122
1.0
132
0.0
 79
     0
146
0.0
 60
     3
 61
     5
292
     1
282
     1
141
0.0
142
0.0
 63
   250
  0
ENDTAB
  0
TABLE
  2
LTYPE
  5
5
330
0
100
AcDbSymbolTable
 70
     8
  0
LTYPE
  5
14
330
5
100
AcDbSymbolTableRecord
100
AcDbLinetypeTableRecord
  2
ByBlock
 70
     0
  3

 72
    65
 73
     0
 40
0.0
  0
LTYPE
  5
15
330
5
100
AcDbSymbolTableRecord
100
AcDbLinetypeTableRecord
  2
ByLayer
 70
     0
  3

 72
    65
 73
     0
 40
0.0
  0
LTYPE
  5
16
330
5
100
AcDbSymbolTableRecord
100
AcDbLinetypeTableRecord
  2
Continuous
 70
     0
  3
Solid line
 72
    65
 73
     0
 40
0.0
  0
LTYPE
  5
3F
330
5
100
AcDbSymbolTableRecord
100
AcDbLinetypeTableRecord
  2
SLD-Durchgehend
 70
     0
  3
SolidWorks Line Style
 72
    65
 73
     0
 40
0.0
  0
LTYPE
  5
40
330
5
100
AcDbSymbolTableRecord
100
AcDbLinetypeTableRecord
  2
SLD-Gestrichelt
 70
     0
  3
SolidWorks Line Style
 72
    65
 73
     2
 40
1.905
 49
1.27
 74
     0
 49
-0.635
 74
     0
  0
LTYPE
  5
41
330
5
100
AcDbSymbolTableRecord
100
AcDbLinetypeTableRecord
  2
SLD-Phantom
 70
     0
  3
SolidWorks Line Style
 72
    65
 73
     6
 40
12.7
 49
6.35
 74
     0
 49
-1.27
 74
     0
 49
1.27
 74
     0
 49
-1.27
 74
     0
 49
1.27
 74
     0
 49
-1.27
 74
     0
  0
LTYPE
  5
42
330
5
100
AcDbSymbolTableRecord
100
AcDbLinetypeTableRecord
  2
SLD-Kette
 70
     0
  3
SolidWorks Line Style
 72
    65
 73
     4
 40
10.16
 49
6.35
 74
     0
 49
-1.27
 74
     0
 49
1.27
 74
     0
 49
-1.27
 74
     0
  0
LTYPE
  5
43
330
5
100
AcDbSymbolTableRecord
100
AcDbLinetypeTableRecord
  2
SLD-Punktstrich
 70
     0
  3
SolidWorks Line Style
 72
    65
 73
     4
 40
19.05
 49
15.24
 74
     0
 49
-1.27
 74
     0
 49
1.27
 74
     0
 49
-1.27
 74
     0
  0
LTYPE
  5
44
330
5
100
AcDbSymbolTableRecord
100
AcDbLinetypeTableRecord
  2
SLD-Naht
 70
     0
  3
SolidWorks Line Style
 72
    65
 73
     2
 40
0.635
 49
0.0
 74
     0
 49
-0.635
 74
     0
  0
LTYPE
  5
45
330
5
100
AcDbSymbolTableRecord
100
AcDbLinetypeTableRecord
  2
SLD-Dicke-Dünne-Kette
 70
     0
  3
SolidWorks Line Style
 72
    65
 73
     4
 40
10.16
 49
6.35
 74
     0
 49
-1.27
 74
     0
 49
1.27
 74
     0
 49
-1.27
 74
     0
  0
ENDTAB
  0
TABLE
  2
LAYER
  5
2
330
0
100
AcDbSymbolTable
 70
     3
  0
LAYER
  5
10
330
2
100
AcDbSymbolTableRecord
100
AcDbLayerTableRecord
  2
0
 70
     0
 62
     7
  6
Continuous
370
    -3
390
F
347
3E
  0
LAYER
  5
46
330
2
100
AcDbSymbolTableRecord
100
AcDbLayerTableRecord
  2
1
 70
     0
 62
     4
  6
Continuous
370
    -1
390
F
347
3E
  0
LAYER
  5
47
330
2
100
AcDbSymbolTableRecord
100
AcDbLayerTableRecord
  2
2
 70
     0
 62
     7
  6
SLD-Durchgehend
370
    -3
390
F
347
3E
  0
ENDTAB
  0
TABLE
  2
STYLE
  5
3
330
0
100
AcDbSymbolTable
 70
     2
  0
STYLE
  5
11
330
3
100
AcDbSymbolTableRecord
100
AcDbTextStyleTableRecord
  2
Standard
 70
     0
 40
0.0
 41
1.0
 50
0.0
 71
     0
 42
3.5
  3
txt
  4

  0
STYLE
  5
7C
330
3
100
AcDbSymbolTableRecord
100
AcDbTextStyleTableRecord
  2
SLDTEXTSTYLE0
 70
     0
 40
0.0
 41
0.75
 50
0.0
 71
     0
 42
0.2
  3
TXT
  4

  0
ENDTAB
  0
TABLE
  2
VIEW
  5
6
330
0
100
AcDbSymbolTable
 70
     0
  0
ENDTAB
  0
TABLE
  2
UCS
  5
7
330
0
100
AcDbSymbolTable
 70
     0
  0
ENDTAB
  0
TABLE
  2
APPID
  5
9
330
0
100
AcDbSymbolTable
 70
     1
  0
APPID
  5
12
330
9
100
AcDbSymbolTableRecord
100
AcDbRegAppTableRecord
  2
ACAD
 70
     0
  0
ENDTAB
  0
TABLE
  2
DIMSTYLE
  5
A
330
0
100
AcDbSymbolTable
 70
     4
100
AcDbDimStyleTable
  0
DIMSTYLE
105
27
330
A
100
AcDbSymbolTableRecord
100
AcDbDimStyleTableRecord
  2
ISO-25
 70
     0
 41
2.5
 42
0.625
 43
3.75
 44
1.25
 73
     0
 74
     0
 77
     1
 78
     8
140
2.5
141
2.5
143
0.0393700787
147
0.625
171
     3
172
     1
178
     0
271
     2
272
     2
274
     3
278
    44
283
     0
284
     8
340
11
  0
DIMSTYLE
105
7D
102
{ACAD_REACTORS
330
7B
330
EB
330
F7
102
}
330
A
100
AcDbSymbolTableRecord
100
AcDbDimStyleTableRecord
  2
SLDDIMSTYLE0
 70
     0
 41
3.302
 44
0.0
 45
0.000000001
 73
     0
 74
     0
 77
     1
 78
    12
 79
     3
140
3.5
147
0.875
172
     1
173
     1
178
     0
271
     2
272
     2
276
     2
284
    12
289
     0
340
7C
  0
DIMSTYLE
105
8A
102
{ACAD_REACTORS
330
89
102
}
330
A
100
AcDbSymbolTableRecord
100
AcDbDimStyleTableRecord
  2
SLDDIMSTYLE1
 70
     0
 41
3.302
 44
0.0
 45
0.000000001
 73
     0
 74
     0
 77
     1
 78
    12
 79
     3
140
3.5
141
0.0
147
0.875
172
     1
173
     1
178
     0
271
     2
272
     2
276
     2
284
    12
340
7C
341
8B
343
8B
  0
DIMSTYLE
105
98
102
{ACAD_REACTORS
330
97
330
A2
330
AC
102
}
330
A
100
AcDbSymbolTableRecord
100
AcDbDimStyleTableRecord
  2
SLDDIMSTYLE2
 70
     0
 41
3.302
 44
0.0
 45
0.000000001
 73
     0
 74
     0
 77
     1
 78
    12
 79
     3
140
3.5
147
0.875
173
     1
178
     0
271
     2
272
     2
276
     2
284
    12
340
7C
  0
ENDTAB
  0
TABLE
  2
BLOCK_RECORD
  5
1
330
0
100
AcDbSymbolTable
 70
    10
  0
BLOCK_RECORD
  5
1F
330
1
100
AcDbSymbolTableRecord
100
AcDbBlockTableRecord
  2
*Model_Space
340
22
 70
     0
280
     1
281
     0
  0
BLOCK_RECORD
  5
1B
330
1
100
AcDbSymbolTableRecord
100
AcDbBlockTableRecord
  2
*Paper_Space
340
1E
 70
     0
280
     1
281
     0
  0
BLOCK_RECORD
  5
23
330
1
100
AcDbSymbolTableRecord
100
AcDbBlockTableRecord
  2
*Paper_Space0
340
26
 70
     0
280
     1
281
     0
  0
BLOCK_RECORD
  5
7E
330
1
100
AcDbSymbolTableRecord
100
AcDbBlockTableRecord
  2
_D
340
0
 70
     0
280
     1
281
     0
  0
BLOCK_RECORD
  5
8B
330
1
100
AcDbSymbolTableRecord
100
AcDbBlockTableRecord
  2
_NONE
340
0
 70
     0
280
     1
281
     0
  0
BLOCK_RECORD
  5
8E
330
1
100
AcDbSymbolTableRecord
100
AcDbBlockTableRecord
  2
_D_1
340
0
 70
     0
280
     1
281
     0
  0
BLOCK_RECORD
  5
99
330
1
100
AcDbSymbolTableRecord
100
AcDbBlockTableRecord
  2
_D_2
340
0
 70
     0
280
     1
281
     0
  0
BLOCK_RECORD
  5
A3
330
1
100
AcDbSymbolTableRecord
100
AcDbBlockTableRecord
  2
_D_3
340
0
 70
     0
280
     1
281
     0
  0
BLOCK_RECORD
  5
AD
330
1
100
AcDbSymbolTableRecord
100
AcDbBlockTableRecord
  2
_D_4
340
0
 70
     0
280
     1
281
     0
  0
BLOCK_RECORD
  5
B6
330
1
100
AcDbSymbolTableRecord
100
AcDbBlockTableRecord
  2
SW_CENTERMARKSYMBOL_0
340
0
102
{BLKREFS
331
C1
102
}
 70
     0
280
     1
281
     0
  0
BLOCK_RECORD
  5
EC
330
1
100
AcDbSymbolTableRecord
100
AcDbBlockTableRecord
  2
_D_5
340
0
 70
     0
280
     1
281
     0
  0
BLOCK_RECORD
  5
F8
330
1
100
AcDbSymbolTableRecord
100
AcDbBlockTableRecord
  2
_D_6
340
0
 70
     0
280
     1
281
     0
  0
ENDTAB
  0
ENDSEC
  0
SECTION
  2
BLOCKS
  0
BLOCK
  5
20
330
1F
100
AcDbEntity
  8
0
100
AcDbBlockBegin
  2
*Model_Space
 70
     0
 10
0.0
 20
0.0
 30
0.0
  3
*Model_Space
  1

  0
ENDBLK
  5
21
330
1F
100
AcDbEntity
  8
0
100
AcDbBlockEnd
  0
BLOCK
  5
1C
330
1B
100
AcDbEntity
 67
     1
  8
0
100
AcDbBlockBegin
  2
*Paper_Space
 70
     0
 10
0.0
 20
0.0
 30
0.0
  3
*Paper_Space
  1

  0
ENDBLK
  5
1D
330
1B
100
AcDbEntity
 67
     1
  8
0
100
AcDbBlockEnd
  0
BLOCK
  5
24
330
23
100
AcDbEntity
  8
0
100
AcDbBlockBegin
  2
*Paper_Space0
 70
     0
 10
0.0
 20
0.0
 30
0.0
  3
*Paper_Space0
  1

  0
ENDBLK
  5
25
330
23
100
AcDbEntity
  8
0
100
AcDbBlockEnd
  0
BLOCK
  5
7F
330
7E
100
AcDbEntity
  8
0
100
AcDbBlockBegin
  2
_D
 70
     0
 10
0.0
 20
0.0
 30
0.0
  3
_D
  1

  0
SOLID
  5
81
330
7E
100
AcDbEntity
  8
2
 62
     7
420
 16777215
100
AcDbTrace
 10
-32.5018778547
 20
-29.0001637776
 30
0.0
 11
-35.8038778547
 21
-28.4921637776
 31
0.0
 12
-35.8038778547
 22
-29.5081637776
 32
0.0
 13
-35.8038778547
 23
-29.5081637776
 33
0.0
  0
SOLID
  5
82
330
7E
100
AcDbEntity
  8
2
 62
     7
420
 16777215
100
AcDbTrace
 10
-19.5018778547
 20
-29.0001637776
 30
0.0
 11
-16.1998778547
 21
-29.5081637776
 31
0.0
 12
-16.1998778547
 22
-28.4921637776
 32
0.0
 13
-16.1998778547
 23
-28.4921637776
 33
0.0
  0
LINE
  5
83
330
7E
100
AcDbEntity
  8
2
 62
     7
420
 16777215
100
AcDbLine
 10
-32.5018778547
 20
4.9998362224
 30
0.0
 11
-32.5018778547
 21
-30.0001637776
 31
0.0
  0
LINE
  5
84
330
7E
100
AcDbEntity
  8
2
 62
     7
420
 16777215
100
AcDbLine
 10
-19.5018778547
 20
-20.0001637776
 30
0.0
 11
-19.5018778547
 21
-30.0001637776
 31
0.0
  0
LINE
  5
85
330
7E
100
AcDbEntity
  8
2
 62
     7
420
 16777215
100
AcDbLine
 10
-32.5018778547
 20
-29.0001637776
 30
0.0
 11
-38.8518778547
 21
-29.0001637776
 31
0.0
  0
LINE
  5
86
330
7E
100
AcDbEntity
  8
2
 62
     7
420
 16777215
100
AcDbLine
 10
-32.5018778547
 20
-29.0001637776
 30
0.0
 11
-19.5018778547
 21
-29.0001637776
 31
0.0
  0
LINE
  5
87
330
7E
100
AcDbEntity
  8
2
 62
     7
420
 16777215
100
AcDbLine
 10
-19.5018778547
 20
-29.0001637776
 30
0.0
 11
-13.1518778547
 21
-29.0001637776
 31
0.0
  0
MTEXT
  5
88
330
7E
100
AcDbEntity
  8
2
 62
     7
420
 16777215
100
AcDbMText
 10
-30.0098641358
 20
-24.488426863
 30
5.4997908101
 40
3.5
 41
0.0
 46
0.0
 71
     1
 72
     1
  1
13
  7
SLDTEXTSTYLE0
 73
     1
 44
1.0
  0
ENDBLK
  5
80
330
7E
100
AcDbEntity
  8
0
100
AcDbBlockEnd
  0
BLOCK
  5
8C
330
8B
100
AcDbEntity
  8
0
100
AcDbBlockBegin
  2
_NONE
 70
     0
 10
0.0
 20
0.0
 30
0.0
  3
_NONE
  1

  0
ENDBLK
  5
8D
330
8B
100
AcDbEntity
  8
0
100
AcDbBlockEnd
  0
BLOCK
  5
8F
330
8E
100
AcDbEntity
  8
0
100
AcDbBlockBegin
  2
_D_1
 70
     0
 10
0.0
 20
0.0
 30
0.0
  3
_D_1
  1

  0
ARC
  5
91
330
8E
100
AcDbEntity
  8
2
 62
     7
420
 16777215
100
AcDbCircle
 10
-57.0018778547
 20
5.9998362224
 30
0.0
 40
37.50000000000001
100
AcDbArc
 50
350.3363996253
 51
136.5275254422
  0
SOLID
  5
92
330
8E
100
AcDbEntity
  8
2
 62
     7
420
 16777215
100
AcDbTrace
 10
-83.5183821492
 20
32.5163405169
 30
0.0
 11
-85.4940384958
 21
35.2104173533
 31
0.0
 12
-86.2124589855
 22
34.4919968636
 32
0.0
 13
-86.2124589855
 23
34.4919968636
 33
0.0
  0
LINE
  5
93
330
8E
100
AcDbEntity
  8
2
 62
     7
420
 16777215
100
AcDbLine
 10
-83.5183821492
 20
32.5163405169
 30
0.0
 11
-100.3514394612
 21
49.349397829
 31
0.0
  0
LINE
  5
94
330
8E
100
AcDbEntity
  8
2
 62
     7
420
 16777215
100
AcDbLine
 10
-83.5183821492
 20
32.5163405169
 30
0.0
 11
-30.4853735602
 21
-20.5166680721
 31
0.0
  0
MTEXT
  5
95
330
8E
100
AcDbEntity
  8
2
 62
     7
420
 16777215
100
AcDbMText
 10
-97.163759028
 20
52.5370782621
 30
5.4997908101
 40
3.5
 41
0.0
 46
0.0
 71
     1
 72
     1
  1
%%c
  7
SLDTEXTSTYLE0
 11
0.7071067811865426
 21
-0.7071067811865526
 31
0.0
 73
     1
 44
1.0
  0
MTEXT
  5
96
330
8E
100
AcDbEntity
  8
2
 62
     7
420
 16777215
100
AcDbMText
 10
-93.3935296109
 20
48.8424699224
 30
5.4997908101
 40
3.5
 41
0.0
 46
0.0
 71
     1
 72
     1
  1
75
  7
SLDTEXTSTYLE0
 11
0.7071067811865426
 21
-0.7071067811865526
 31
0.0
 73
     1
 44
1.0
  0
ENDBLK
  5
90
330
8E
100
AcDbEntity
  8
0
100
AcDbBlockEnd
  0
BLOCK
  5
9A
330
99
100
AcDbEntity
  8
0
100
AcDbBlockBegin
  2
_D_2
 70
     0
 10
0.0
 20
0.0
 30
0.0
  3
_D_2
  1

  0
SOLID
  5
9C
330
99
100
AcDbEntity
  8
2
 62
     7
420
 16777215
100
AcDbTrace
 10
5.4981221453
 20
-35.0001637776
 30
0.0
 11
2.1961221453
 21
-34.4921637776
 31
0.0
 12
2.1961221453
 22
-35.5081637776
 32
0.0
 13
2.1961221453
 23
-35.5081637776
 33
0.0
  0
SOLID
  5
9D
330
99
100
AcDbEntity
  8
2
 62
     7
420
 16777215
100
AcDbTrace
 10
-32.5018778547
 20
-35.0001637776
 30
0.0
 11
-29.1998778547
 21
-35.5081637776
 31
0.0
 12
-29.1998778547
 22
-34.4921637776
 32
0.0
 13
-29.1998778547
 23
-34.4921637776
 33
0.0
  0
LINE
  5
9E
330
99
100
AcDbEntity
  8
2
 62
     7
420
 16777215
100
AcDbLine
 10
5.4981221453
 20
-15.0001637776
 30
0.0
 11
5.4981221453
 21
-36.0001637776
 31
0.0
  0
LINE
  5
9F
330
99
100
AcDbEntity
  8
2
 62
     7
420
 16777215
100
AcDbLine
 10
-32.5018778547
 20
4.9998362224
 30
0.0
 11
-32.5018778547
 21
-36.0001637776
 31
0.0
  0
LINE
  5
A0
330
99
100
AcDbEntity
  8
2
 62
     7
420
 16777215
100
AcDbLine
 10
5.4981221453
 20
-35.0001637776
 30
0.0
 11
-32.5018778547
 21
-35.0001637776
 31
0.0
  0
MTEXT
  5
A1
330
99
100
AcDbEntity
  8
2
 62
     7
420
 16777215
100
AcDbMText
 10
-17.5098641358
 20
-30.488426863
 30
5.4997908101
 40
3.5
 41
0.0
 46
0.0
 71
     1
 72
     1
  1
38
  7
SLDTEXTSTYLE0
 73
     1
 44
1.0
  0
ENDBLK
  5
9B
330
99
100
AcDbEntity
  8
0
100
AcDbBlockEnd
  0
BLOCK
  5
A4
330
A3
100
AcDbEntity
  8
0
100
AcDbBlockBegin
  2
_D_3
 70
     0
 10
0.0
 20
0.0
 30
0.0
  3
_D_3
  1

  0
SOLID
  5
A6
330
A3
100
AcDbEntity
  8
2
 62
     7
420
 16777215
100
AcDbTrace
 10
-41.7018778547
 20
-19.0001637776
 30
0.0
 11
-41.1938778547
 21
-15.6981637776
 31
0.0
 12
-42.2098778547
 22
-15.6981637776
 32
0.0
 13
-42.2098778547
 23
-15.6981637776
 33
0.0
  0
SOLID
  5
A7
330
A3
100
AcDbEntity
  8
2
 62
     7
420
 16777215
100
AcDbTrace
 10
-41.7018778547
 20
5.9998362224
 30
0.0
 11
-42.2098778547
 21
2.6978362224
 31
0.0
 12
-41.1938778547
 22
2.6978362224
 32
0.0
 13
-41.1938778547
 23
2.6978362224
 33
0.0
  0
LINE
  5
A8
330
A3
100
AcDbEntity
  8
2
 62
     7
420
 16777215
100
AcDbLine
 10
-20.5018778547
 20
-19.0001637776
 30
0.0
 11
-42.7018778547
 21
-19.0001637776
 31
0.0
  0
LINE
  5
A9
330
A3
100
AcDbEntity
  8
2
 62
     7
420
 16777215
100
AcDbLine
 10
-33.5018778547
 20
5.9998362224
 30
0.0
 11
-42.7018778547
 21
5.9998362224
 31
0.0
  0
LINE
  5
AA
330
A3
100
AcDbEntity
  8
2
 62
     7
420
 16777215
100
AcDbLine
 10
-41.7018778547
 20
-19.0001637776
 30
0.0
 11
-41.7018778547
 21
5.9998362224
 31
0.0
  0
MTEXT
  5
AB
330
A3
100
AcDbEntity
  8
2
 62
     7
420
 16777215
100
AcDbMText
 10
-46.2136147693
 20
-10.5081500586
 30
5.4997908101
 40
3.5
 41
0.0
 46
0.0
 71
     1
 72
     1
  1
25
  7
SLDTEXTSTYLE0
 11
6.123233995736766E-17
 21
1.0
 31
0.0
 73
     1
 44
1.0
  0
ENDBLK
  5
A5
330
A3
100
AcDbEntity
  8
0
100
AcDbBlockEnd
  0
BLOCK
  5
AE
330
AD
100
AcDbEntity
  8
0
100
AcDbBlockBegin
  2
_D_4
 70
     0
 10
0.0
 20
0.0
 30
0.0
  3
_D_4
  1

  0
SOLID
  5
B0
330
AD
100
AcDbEntity
  8
2
 62
     7
420
 16777215
100
AcDbTrace
 10
-47.7018778547
 20
-19.0001637776
 30
0.0
 11
-47.1938778547
 21
-15.6981637776
 31
0.0
 12
-48.2098778547
 22
-15.6981637776
 32
0.0
 13
-48.2098778547
 23
-15.6981637776
 33
0.0
  0
SOLID
  5
B1
330
AD
100
AcDbEntity
  8
2
 62
     7
420
 16777215
100
AcDbTrace
 10
-47.7018778547
 20
10.9998362224
 30
0.0
 11
-48.2098778547
 21
7.6978362224
 31
0.0
 12
-47.1938778547
 22
7.6978362224
 32
0.0
 13
-47.1938778547
 23
7.6978362224
 33
0.0
  0
LINE
  5
B2
330
AD
100
AcDbEntity
  8
2
 62
     7
420
 16777215
100
AcDbLine
 10
-20.5018778547
 20
-19.0001637776
 30
0.0
 11
-48.7018778547
 21
-19.0001637776
 31
0.0
  0
LINE
  5
B3
330
AD
100
AcDbEntity
  8
2
 62
     7
420
 16777215
100
AcDbLine
 10
-18.9498470686
 20
10.9998362224
 30
0.0
 11
-48.7018778547
 21
10.9998362224
 31
0.0
  0
LINE
  5
B4
330
AD
100
AcDbEntity
  8
2
 62
     7
420
 16777215
100
AcDbLine
 10
-47.7018778547
 20
-19.0001637776
 30
0.0
 11
-47.7018778547
 21
10.9998362224
 31
0.0
  0
MTEXT
  5
B5
330
AD
100
AcDbEntity
  8
2
 62
     7
420
 16777215
100
AcDbMText
 10
-52.2136147693
 20
-8.0081500586
 30
5.4997908101
 40
3.5
 41
0.0
 46
0.0
 71
     1
 72
     1
  1
30
  7
SLDTEXTSTYLE0
 11
-1.608122649676637E-16
 21
1.0
 31
0.0
 73
     1
 44
1.0
  0
ENDBLK
  5
AF
330
AD
100
AcDbEntity
  8
0
100
AcDbBlockEnd
  0
BLOCK
  5
B7
330
B6
100
AcDbEntity
  8
0
100
AcDbBlockBegin
  2
SW_CENTERMARKSYMBOL_0
 70
     0
 10
0.0
 20
0.0
 30
0.0
  3
SW_CENTERMARKSYMBOL_0
  1

  0
LINE
  5
B9
330
B6
100
AcDbEntity
  8
0
  6
SLD-Punktstrich
 62
     0
370
    15
100
AcDbLine
 10
0.0
 20
0.0
 30
0.0
 11
0.0
 21
2.5
 31
0.0
  0
LINE
  5
BA
330
B6
100
AcDbEntity
  8
0
  6
SLD-Punktstrich
 62
     0
370
    15
100
AcDbLine
 10
0.0
 20
0.0
 30
0.0
 11
-2.5
 21
0.0
 31
0.0
  0
LINE
  5
BB
330
B6
100
AcDbEntity
  8
0
  6
SLD-Punktstrich
 62
     0
370
    15
100
AcDbLine
 10
0.0
 20
0.0
 30
0.0
 11
0.0
 21
-2.5
 31
0.0
  0
LINE
  5
BC
330
B6
100
AcDbEntity
  8
0
  6
SLD-Punktstrich
 62
     0
370
    15
100
AcDbLine
 10
0.0
 20
0.0
 30
0.0
 11
2.5
 21
0.0
 31
0.0
  0
LINE
  5
BD
330
B6
100
AcDbEntity
  8
0
  6
SLD-Punktstrich
 62
     0
370
    15
100
AcDbLine
 10
0.0
 20
2.5
 30
0.0
 11
0.0
 21
5.0
 31
0.0
  0
LINE
  5
BE
330
B6
100
AcDbEntity
  8
0
  6
SLD-Punktstrich
 62
     0
370
    15
100
AcDbLine
 10
-2.5
 20
0.0
 30
0.0
 11
-5.0
 21
0.0
 31
0.0
  0
LINE
  5
BF
330
B6
100
AcDbEntity
  8
0
  6
SLD-Punktstrich
 62
     0
370
    15
100
AcDbLine
 10
0.0
 20
-2.5
 30
0.0
 11
0.0
 21
-5.0
 31
0.0
  0
LINE
  5
C0
330
B6
100
AcDbEntity
  8
0
  6
SLD-Punktstrich
 62
     0
370
    15
100
AcDbLine
 10
2.5
 20
0.0
 30
0.0
 11
5.0
 21
0.0
 31
0.0
  0
ENDBLK
  5
B8
330
B6
100
AcDbEntity
  8
0
100
AcDbBlockEnd
  0
BLOCK
  5
ED
330
EC
100
AcDbEntity
  8
0
100
AcDbBlockBegin
  2
_D_5
 70
     0
 10
0.0
 20
0.0
 30
0.0
  3
_D_5
  1

  0
SOLID
  5
EF
330
EC
100
AcDbEntity
  8
2
 62
     7
420
 16777215
100
AcDbTrace
 10
15.4981221453
 20
-57.1150005157
 30
0.0
 11
16.0061221453
 21
-53.8130005157
 31
0.0
 12
14.9901221453
 22
-53.8130005157
 32
0.0
 13
14.9901221453
 23
-53.8130005157
 33
0.0
  0
SOLID
  5
F0
330
EC
100
AcDbEntity
  8
2
 62
     7
420
 16777215
100
AcDbTrace
 10
15.4981221453
 20
-63.0150005157
 30
0.0
 11
14.9901221453
 21
-66.3170005157
 31
0.0
 12
16.0061221453
 22
-66.3170005157
 32
0.0
 13
16.0061221453
 23
-66.3170005157
 33
0.0
  0
LINE
  5
F1
330
EC
100
AcDbEntity
  8
2
 62
     7
420
 16777215
100
AcDbLine
 10
6.4981221453
 20
-57.1150005157
 30
0.0
 11
16.4981221453
 21
-57.1150005157
 31
0.0
  0
LINE
  5
F2
330
EC
100
AcDbEntity
  8
2
 62
     7
420
 16777215
100
AcDbLine
 10
6.4981221453
 20
-63.0150005157
 30
0.0
 11
16.4981221453
 21
-63.0150005157
 31
0.0
  0
LINE
  5
F3
330
EC
100
AcDbEntity
  8
2
 62
     7
420
 16777215
100
AcDbLine
 10
15.4981221453
 20
-57.1150005157
 30
0.0
 11
15.4981221453
 21
-50.7650005157
 31
0.0
  0
LINE
  5
F4
330
EC
100
AcDbEntity
  8
2
 62
     7
420
 16777215
100
AcDbLine
 10
15.4981221453
 20
-57.1150005157
 30
0.0
 11
15.4981221453
 21
-63.0150005157
 31
0.0
  0
LINE
  5
F5
330
EC
100
AcDbEntity
  8
2
 62
     7
420
 16777215
100
AcDbLine
 10
15.4981221453
 20
-63.0150005157
 30
0.0
 11
15.4981221453
 21
-81.1313201445
 31
0.0
  0
MTEXT
  5
F6
330
EC
100
AcDbEntity
  8
2
 62
     7
420
 16777215
100
AcDbMText
 10
10.9863852307
 20
-81.1313201445
 30
1.1735079227
 40
3.5
 41
0.0
 46
0.0
 71
     1
 72
     1
  1
5,90
  7
SLDTEXTSTYLE0
 11
-7.044195017643634E-15
 21
1.0
 31
0.0
 73
     1
 44
1.0
  0
ENDBLK
  5
EE
330
EC
100
AcDbEntity
  8
0
100
AcDbBlockEnd
  0
BLOCK
  5
F9
330
F8
100
AcDbEntity
  8
0
100
AcDbBlockBegin
  2
_D_6
 70
     0
 10
0.0
 20
0.0
 30
0.0
  3
_D_6
  1

  0
SOLID
  5
FB
330
F8
100
AcDbEntity
  8
2
 62
     7
420
 16777215
100
AcDbTrace
 10
-41.7018778547
 20
-57.1150005157
 30
0.0
 11
-41.1938778547
 21
-53.8130005157
 31
0.0
 12
-42.2098778547
 22
-53.8130005157
 32
0.0
 13
-42.2098778547
 23
-53.8130005157
 33
0.0
  0
SOLID
  5
FC
330
F8
100
AcDbEntity
  8
2
 62
     7
420
 16777215
100
AcDbTrace
 10
-41.7018778547
 20
-59.1150005157
 30
0.0
 11
-42.2098778547
 21
-62.4170005157
 31
0.0
 12
-41.1938778547
 22
-62.4170005157
 32
0.0
 13
-41.1938778547
 23
-62.4170005157
 33
0.0
  0
LINE
  5
FD
330
F8
100
AcDbEntity
  8
2
 62
     7
420
 16777215
100
AcDbLine
 10
-32.7018778547
 20
-57.1150005157
 30
0.0
 11
-42.7018778547
 21
-57.1150005157
 31
0.0
  0
LINE
  5
FE
330
F8
100
AcDbEntity
  8
2
 62
     7
420
 16777215
100
AcDbLine
 10
-32.7018778547
 20
-59.1150005157
 30
0.0
 11
-42.7018778547
 21
-59.1150005157
 31
0.0
  0
LINE
  5
FF
330
F8
100
AcDbEntity
  8
2
 62
     7
420
 16777215
100
AcDbLine
 10
-41.7018778547
 20
-57.1150005157
 30
0.0
 11
-41.7018778547
 21
-45.4639587543
 31
0.0
  0
LINE
  5
100
330
F8
100
AcDbEntity
  8
2
 62
     7
420
 16777215
100
AcDbLine
 10
-41.7018778547
 20
-57.1150005157
 30
0.0
 11
-41.7018778547
 21
-59.1150005157
 31
0.0
  0
LINE
  5
101
330
F8
100
AcDbEntity
  8
2
 62
     7
420
 16777215
100
AcDbLine
 10
-41.7018778547
 20
-59.1150005157
 30
0.0
 11
-41.7018778547
 21
-65.4650005157
 31
0.0
  0
MTEXT
  5
102
330
F8
100
AcDbEntity
  8
2
 62
     7
420
 16777215
100
AcDbMText
 10
-46.2136147693
 20
-50.89381989
 30
1.1735079227
 40
3.5
 41
0.0
 46
0.0
 71
     1
 72
     1
  1
2
  7
SLDTEXTSTYLE0
 11
-7.932373437343760E-15
 21
1.0
 31
0.0
 73
     1
 44
1.0
  0
ENDBLK
  5
FA
330
F8
100
AcDbEntity
  8
0
100
AcDbBlockEnd
  0
ENDSEC
  0
SECTION
  2
ENTITIES
  0
LINE
  5
48
330
1F
100
AcDbEntity
  8
0
  6
SLD-Punktstrich
 62
     7
100
AcDbLine
 10
5.4981221453
 20
-0.0001637776
 30
0.0
 11
-32.5018778547
 21
-0.0001637776
 31
0.0
  0
POINT
  5
49
330
1F
100
AcDbEntity
  8
1
 62
     4
420
    65535
100
AcDbPoint
 10
5.4981221453
 20
-0.0001637776
 30
0.0
  0
POINT
  5
4A
330
1F
100
AcDbEntity
  8
1
 62
     4
420
    65535
100
AcDbPoint
 10
-32.5018778547
 20
-0.0001637776
 30
0.0
  0
POINT
  5
4B
330
1F
100
AcDbEntity
  8
1
 62
     4
420
    65535
100
AcDbPoint
 10
-32.5018778547
 20
-0.0001637776
 30
0.0
  0
POINT
  5
4C
330
1F
100
AcDbEntity
  8
1
 62
     4
420
    65535
100
AcDbPoint
 10
-31.7018778547
 20
-0.0001637776
 30
0.0
  0
POINT
  5
4D
330
1F
100
AcDbEntity
  8
1
 62
     4
420
    65535
100
AcDbPoint
 10
-32.5018778547
 20
5.9998362224
 30
0.0
  0
LINE
  5
4E
330
1F
100
AcDbEntity
  8
1
 62
     4
420
    65535
100
AcDbLine
 10
-19.2807006568
 20
-1.2137916853
 30
0.0
 11
-31.7018778547
 21
2.1144527139
 31
0.0
  0
LINE
  5
4F
330
1F
100
AcDbEntity
  8
1
 62
     4
420
    65535
100
AcDbLine
 10
-27.9337938401
 20
5.2478425569
 30
0.0
 11
-18.5726597033
 21
2.7395342247
 31
0.0
  0
LINE
  5
50
330
1F
100
AcDbEntity
  8
1
 62
     4
420
    65535
100
AcDbLine
 10
-19.5018778547
 20
5.9998362224
 30
0.0
 11
-19.5018778547
 21
9.5211520689
 31
0.0
  0
ARC
  5
51
330
1F
100
AcDbEntity
  8
1
 62
     4
420
    65535
100
AcDbCircle
 10
-32.5018778547
 20
24.7198362224
 30
0.0
 40
20.00000000000001
100
AcDbArc
 50
310.5416018735
 51
316.6856976853
  0
LINE
  5
52
330
1F
100
AcDbEntity
  8
1
 62
     4
420
    65535
100
AcDbLine
 10
-3.5018778547
 20
10.9998362224
 30
0.0
 11
-17.9498470686
 21
10.9998362224
 31
0.0
  0
LINE
  5
53
330
1F
100
AcDbEntity
  8
1
 62
     4
420
    65535
100
AcDbLine
 10
-3.5018778547
 20
5.9997743398
 30
0.0
 11
-3.5018778547
 21
10.9998362224
 31
0.0
  0
LINE
  5
54
330
1F
100
AcDbEntity
  8
1
 62
     4
420
    65535
100
AcDbLine
 10
5.4981221453
 20
5.0538362224
 30
0.0
 11
-3.5018778547
 21
5.9997743398
 31
0.0
  0
LINE
  5
55
330
1F
100
AcDbEntity
  8
1
 62
     4
420
    65535
100
AcDbLine
 10
5.4981221453
 20
-14.0001637776
 30
0.0
 11
5.4981221453
 21
5.0538362224
 31
0.0
  0
LINE
  5
56
330
1F
100
AcDbEntity
  8
1
 62
     4
420
    65535
100
AcDbLine
 10
-19.5018778547
 20
-14.0001637776
 30
0.0
 11
5.4981221453
 21
-14.0001637776
 31
0.0
  0
LINE
  5
57
330
1F
100
AcDbEntity
  8
1
 62
     4
420
    65535
100
AcDbLine
 10
-19.5018778547
 20
-19.0001637776
 30
0.0
 11
-19.5018778547
 21
-14.0001637776
 31
0.0
  0
LINE
  5
58
330
1F
100
AcDbEntity
  8
1
 62
     4
420
    65535
100
AcDbLine
 10
-26.5018778547
 20
-19.0001637776
 30
0.0
 11
-19.5018778547
 21
-19.0001637776
 31
0.0
  0
LINE
  5
59
330
1F
100
AcDbEntity
  8
1
 62
     4
420
    65535
100
AcDbLine
 10
-26.5018778547
 20
-19.0001637776
 30
0.0
 11
-26.5018778547
 21
-15.8175880068
 31
0.0
  0
ARC
  5
5A
330
1F
100
AcDbEntity
  8
1
 62
     4
420
    65535
100
AcDbCircle
 10
-57.0018778547
 20
5.9998362224
 30
0.0
 40
37.50000000000001
100
AcDbArc
 50
324.4228974489
 51
348.808874183
  0
LINE
  5
5B
330
1F
100
AcDbEntity
  8
1
 62
     4
420
    65535
100
AcDbLine
 10
-20.2149318302
 20
-1.2782543369
 30
0.0
 11
-19.7747460471
 21
-1.396201762
 31
0.0
  0
LINE
  5
5C
330
1F
100
AcDbEntity
  8
1
 62
     4
420
    65535
100
AcDbLine
 10
-19.7747460471
 20
-1.396201762
 30
0.0
 11
-19.2814703118
 21
-1.216664077
 31
0.0
  0
LINE
  5
5D
330
1F
100
AcDbEntity
  8
1
 62
     4
420
    65535
100
AcDbLine
 10
-19.2814703118
 20
-1.216664077
 30
0.0
 11
-17.0470646341
 21
1.8587315008
 31
0.0
  0
LINE
  5
5E
330
1F
100
AcDbEntity
  8
1
 62
     4
420
    65535
100
AcDbLine
 10
-17.0470646341
 20
1.8587315008
 30
0.0
 11
-19.5900741974
 21
3.3269387568
 31
0.0
  0
LINE
  5
5F
330
1F
100
AcDbEntity
  8
1
 62
     4
420
    65535
100
AcDbLine
 10
-19.5900741974
 20
3.3269387568
 30
0.0
 11
-19.5971226518
 21
3.3288273844
 31
0.0
  0
ARC
  5
60
330
1F
100
AcDbEntity
  8
1
 62
     4
420
    65535
100
AcDbCircle
 10
-57.0018778547
 20
5.9998362224
 30
0.0
 40
37.5
100
AcDbArc
 50
355.9155405351
 51
0.0
  0
CIRCLE
  5
61
330
1F
100
AcDbEntity
  8
1
 62
     4
420
    65535
100
AcDbCircle
 10
-15.5018778547
 20
-8.5001637776
 30
0.0
 40
2.5
  0
CIRCLE
  5
62
330
1F
100
AcDbEntity
  8
1
 62
     4
420
    65535
100
AcDbCircle
 10
-10.2518778547
 20
5.4998362224
 30
0.0
 40
2.500000000000001
  0
CIRCLE
  5
63
330
1F
100
AcDbEntity
  8
1
 62
     4
420
    65535
100
AcDbCircle
 10
-0.0018778547
 20
-0.0001637776
 30
0.0
 40
2.5
  0
LINE
  5
64
330
1F
100
AcDbEntity
  8
1
 62
     4
420
    65535
100
AcDbLine
 10
-19.5018778547
 20
5.9998362224
 30
0.0
 11
-21.5018778547
 21
5.9998362224
 31
0.0
  0
LINE
  5
65
330
1F
100
AcDbEntity
  8
1
 62
     4
420
    65535
100
AcDbLine
 10
-21.5018778547
 20
5.9998362224
 30
0.0
 11
-21.5018778547
 21
8.0165431339
 31
0.0
  0
SPLINE
  5
66
330
1F
100
AcDbEntity
  8
1
 62
     4
420
    65535
100
AcDbSpline
210
0.0
220
0.0
230
1.0
 70
     8
 71
     3
 72
    20
 73
    16
 74
     0
 42
0.00000001
 43
0.00000001
 12
1.0
 22
0.0
 32
0.0
 13
1.0
 23
0.0
 33
0.0
 40
0.0
 40
0.0
 40
0.0
 40
0.0
 40
0.2500000000000017
 40
0.2500000000000017
 40
0.3750000000000014
 40
0.3750000000000014
 40
0.5000000000000011
 40
0.5000000000000011
 40
0.6250000000000009
 40
0.6250000000000009
 40
0.7500000000000006
 40
0.7500000000000006
 40
0.8750000000000003
 40
0.8750000000000003
 40
1.0
 40
1.0
 40
1.0
 40
1.0
 10
-21.50187785469032
 20
8.016543133948252
 30
0.0
 10
-21.25390439791292
 20
8.179846741811724
 30
0.0
 10
-21.01626219385559
 20
8.344248559028939
 30
0.0
 10
-20.67402161133375
 20
8.591549695528666
 30
0.0
 10
-20.56252102161328
 20
8.673993552217073
 30
0.0
 10
-20.35246090912055
 20
8.832452030327318
 30
0.0
 10
-20.25281508975435
 20
8.909247174254618
 30
0.0
 10
-20.06486199292292
 20
9.05666600935457
 30
0.0
 10
-19.97580250546469
 20
9.127921135527483
 30
0.0
 10
-19.81760475480174
 20
9.256343872410827
 30
0.0
 10
-19.74769160587695
 20
9.314101080415854
 30
0.0
 10
-19.62931680742008
 20
9.41287328984234
 30
0.0
 10
-19.58277738549449
 20
9.452269356355773
 30
0.0
 10
-19.51893206645917
 20
9.506523841390976
 30
0.0
 10
-19.50187785469032
 20
9.521152068867655
 30
0.0
 10
-19.50187785469032
 20
9.521152068867655
 30
0.0
  0
SPLINE
  5
67
330
1F
100
AcDbEntity
  8
1
 62
     4
420
    65535
100
AcDbSpline
210
0.0
220
0.0
230
1.0
 70
     8
 71
     3
 72
    18
 73
    14
 74
     0
 42
0.00000001
 43
0.00000001
 12
1.0
 22
0.0
 32
0.0
 13
1.0
 23
0.0
 33
0.0
 40
0.0
 40
0.0
 40
0.0
 40
0.0
 40
0.1250000000000001
 40
0.1250000000000001
 40
0.2500000000000002
 40
0.2500000000000002
 40
0.3750000000000002
 40
0.3750000000000002
 40
0.5000000000000003
 40
0.5000000000000003
 40
0.7500000000000001
 40
0.7500000000000001
 40
1.0
 40
1.0
 40
1.0
 40
1.0
 10
-26.50187785469031
 20
-15.81758800683308
 30
0.0
 10
-26.50187785469031
 20
-15.81758800683308
 30
0.0
 10
-26.51551515456897
 20
-15.81321379255529
 30
0.0
 10
-26.56879951798867
 20
-15.79610766326521
 30
0.0
 10
-26.60918759610594
 20
-15.78313749691542
 30
0.0
 10
-26.7133314038887
 20
-15.74964493801922
 30
0.0
 10
-26.77686334734713
 20
-15.72919470863328
 30
0.0
 10
-26.92648308026417
 20
-15.68094118388703
 30
0.0
 10
-27.01221228211452
 20
-15.65325199326985
 30
0.0
 10
-27.2919548851246
 20
-15.56269068464378
 30
0.0
 10
-27.51436292085974
 20
-15.49042281249069
 30
0.0
 10
-27.98921249124917
 20
-15.33518989432319
 30
0.0
 10
-28.24821496314397
 20
-15.25005817538115
 30
0.0
 10
-28.50187785469032
 20
-15.16617426607838
 30
0.0
  0
ARC
  5
68
330
1F
100
AcDbEntity
  8
1
 62
     4
420
    65535
100
AcDbCircle
 10
-57.0018778547
 20
5.9998362224
 30
0.0
 40
35.50000000000001
100
AcDbArc
 50
323.3999448609
 51
349.0238026462
  0
SPLINE
  5
69
330
1F
100
AcDbEntity
  8
1
 62
     4
420
    65535
100
AcDbSpline
210
0.0
220
0.0
230
1.0
 70
    24
 71
     3
 72
    20
 73
    16
 74
     0
 42
0.00000001
 43
0.00000001
 12
1.0
 22
0.0
 32
0.0
 13
1.0
 23
0.0
 33
0.0
 40
0.0
 40
0.0
 40
0.0
 40
0.0
 40
0.1249999999999998
 40
0.1249999999999998
 40
0.2499999999999997
 40
0.2499999999999997
 40
0.3749999999999995
 40
0.3749999999999995
 40
0.4999999999999993
 40
0.4999999999999993
 40
0.6249999999999991
 40
0.6249999999999991
 40
0.749999999999999
 40
0.749999999999999
 40
1.0
 40
1.0
 40
1.0
 40
1.0
 10
-22.15130181247125
 20
-0.7594055638500061
 30
0.0
 10
-22.02462243862432
 20
-0.7933491997699692
 30
0.0
 10
-21.89693185154853
 20
-0.8275637894579861
 30
0.0
 10
-21.64984154795393
 20
-0.8937714367637201
 30
0.0
 10
-21.52902358718755
 20
-0.9261445117822454
 30
0.0
 10
-21.29306763121462
 20
-0.9893687196345085
 30
0.0
 10
-21.18157715490352
 20
-1.019242502725829
 30
0.0
 10
-20.97190564460373
 20
-1.07542381458647
 30
0.0
 10
-20.87264173397384
 20
-1.102021499277305
 30
0.0
 10
-20.69303021157559
 20
-1.150148261655241
 30
0.0
 10
-20.61298334816838
 20
-1.171596754061846
 30
0.0
 10
-20.47219560496975
 20
-1.209320716156118
 30
0.0
 10
-20.41129296501589
 20
-1.22563952934868
 30
0.0
 10
-20.26593518426429
 20
-1.264588029314654
 30
0.0
 10
-20.21493183017327
 20
-1.27825433685462
 30
0.0
 10
-20.21493183017327
 20
-1.27825433685462
 30
0.0
  0
LINE
  5
6A
330
1F
100
AcDbEntity
  8
1
 62
     4
420
    65535
100
AcDbLine
 10
-28.5018778547
 20
-19.0001637776
 30
0.0
 11
-28.5018778547
 21
-15.1661742661
 31
0.0
  0
LINE
  5
6B
330
1F
100
AcDbEntity
  8
1
 62
     4
420
    65535
100
AcDbLine
 10
-26.5018778547
 20
-19.0001637776
 30
0.0
 11
-28.5018778547
 21
-19.0001637776
 31
0.0
  0
ARC
  5
6C
330
1F
100
AcDbEntity
  8
1
 62
     4
420
    65535
100
AcDbCircle
 10
-57.0018778547
 20
5.9998362224
 30
0.0
 40
35.50000000000001
100
AcDbArc
 50
356.538716
 51
0.0
  0
SPLINE
  5
6D
330
1F
100
AcDbEntity
  8
1
 62
     4
420
    65535
100
AcDbSpline
210
0.0
220
0.0
230
1.0
 70
    24
 71
     3
 72
    17
 73
    13
 74
     0
 42
0.00000001
 43
0.00000001
 12
1.0
 22
0.0
 32
0.0
 13
1.0
 23
0.0
 33
0.0
 40
0.0
 40
0.0
 40
0.0
 40
0.0
 40
0.0127561660279336
 40
0.1078850143884657
 40
0.2194309348152503
 40
0.3341733431092934
 40
0.4464778554746832
 40
0.5619377670369363
 40
0.6761069237487306
 40
0.7934722182608327
 40
0.8956320319595756
 40
1.0
 40
1.0
 40
1.0
 40
1.0
 10
-19.61300439912669
 20
3.33308288578479
 30
0.0
 10
-19.61375486284672
 20
3.33328397193252
 30
0.0
 10
-19.62010189447485
 20
3.334984653931617
 30
0.0
 10
-19.67159031179915
 20
3.348780933773213
 30
0.0
 10
-19.77675790743044
 20
3.376960506092544
 30
0.0
 10
-19.94072127009135
 20
3.420894356705824
 30
0.0
 10
-20.1494444560416
 20
3.476821565822845
 30
0.0
 10
-20.3963622176295
 20
3.542982980637227
 30
0.0
 10
-20.67855134609147
 20
3.618595329721451
 30
0.0
 10
-20.97319524797172
 20
3.697544925285021
 30
0.0
 10
-21.27275611290347
 20
3.777812017127451
 30
0.0
 10
-21.4679803783104
 20
3.830122201386196
 30
0.0
 10
-21.5666361607002
 20
3.856556938606201
 30
0.0
  0
LINE
  5
6E
330
1F
100
AcDbEntity
  8
1
 62
     4
420
    65535
100
AcDbLine
 10
-19.5452454238
 20
3.3010568522
 30
0.0
 11
-19.5913835603
 21
3.3134195287
 31
0.0
  0
LINE
  5
6F
330
1F
100
AcDbEntity
  8
1
 62
     4
420
    65535
100
AcDbLine
 10
-21.5793102876
 20
3.8460828898
 30
0.0
 11
-27.3545587119
 21
5.3935560412
 31
0.0
  0
ARC
  5
70
330
1F
100
AcDbEntity
  8
1
 62
     4
420
    65535
100
AcDbCircle
 10
-32.5018778547
 20
24.7198362224
 30
0.0
 40
20.00000000000002
100
AcDbArc
 50
284.9138245777
 51
303.3670129692
  0
LINE
  5
71
330
1F
100
AcDbEntity
  8
1
 62
     4
420
    65535
100
AcDbLine
 10
-31.7018778547
 20
1.8135336447
 30
0.0
 11
-22.1570409039
 21
-0.7439977081
 31
0.0
  0
LINE
  5
72
330
1F
100
AcDbEntity
  8
1
 62
     4
420
    65535
100
AcDbLine
 10
-20.2022577033
 20
-1.2677802881
 30
0.0
 11
-19.7527969342
 21
-1.3882129382
 31
0.0
  0
LINE
  5
73
330
1F
100
AcDbEntity
  8
1
 62
     4
420
    65535
100
AcDbLine
 10
-31.7018778547
 20
-19.0001637776
 30
0.0
 11
-31.7018778547
 21
1.8135336447
 31
0.0
  0
LINE
  5
74
330
1F
100
AcDbEntity
  8
1
 62
     4
420
    65535
100
AcDbLine
 10
-28.5018778547
 20
-19.0001637776
 30
0.0
 11
-31.7018778547
 21
-19.0001637776
 31
0.0
  0
LINE
  5
75
330
1F
100
AcDbEntity
  8
1
 62
     4
420
    65535
100
AcDbLine
 10
-19.3123013124
 20
-1.2278856435
 30
0.0
 11
-31.7018778547
 21
2.0918913855
 31
0.0
  0
LINE
  5
76
330
1F
100
AcDbEntity
  8
1
 62
     4
420
    65535
100
AcDbLine
 10
-31.7018778547
 20
2.0918913855
 30
0.0
 11
-31.7018778547
 21
1.8135336447
 31
0.0
  0
LINE
  5
77
330
1F
100
AcDbEntity
  8
1
 62
     4
420
    65535
100
AcDbLine
 10
-18.6455790629
 20
2.7816342366
 30
0.0
 11
-27.890327333
 21
5.2587570698
 31
0.0
  0
ARC
  5
78
330
1F
100
AcDbEntity
  8
1
 62
     4
420
    65535
100
AcDbCircle
 10
-32.5018778547
 20
24.7198362224
 30
0.0
 40
20.00000000000001
100
AcDbArc
 50
283.3310754963
 51
284.9138245777
  0
LINE
  5
79
330
1F
100
AcDbEntity
  8
1
 62
     4
420
    65535
100
AcDbLine
 10
-31.7018778547
 20
2.1144527139
 30
0.0
 11
-31.7018778547
 21
2.0918913855
 31
0.0
  0
SPLINE
  5
7A
330
1F
100
AcDbEntity
  8
1
 62
     4
420
    65535
100
AcDbSpline
210
0.0
220
0.0
230
1.0
 70
     8
 71
     3
 72
    10
 73
     6
 74
     0
 42
0.00000001
 43
0.00000001
 12
1.0
 22
0.0
 32
0.0
 13
1.0
 23
0.0
 33
0.0
 40
0.0
 40
0.0
 40
0.0
 40
0.0
 40
0.0651384074397964
 40
0.5371650746614807
 40
1.0
 40
1.0
 40
1.0
 40
1.0
 10
-27.9336033746517
 20
5.248553383624862
 30
0.0
 10
-27.93409707010348
 20
5.248437474297054
 30
0.0
 10
-27.93816833872422
 20
5.247481625894034
 30
0.0
 10
-27.92324218011271
 20
5.250976806084799
 30
0.0
 10
-27.90122679549193
 20
5.256180703802489
 30
0.0
 10
-27.89032733296363
 20
5.258757069791641
 30
0.0
  0
DIMENSION
  5
7B
330
1F
100
AcDbEntity
  8
2
 62
     7
420
 16777215
100
AcDbDimension
  2
_D
 10
-19.5018778547
 20
-29.0001637776
 30
0.0
 11
-26.0018778547
 21
-29.0001637776
 31
0.0
 70
   160
  1
<>
 71
     2
 42
-1.0
 73
     0
 74
     0
 75
     0
  3
SLDDIMSTYLE0
100
AcDbAlignedDimension
 13
-32.5018778547
 23
5.9998362224
 33
0.0
 14
-19.5018778547
 24
-19.0001637776
 34
0.0
 50
0.0
100
AcDbRotatedDimension
  0
DIMENSION
  5
89
330
1F
100
AcDbEntity
  8
2
 62
     7
420
 16777215
100
AcDbDimension
  2
_D_1
 10
-30.4853735602
 20
-20.5166680721
 30
0.0
 11
-95.7018678547
 21
44.6998462224
 31
0.0
 70
   163
  1
<>
 71
     1
 42
-1.0
 73
     0
 74
     0
 75
     0
  3
SLDDIMSTYLE1
100
AcDbDiametricDimension
 15
-83.5183821492
 25
32.5163405169
 35
0.0
 40
0.0
  0
DIMENSION
  5
97
330
1F
100
AcDbEntity
  8
2
 62
     7
420
 16777215
100
AcDbDimension
  2
_D_2
 10
-32.5018778547
 20
-35.0001637776
 30
0.0
 11
-13.5018778547
 21
-35.0001637776
 31
0.0
 70
   160
  1
<>
 71
     2
 42
-1.0
 73
     0
 74
     0
 75
     0
  3
SLDDIMSTYLE2
100
AcDbAlignedDimension
 13
5.4981221453
 23
-14.0001637776
 33
0.0
 14
-32.5018778547
 24
5.9998362224
 34
0.0
 50
0.0
100
AcDbRotatedDimension
  0
DIMENSION
  5
A2
330
1F
100
AcDbEntity
  8
2
 62
     7
420
 16777215
100
AcDbDimension
  2
_D_3
 10
-41.7018778547
 20
5.9998362224
 30
0.0
 11
-41.7018778547
 21
-6.5001637776
 31
0.0
 70
   160
  1
<>
 71
     2
 42
-1.0
 73
     0
 74
     0
 75
     0
  3
SLDDIMSTYLE2
100
AcDbAlignedDimension
 13
-19.5018778547
 23
-19.0001637776
 33
0.0
 14
-32.5018778547
 24
5.9998362224
 34
0.0
 50
90.0
100
AcDbRotatedDimension
  0
DIMENSION
  5
AC
330
1F
100
AcDbEntity
  8
2
 62
     7
420
 16777215
100
AcDbDimension
  2
_D_4
 10
-47.7018778547
 20
10.9998362224
 30
0.0
 11
-47.7018778547
 21
-4.0001637776
 31
0.0
 70
   160
  1
<>
 71
     2
 42
-1.0
 73
     0
 74
     0
 75
     0
  3
SLDDIMSTYLE2
100
AcDbAlignedDimension
 13
-19.5018778547
 23
-19.0001637776
 33
0.0
 14
-17.9498470686
 24
10.9998362224
 34
0.0
 50
90.0
100
AcDbRotatedDimension
  0
INSERT
  5
C1
330
1F
100
AcDbEntity
  8
0
  6
SLD-Punktstrich
 62
   208
420
  4194368
370
    15
100
AcDbBlockReference
  2
SW_CENTERMARKSYMBOL_0
 10
-0.0018778547
 20
-0.0001637776
 30
0.0
  0
LINE
  5
C2
330
1F
100
AcDbEntity
  8
1
 62
     4
420
    65535
100
AcDbLine
 10
-17.9498470686
 20
-57.1150005157
 30
0.0
 11
-3.5018778547
 21
-57.1150005157
 31
0.0
  0
LINE
  5
C3
330
1F
100
AcDbEntity
  8
1
 62
     4
420
    65535
100
AcDbLine
 10
-3.5018778547
 20
-57.1150005157
 30
0.0
 11
-3.5018778547
 21
-63.0150005157
 31
0.0
  0
LINE
  5
C4
330
1F
100
AcDbEntity
  8
1
 62
     4
420
    65535
100
AcDbLine
 10
-3.5018778547
 20
-63.0150005157
 30
0.0
 11
-17.9498470686
 21
-63.0150005157
 31
0.0
  0
LINE
  5
C5
330
1F
100
AcDbEntity
  8
1
 62
     4
420
    65535
100
AcDbLine
 10
-17.9498470686
 20
-63.0150005157
 30
0.0
 11
-17.9498470686
 21
-57.1150005157
 31
0.0
  0
LINE
  5
C6
330
1F
100
AcDbEntity
  8
1
 62
     4
420
    65535
100
AcDbLine
 10
-19.5018778547
 20
-63.0150005157
 30
0.0
 11
-17.9498470686
 21
-63.0150005157
 31
0.0
  0
LINE
  5
C7
330
1F
100
AcDbEntity
  8
1
 62
     4
420
    65535
100
AcDbLine
 10
-19.5018778547
 20
-61.1150005157
 30
0.0
 11
-19.5018778547
 21
-63.0150005157
 31
0.0
  0
SPLINE
  5
C8
330
1F
100
AcDbEntity
  8
1
 62
     4
420
    65535
100
AcDbSpline
210
0.0
220
0.0
230
1.0
 70
     8
 71
     3
 72
    20
 73
    16
 74
     0
 42
0.00000001
 43
0.00000001
 12
1.0
 22
0.0
 32
0.0
 13
1.0
 23
0.0
 33
0.0
 40
0.0
 40
0.0
 40
0.0
 40
0.0
 40
0.2500000000000017
 40
0.2500000000000017
 40
0.3750000000000014
 40
0.3750000000000014
 40
0.5000000000000011
 40
0.5000000000000011
 40
0.6250000000000009
 40
0.6250000000000009
 40
0.7500000000000006
 40
0.7500000000000006
 40
0.8750000000000003
 40
0.8750000000000003
 40
1.0
 40
1.0
 40
1.0
 40
1.0
 10
-21.50187785469032
 20
-59.11500051566735
 30
0.0
 10
-21.25390439791292
 20
-59.11500051566735
 30
0.0
 10
-21.01626219385559
 20
-59.15953820528582
 30
0.0
 10
-20.67402161133375
 20
-59.29029015654778
 30
0.0
 10
-20.56252102161328
 20
-59.34503556283241
 30
0.0
 10
-20.35246090912055
 20
-59.47365720016337
 30
0.0
 10
-20.25281508975435
 20
-59.54786073260509
 30
0.0
 10
-20.06486199292292
 20
-59.71819333375753
 30
0.0
 10
-19.97580250546469
 20
-59.81550982624476
 30
0.0
 10
-19.81760475480174
 20
-60.02835147002206
 30
0.0
 10
-19.74769160587695
 20
-60.14416573466464
 30
0.0
 10
-19.62931680742008
 20
-60.39861745348851
 30
0.0
 10
-19.58277738549449
 20
-60.53352119745934
 30
0.0
 10
-19.51893206645917
 20
-60.81668724189691
 30
0.0
 10
-19.50187785469032
 20
-60.96564760127056
 30
0.0
 10
-19.50187785469032
 20
-61.11500051566736
 30
0.0
  0
LINE
  5
C9
330
1F
100
AcDbEntity
  8
1
 62
     4
420
    65535
100
AcDbLine
 10
-21.5018778547
 20
-59.1150005157
 30
0.0
 11
-27.3545587119
 21
-59.1150005157
 31
0.0
  0
ELLIPSE
  5
CA
330
1F
100
AcDbEntity
  8
1
 62
     4
420
    65535
100
AcDbEllipse
 10
-32.5018778547
 20
5.5820742188
 30
0.0
 11
5.544972300838091
 21
74.6273590298032
 31
0.0
210
0.0
220
0.0
230
1.0
 40
0.2574922187
 41
3.682817272719753
 42
3.684158955498372
  0
ELLIPSE
  5
CB
330
1F
100
AcDbEntity
  8
1
 62
     4
420
    65535
100
AcDbEllipse
 10
-32.5018778547
 20
-109.3721231499
 30
0.0
 11
-5.810653360432063
 21
58.05262406294504
 31
0.0
210
0.0
220
0.0
230
1.0
 40
0.3296543744
 41
5.726764810326515
 42
5.755730675807921
  0
SPLINE
  5
CC
330
1F
100
AcDbEntity
  8
1
 62
     4
420
    65535
100
AcDbSpline
210
0.0
220
0.0
230
1.0
 70
     8
 71
     3
 72
    10
 73
     6
 74
     0
 42
0.00000001
 43
0.00000001
 12
1.0
 22
0.0
 32
0.0
 13
1.0
 23
0.0
 33
0.0
 40
0.0
 40
0.0
 40
0.0
 40
0.0
 40
0.5
 40
0.5
 40
1.0
 40
1.0
 40
1.0
 40
1.0
 10
-27.89032733296386
 20
-57.98477325388446
 30
0.0
 10
-27.91724643285357
 20
-58.02290161067908
 30
0.0
 10
-27.93505735269619
 20
-58.06784443924325
 30
0.0
 10
-27.93517988851465
 20
-58.16164937662934
 30
0.0
 10
-27.91727264205046
 20
-58.20706229780878
 30
0.0
 10
-27.89032733296363
 20
-58.24522777745015
 30
0.0
  0
ELLIPSE
  5
CD
330
1F
100
AcDbEntity
  8
1
 62
     4
420
    65535
100
AcDbEllipse
 10
-32.5018778547
 20
-6.8578778814
 30
0.0
 11
5.810653360432064
 21
58.05262406294506
 31
0.0
210
0.0
220
0.0
230
1.0
 40
0.3296543744
 41
3.669047284961524
 42
3.698013150442927
  0
ELLIPSE
  5
CE
330
1F
100
AcDbEntity
  8
1
 62
     4
420
    65535
100
AcDbEllipse
 10
-32.5018778547
 20
-121.8120752501
 30
0.0
 11
-5.544972300838091
 21
74.62735902980333
 31
0.0
210
0.0
220
0.0
230
1.0
 40
0.2574922187
 41
5.740619005271088
 42
5.741960688049708
  0
LINE
  5
CF
330
1F
100
AcDbEntity
  8
1
 62
     4
420
    65535
100
AcDbLine
 10
-27.3545587119
 20
-57.1150005157
 30
0.0
 11
-17.9498470686
 21
-57.1150005157
 31
0.0
  0
LINE
  5
D0
330
1F
100
AcDbEntity
  8
1
 62
     4
420
    65535
100
AcDbLine
 10
-19.5018778547
 20
-61.1150005157
 30
0.0
 11
-19.5971226518
 21
-61.1150005157
 31
0.0
  0
SPLINE
  5
D1
330
1F
100
AcDbEntity
  8
1
 62
     4
420
    65535
100
AcDbSpline
210
0.0
220
0.0
230
1.0
 70
     8
 71
     3
 72
    16
 73
    12
 74
     0
 42
0.00000001
 43
0.00000001
 12
1.0
 22
0.0
 32
0.0
 13
1.0
 23
0.0
 33
0.0
 40
0.0
 40
0.0
 40
0.0
 40
0.0
 40
0.0961281144804871
 40
0.1941838025128592
 40
0.3091616684615709
 40
0.4274343689690201
 40
0.5431941665374004
 40
0.6622064458145112
 40
0.7798882574456436
 40
0.9008645427980144
 40
1.0
 40
1.0
 40
1.0
 40
1.0
 10
-19.59712265181248
 20
-61.11500051566736
 30
0.0
 10
-19.60068462427181
 20
-61.02374673164724
 30
0.0
 10
-19.60787999432913
 20
-60.83940933076845
 30
0.0
 10
-19.66944150023903
 20
-60.55168700859399
 30
0.0
 10
-19.77739230536825
 20
-60.25668757918921
 30
0.0
 10
-19.94055149071925
 20
-59.9699939833923
 30
0.0
 10
-20.14949822079988
 20
-59.71251287199815
 30
0.0
 10
-20.39631987475289
 20
-59.49429497954772
 30
0.0
 10
-20.67866672704058
 20
-59.31981474837848
 30
0.0
 10
-20.96751317528569
 20
-59.19866508600154
 30
0.0
 10
-21.16586420079554
 20
-59.15913031083568
 30
0.0
 10
-21.25519891493759
 20
-59.14132436388363
 30
0.0
  0
LINE
  5
D2
330
1F
100
AcDbEntity
  8
1
 62
     4
420
    65535
100
AcDbLine
 10
-19.5971226518
 20
-63.0150005157
 30
0.0
 11
-19.5971226518
 21
-61.1150005157
 31
0.0
  0
LINE
  5
D3
330
1F
100
AcDbEntity
  8
1
 62
     4
420
    65535
100
AcDbLine
 10
-19.5971226518
 20
-63.0150005157
 30
0.0
 11
-19.5018778547
 21
-63.0150005157
 31
0.0
  0
LINE
  5
D4
330
1F
100
AcDbEntity
  8
1
 62
     4
420
    65535
100
AcDbLine
 10
5.4981221453
 20
-57.1150005157
 30
0.0
 11
5.4981221453
 21
-63.0150005157
 31
0.0
  0
LINE
  5
D5
330
1F
100
AcDbEntity
  8
1
 62
     4
420
    65535
100
AcDbLine
 10
5.4981221453
 20
-63.0150005157
 30
0.0
 11
-3.5018778547
 21
-63.0150005157
 31
0.0
  0
LINE
  5
D6
330
1F
100
AcDbEntity
  8
1
 62
     4
420
    65535
100
AcDbLine
 10
-3.5018778547
 20
-57.1150005157
 30
0.0
 11
5.4981221453
 21
-57.1150005157
 31
0.0
  0
LINE
  5
D7
330
1F
100
AcDbEntity
  8
1
 62
     4
420
    65535
100
AcDbLine
 10
-31.7018778547
 20
-57.9847732539
 30
0.0
 11
-31.7018778547
 21
-58.2452277775
 31
0.0
  0
LINE
  5
D8
330
1F
100
AcDbEntity
  8
1
 62
     4
420
    65535
100
AcDbLine
 10
-27.3286336153
 20
-57.1650005157
 30
0.0
 11
-31.7018778547
 21
-57.1650005157
 31
0.0
  0
LINE
  5
D9
330
1F
100
AcDbEntity
  8
1
 62
     4
420
    65535
100
AcDbLine
 10
-31.7018778547
 20
-57.1650005157
 30
0.0
 11
-31.7018778547
 21
-57.9847732539
 31
0.0
  0
LINE
  5
DA
330
1F
100
AcDbEntity
  8
1
 62
     4
420
    65535
100
AcDbLine
 10
-27.3286336153
 20
-59.0650005157
 30
0.0
 11
-31.7018778547
 21
-59.0650005157
 31
0.0
  0
LINE
  5
DB
330
1F
100
AcDbEntity
  8
1
 62
     4
420
    65535
100
AcDbLine
 10
-31.7018778547
 20
-58.2452277775
 30
0.0
 11
-31.7018778547
 21
-59.0650005157
 31
0.0
  0
LINE
  5
DC
330
1F
100
AcDbEntity
  8
1
 62
     4
420
    65535
100
AcDbLine
 10
-31.7018778547
 20
-57.1150005157
 30
0.0
 11
-31.7018778547
 21
-57.1650005157
 31
0.0
  0
LINE
  5
DD
330
1F
100
AcDbEntity
  8
1
 62
     4
420
    65535
100
AcDbLine
 10
-31.7018778547
 20
-57.1150005157
 30
0.0
 11
-27.3545587119
 21
-57.1150005157
 31
0.0
  0
LINE
  5
DE
330
1F
100
AcDbEntity
  8
1
 62
     4
420
    65535
100
AcDbLine
 10
-31.7018778547
 20
-59.1150005157
 30
0.0
 11
-27.3545587119
 21
-59.1150005157
 31
0.0
  0
LINE
  5
DF
330
1F
100
AcDbEntity
  8
1
 62
     4
420
    65535
100
AcDbLine
 10
-31.7018778547
 20
-59.0650005157
 30
0.0
 11
-31.7018778547
 21
-59.1150005157
 31
0.0
  0
LINE
  5
E0
330
1F
100
AcDbEntity
  8
1
 62
     4
420
    65535
100
AcDbLine
 10
-20.2149318302
 20
-61.1150005157
 30
0.0
 11
-26.5018778547
 21
-61.1150005157
 31
0.0
  0
SPLINE
  5
E1
330
1F
100
AcDbEntity
  8
1
 62
     4
420
    65535
100
AcDbSpline
210
0.0
220
0.0
230
1.0
 70
     8
 71
     3
 72
    18
 73
    14
 74
     0
 42
0.00000001
 43
0.00000001
 12
1.0
 22
0.0
 32
0.0
 13
1.0
 23
0.0
 33
0.0
 40
0.0
 40
0.0
 40
0.0
 40
0.0
 40
0.1250000000000001
 40
0.1250000000000001
 40
0.2500000000000002
 40
0.2500000000000002
 40
0.3750000000000002
 40
0.3750000000000002
 40
0.5000000000000003
 40
0.5000000000000003
 40
0.7500000000000001
 40
0.7500000000000001
 40
1.0
 40
1.0
 40
1.0
 40
1.0
 10
-26.50187785469031
 20
-61.11500051566736
 30
0.0
 10
-26.50187785469031
 20
-60.97945099380252
 30
0.0
 10
-26.51551515456897
 20
-60.84636600463309
 30
0.0
 10
-26.56879951798867
 20
-60.58489729824007
 30
0.0
 10
-26.60918759610594
 20
-60.4551201437878
 30
0.0
 10
-26.7133314038887
 20
-60.21011371973263
 30
0.0
 10
-26.77686334734713
 20
-60.09428627735202
 30
0.0
 10
-26.92648308026417
 20
-59.87578144239786
 30
0.0
 10
-27.01221228211452
 20
-59.77415660306854
 30
0.0
 10
-27.2919548851246
 20
-59.50132456554582
 30
0.0
 10
-27.51436292085974
 20
-59.35704385152448
 30
0.0
 10
-27.98921249124917
 20
-59.1649308752005
 30
0.0
 10
-28.24821496314397
 20
-59.11500051566735
 30
0.0
 10
-28.50187785469032
 20
-59.11500051566735
 30
0.0
  0
SPLINE
  5
E2
330
1F
100
AcDbEntity
  8
1
 62
     4
420
    65535
100
AcDbSpline
210
0.0
220
0.0
230
1.0
 70
     8
 71
     3
 72
    20
 73
    16
 74
     0
 42
0.00000001
 43
0.00000001
 12
1.0
 22
0.0
 32
0.0
 13
1.0
 23
0.0
 33
0.0
 40
0.0
 40
0.0
 40
0.0
 40
0.0
 40
0.1249999999999998
 40
0.1249999999999998
 40
0.2499999999999997
 40
0.2499999999999997
 40
0.3749999999999995
 40
0.3749999999999995
 40
0.4999999999999993
 40
0.4999999999999993
 40
0.6249999999999991
 40
0.6249999999999991
 40
0.749999999999999
 40
0.749999999999999
 40
1.0
 40
1.0
 40
1.0
 40
1.0
 10
-22.15130181247125
 20
-59.11500051566734
 30
0.0
 10
-22.02462243862432
 20
-59.11500051566734
 30
0.0
 10
-21.89693185154853
 20
-59.12806445202275
 30
0.0
 10
-21.64984154795393
 20
-59.1788399977486
 30
0.0
 10
-21.52902358718755
 20
-59.21648397463024
 30
0.0
 10
-21.29306763121462
 20
-59.31729812583645
 30
0.0
 10
-21.18157715490352
 20
-59.37894501341577
 30
0.0
 10
-20.97190564460373
 20
-59.52339816628296
 30
0.0
 10
-20.87264173397384
 20
-59.60730276900524
 30
0.0
 10
-20.69303021157559
 20
-59.79260833349618
 30
0.0
 10
-20.61298334816838
 20
-59.89324159159865
 30
0.0
 10
-20.47219560496975
 20
-60.1102958473031
 30
0.0
 10
-20.41129296501589
 20
-60.22772904844884
 30
0.0
 10
-20.26593518426429
 20
-60.58949493703825
 30
0.0
 10
-20.21493183017327
 20
-60.85174548255015
 30
0.0
 10
-20.21493183017327
 20
-61.11500051566736
 30
0.0
  0
LINE
  5
E3
330
1F
100
AcDbEntity
  8
1
 62
     4
420
    65535
100
AcDbLine
 10
-19.7747460471
 20
-63.0150005157
 30
0.0
 11
-19.7747460471
 21
-60.2896089427
 31
0.0
  0
LINE
  5
E4
330
1F
100
AcDbEntity
  8
1
 62
     4
420
    65535
100
AcDbLine
 10
-20.2149318302
 20
-61.1150005157
 30
0.0
 11
-20.2149318302
 21
-63.0150005157
 31
0.0
  0
LINE
  5
E5
330
1F
100
AcDbEntity
  8
1
 62
     4
420
    65535
100
AcDbLine
 10
-20.2149318302
 20
-63.0150005157
 30
0.0
 11
-19.7747460471
 21
-63.0150005157
 31
0.0
  0
LINE
  5
E6
330
1F
100
AcDbEntity
  8
1
 62
     4
420
    65535
100
AcDbLine
 10
-19.7747460471
 20
-63.0150005157
 30
0.0
 11
-19.5971226518
 21
-63.0150005157
 31
0.0
  0
LINE
  5
E7
330
1F
100
AcDbEntity
  8
1
 62
     4
420
    65535
100
AcDbLine
 10
-26.5018778547
 20
-61.1150005157
 30
0.0
 11
-26.5018778547
 21
-63.0150005157
 31
0.0
  0
LINE
  5
E8
330
1F
100
AcDbEntity
  8
1
 62
     4
420
    65535
100
AcDbLine
 10
-26.5018778547
 20
-63.0150005157
 30
0.0
 11
-20.2149318302
 21
-63.0150005157
 31
0.0
  0
LINE
  5
E9
330
1F
100
AcDbEntity
  8
1
 62
     4
420
    65535
100
AcDbLine
 10
-27.890327333
 20
-57.9847732539
 30
0.0
 11
-31.7018778547
 21
-57.9847732539
 31
0.0
  0
LINE
  5
EA
330
1F
100
AcDbEntity
  8
1
 62
     4
420
    65535
100
AcDbLine
 10
-27.890327333
 20
-58.2452277775
 30
0.0
 11
-31.7018778547
 21
-58.2452277775
 31
0.0
  0
DIMENSION
  5
EB
330
1F
100
AcDbEntity
  8
2
 62
     7
420
 16777215
100
AcDbDimension
  2
_D_5
 10
15.4981221453
 20
-63.0150005157
 30
0.0
 11
15.4981221453
 21
-75.1837507593
 31
0.0
 70
   160
  1
<>
 71
     2
 42
-1.0
 73
     0
 74
     0
 75
     0
  3
SLDDIMSTYLE0
100
AcDbAlignedDimension
 13
5.4981221453
 23
-57.1150005157
 33
0.0
 14
5.4981221453
 24
-63.0150005157
 34
0.0
 50
90.0
100
AcDbRotatedDimension
  0
DIMENSION
  5
F7
330
1F
100
AcDbEntity
  8
2
 62
     7
420
 16777215
100
AcDbDimension
  2
_D_6
 10
-41.7018778547
 20
-59.1150005157
 30
0.0
 11
-41.7018778547
 21
-48.1788893221
 31
0.0
 70
   160
  1
<>
 71
     2
 42
-1.0
 73
     0
 74
     0
 75
     0
  3
SLDDIMSTYLE0
100
AcDbAlignedDimension
 13
-31.7018778547
 23
-57.1150005157
 33
0.0
 14
-31.7018778547
 24
-59.1150005157
 34
0.0
 50
90.0
100
AcDbRotatedDimension
  0
ENDSEC
  0
SECTION
  2
OBJECTS
  0
DICTIONARY
  5
C
330
0
100
AcDbDictionary
281
     1
  3
ACAD_GROUP
350
D
  3
ACAD_LAYOUT
350
1A
  3
ACAD_MATERIAL
350
3B
  3
ACAD_MLEADERSTYLE
350
104
  3
ACAD_MLINESTYLE
350
17
  3
ACAD_PLOTSETTINGS
350
19
  3
ACAD_PLOTSTYLENAME
350
E
  3
ACAD_TABLESTYLE
350
103
  3
ACAD_VISUALSTYLE
350
2A
  0
DICTIONARY
  5
D
102
{ACAD_REACTORS
330
C
102
}
330
C
100
AcDbDictionary
281
     1
  0
DICTIONARY
  5
1A
102
{ACAD_REACTORS
330
C
102
}
330
C
100
AcDbDictionary
281
     1
  3
Layout1
350
1E
  3
Layout2
350
26
  3
Model
350
22
  0
DICTIONARY
  5
3B
102
{ACAD_REACTORS
330
C
102
}
330
C
100
AcDbDictionary
281
     1
  3
ByBlock
350
3D
  3
ByLayer
350
3C
  3
Global
350
3E
  0
DICTIONARY
  5
104
102
{ACAD_REACTORS
330
C
102
}
330
C
100
AcDbDictionary
281
     1
  0
DICTIONARY
  5
17
102
{ACAD_REACTORS
330
C
102
}
330
C
100
AcDbDictionary
281
     1
  3
Standard
350
18
  0
DICTIONARY
  5
19
102
{ACAD_REACTORS
330
C
102
}
330
C
100
AcDbDictionary
281
     1
  0
ACDBDICTIONARYWDFLT
  5
E
102
{ACAD_REACTORS
330
C
102
}
330
C
100
AcDbDictionary
281
     1
  3
Normal
350
F
100
AcDbDictionaryWithDefault
340
F
  0
DICTIONARY
  5
103
102
{ACAD_REACTORS
330
C
102
}
330
C
100
AcDbDictionary
281
     1
  0
DICTIONARY
  5
2A
102
{ACAD_REACTORS
330
C
102
}
330
C
100
AcDbDictionary
281
     1
  3
2dWireframe
350
2F
  3
3D Hidden
350
31
  3
3dWireframe
350
30
  3
Basic
350
32
  3
Brighten
350
36
  3
ColorChange
350
3A
  3
Conceptual
350
34
  3
Dim
350
35
  3
Facepattern
350
39
  3
Flat
350
2B
  3
FlatWithEdges
350
2C
  3
Gouraud
350
2D
  3
GouraudWithEdges
350
2E
  3
Linepattern
350
38
  3
Realistic
350
33
  3
Thicken
350
37
  0
LAYOUT
  5
1E
102
{ACAD_REACTORS
330
1A
102
}
330
1A
100
AcDbPlotSettings
  1

  2
none_device
  4

  6

 40
0.0
 41
0.0
 42
0.0
 43
0.0
 44
0.0
 45
0.0
 46
0.0
 47
0.0
 48
0.0
 49
0.0
140
0.0
141
0.0
142
1.0
143
1.0
 70
   688
 72
     0
 73
     0
 74
     5
  7

 75
    16
 76
     0
 77
     2
 78
   300
147
1.0
148
0.0
149
0.0
100
AcDbLayout
  1
Layout1
 70
     1
 71
     1
 10
0.0
 20
0.0
 11
420.0
 21
297.0
 12
0.0
 22
0.0
 32
0.0
 14
1.0000000000E+20
 24
1.0000000000E+20
 34
1.0000000000E+20
 15
-1.0000000000E+20
 25
-1.0000000000E+20
 35
-1.0000000000E+20
146
0.0
 13
0.0
 23
0.0
 33
0.0
 16
1.0
 26
0.0
 36
0.0
 17
0.0
 27
1.0
 37
0.0
 76
     0
330
1B
  0
LAYOUT
  5
26
102
{ACAD_REACTORS
330
1A
102
}
330
1A
100
AcDbPlotSettings
  1

  2
none_device
  4

  6

 40
0.0
 41
0.0
 42
0.0
 43
0.0
 44
0.0
 45
0.0
 46
0.0
 47
0.0
 48
0.0
 49
0.0
140
0.0
141
0.0
142
1.0
143
1.0
 70
   688
 72
     0
 73
     0
 74
     5
  7

 75
    16
 76
     0
 77
     2
 78
   300
147
1.0
148
0.0
149
0.0
100
AcDbLayout
  1
Layout2
 70
     1
 71
     2
 10
0.0
 20
0.0
 11
0.0
 21
0.0
 12
0.0
 22
0.0
 32
0.0
 14
0.0
 24
0.0
 34
0.0
 15
0.0
 25
0.0
 35
0.0
146
0.0
 13
0.0
 23
0.0
 33
0.0
 16
1.0
 26
0.0
 36
0.0
 17
0.0
 27
1.0
 37
0.0
 76
     0
330
23
  0
LAYOUT
  5
22
102
{ACAD_REACTORS
330
1A
102
}
330
1A
100
AcDbPlotSettings
  1

  2
none_device
  4

  6

 40
0.0
 41
0.0
 42
0.0
 43
0.0
 44
0.0
 45
0.0
 46
0.0
 47
0.0
 48
0.0
 49
0.0
140
0.0
141
0.0
142
1.0
143
1.0
 70
  1712
 72
     0
 73
     0
 74
     0
  7

 75
     0
 76
     0
 77
     2
 78
   300
147
1.0
148
0.0
149
0.0
100
AcDbLayout
  1
Model
 70
     1
 71
     0
 10
0.0
 20
0.0
 11
297.0
 21
210.0
 12
0.0
 22
0.0
 32
0.0
 14
0.0
 24
0.0
 34
0.0
 15
297.0
 25
210.0
 35
0.0
146
0.0
 13
0.0
 23
0.0
 33
0.0
 16
1.0
 26
0.0
 36
0.0
 17
0.0
 27
1.0
 37
0.0
 76
     0
330
1F
331
29
  0
MATERIAL
  5
3D
102
{ACAD_REACTORS
330
3B
102
}
330
3B
100
AcDbMaterial
  1
ByBlock
 72
     1
 94
      127
  0
MATERIAL
  5
3C
102
{ACAD_REACTORS
330
3B
102
}
330
3B
100
AcDbMaterial
  1
ByLayer
 72
     1
 94
      127
  0
MATERIAL
  5
3E
102
{ACAD_REACTORS
330
3B
102
}
330
3B
100
AcDbMaterial
  1
Global
 72
     1
 94
      127
  0
MLINESTYLE
  5
18
102
{ACAD_REACTORS
330
17
102
}
330
17
100
AcDbMlineStyle
  2
Standard
 70
     0
  3

 62
   256
 51
90.0
 52
90.0
 71
     2
 49
0.5
 62
   256
  6
BYLAYER
 49
-0.5
 62
   256
  6
BYLAYER
  0
ACDBPLACEHOLDER
  5
F
102
{ACAD_REACTORS
330
E
102
}
330
E
  0
VISUALSTYLE
  5
2F
102
{ACAD_REACTORS
330
2A
102
}
330
2A
100
AcDbVisualStyle
  2
2dWireframe
 70
     4
 71
     0
 72
     2
 73
     0
 90
        0
 40
-0.6
 41
-30.0
 62
     5
 63
     7
421
 16777215
 74
     1
 91
        4
 64
     7
 65
   257
 75
     1
175
     1
 42
1.0
 92
        0
 66
   257
 43
1.0
 76
     1
 77
     6
 78
     2
 67
     7
 79
     5
170
     0
171
     0
290
     0
174
     0
 93
        1
 44
0.0
173
     0
291
     0
 45
0.0
  0
VISUALSTYLE
  5
31
102
{ACAD_REACTORS
330
2A
102
}
330
2A
100
AcDbVisualStyle
  2
3D Hidden
 70
     6
 71
     1
 72
     2
 73
     2
 90
        0
 40
-0.6
 41
-30.0
 62
     5
 63
     7
421
 16777215
 74
     2
 91
        2
 64
     7
 65
   257
 75
     2
175
     1
 42
40.0
 92
        0
 66
   257
 43
1.0
 76
     1
 77
     6
 78
     2
 67
     7
 79
     3
170
     0
171
     0
290
     0
174
     0
 93
        1
 44
0.0
173
     0
291
     0
 45
0.0
  0
VISUALSTYLE
  5
30
102
{ACAD_REACTORS
330
2A
102
}
330
2A
100
AcDbVisualStyle
  2
3dWireframe
 70
     5
 71
     0
 72
     2
 73
     0
 90
        0
 40
-0.6
 41
-30.0
 62
     5
 63
     7
421
 16777215
 74
     1
 91
        4
 64
     7
 65
   257
 75
     1
175
     1
 42
1.0
 92
        0
 66
   257
 43
1.0
 76
     1
 77
     6
 78
     2
 67
     7
 79
     5
170
     0
171
     0
290
     0
174
     0
 93
        1
 44
0.0
173
     0
291
     0
 45
0.0
  0
VISUALSTYLE
  5
32
102
{ACAD_REACTORS
330
2A
102
}
330
2A
100
AcDbVisualStyle
  2
Basic
 70
     7
 71
     1
 72
     0
 73
     1
 90
        0
 40
-0.6
 41
-30.0
 62
     5
 63
     7
421
 16777215
 74
     0
 91
        4
 64
     7
 65
   257
 75
     1
175
     1
 42
1.0
 92
        8
 66
     7
 43
1.0
 76
     1
 77
     6
 78
     2
 67
     7
 79
     5
170
     0
171
     0
290
     0
174
     0
 93
        1
 44
0.0
173
     0
291
     1
 45
0.0
  0
VISUALSTYLE
  5
36
102
{ACAD_REACTORS
330
2A
102
}
330
2A
100
AcDbVisualStyle
  2
Brighten
 70
    12
 71
     2
 72
     2
 73
     0
 90
        0
 40
-0.6
 41
-30.0
 62
     5
 63
     7
421
 16777215
 74
     1
 91
        4
 64
     7
 65
   257
 75
     1
175
     1
 42
1.0
 92
        8
 66
     7
 43
1.0
 76
     1
 77
     6
 78
     2
 67
     7
 79
     5
170
     0
171
     0
290
     0
174
     0
 93
        1
 44
50.0
173
     0
291
     1
 45
0.0
  0
VISUALSTYLE
  5
3A
102
{ACAD_REACTORS
330
2A
102
}
330
2A
100
AcDbVisualStyle
  2
ColorChange
 70
    16
 71
     2
 72
     2
 73
     3
 90
        0
 40
-0.6
 41
-30.0
 62
     5
 63
     8
421
  8421504
 74
     1
 91
        4
 64
     7
 65
   257
 75
     1
175
     1
 42
1.0
 92
        8
 66
     8
424
  8421504
 43
1.0
 76
     1
 77
     6
 78
     2
 67
     7
 79
     5
170
     0
171
     0
290
     0
174
     0
 93
        1
 44
0.0
173
     0
291
     1
 45
0.0
  0
VISUALSTYLE
  5
34
102
{ACAD_REACTORS
330
2A
102
}
330
2A
100
AcDbVisualStyle
  2
Conceptual
 70
     9
 71
     3
 72
     2
 73
     0
 90
        0
 40
-0.6
 41
-30.0
 62
     5
 63
     7
421
 16777215
 74
     2
 91
        2
 64
     7
 65
   257
 75
     1
175
     1
 42
40.0
 92
        8
 66
     7
 43
1.0
 76
     1
 77
     6
 78
     2
 67
     7
 79
     3
170
     0
171
     0
290
     0
174
     0
 93
        1
 44
0.0
173
     0
291
     0
 45
0.0
  0
VISUALSTYLE
  5
35
102
{ACAD_REACTORS
330
2A
102
}
330
2A
100
AcDbVisualStyle
  2
Dim
 70
    11
 71
     2
 72
     2
 73
     0
 90
        0
 40
-0.6
 41
-30.0
 62
     5
 63
     7
421
 16777215
 74
     1
 91
        4
 64
     7
 65
   257
 75
     1
175
     1
 42
1.0
 92
        8
 66
     7
 43
1.0
 76
     1
 77
     6
 78
     2
 67
     7
 79
     5
170
     0
171
     0
290
     0
174
     0
 93
        1
 44
-50.0
173
     0
291
     1
 45
0.0
  0
VISUALSTYLE
  5
39
102
{ACAD_REACTORS
330
2A
102
}
330
2A
100
AcDbVisualStyle
  2
Facepattern
 70
    15
 71
     2
 72
     2
 73
     0
 90
        0
 40
-0.6
 41
-30.0
 62
     5
 63
     7
421
 16777215
 74
     1
 91
        4
 64
     7
 65
   257
 75
     1
175
     1
 42
1.0
 92
        8
 66
     7
 43
1.0
 76
     1
 77
     6
 78
     2
 67
     7
 79
     5
170
     0
171
     0
290
     0
174
     0
 93
        1
 44
0.0
173
     0
291
     1
 45
0.0
  0
VISUALSTYLE
  5
2B
102
{ACAD_REACTORS
330
2A
102
}
330
2A
100
AcDbVisualStyle
  2
Flat
 70
     0
 71
     2
 72
     1
 73
     1
 90
        2
 40
-0.6
 41
30.0
 62
     5
 63
     7
421
 16777215
 74
     0
 91
        4
 64
     7
 65
   257
 75
     1
175
     1
 42
1.0
 92
        8
 66
     7
 43
1.0
 76
     1
 77
     6
 78
     2
 67
     7
 79
     5
170
     0
171
     0
290
     0
174
     0
 93
       13
 44
0.0
173
     0
291
     1
 45
0.0
  0
VISUALSTYLE
  5
2C
102
{ACAD_REACTORS
330
2A
102
}
330
2A
100
AcDbVisualStyle
  2
FlatWithEdges
 70
     1
 71
     2
 72
     1
 73
     1
 90
        2
 40
-0.6
 41
30.0
 62
     5
 63
     7
421
 16777215
 74
     1
 91
        4
 64
     7
 65
   257
 75
     1
175
     1
 42
1.0
 92
        0
 66
   257
 43
1.0
 76
     1
 77
     6
 78
     2
 67
     7
 79
     5
170
     0
171
     0
290
     0
174
     0
 93
       13
 44
0.0
173
     0
291
     1
 45
0.0
  0
VISUALSTYLE
  5
2D
102
{ACAD_REACTORS
330
2A
102
}
330
2A
100
AcDbVisualStyle
  2
Gouraud
 70
     2
 71
     2
 72
     2
 73
     1
 90
        2
 40
-0.6
 41
30.0
 62
     5
 63
     7
421
 16777215
 74
     0
 91
        4
 64
     7
 65
   257
 75
     1
175
     1
 42
1.0
 92
        0
 66
     7
 43
1.0
 76
     1
 77
     6
 78
     2
 67
     7
 79
     5
170
     0
171
     0
290
     0
174
     0
 93
       13
 44
0.0
173
     0
291
     1
 45
0.0
  0
VISUALSTYLE
  5
2E
102
{ACAD_REACTORS
330
2A
102
}
330
2A
100
AcDbVisualStyle
  2
GouraudWithEdges
 70
     3
 71
     2
 72
     2
 73
     1
 90
        2
 40
-0.6
 41
30.0
 62
     5
 63
     7
421
 16777215
 74
     1
 91
        4
 64
     7
 65
   257
 75
     1
175
     1
 42
1.0
 92
        0
 66
   257
 43
1.0
 76
     1
 77
     6
 78
     2
 67
     7
 79
     5
170
     0
171
     0
290
     0
174
     0
 93
       13
 44
0.0
173
     0
291
     1
 45
0.0
  0
VISUALSTYLE
  5
38
102
{ACAD_REACTORS
330
2A
102
}
330
2A
100
AcDbVisualStyle
  2
Linepattern
 70
    14
 71
     2
 72
     2
 73
     0
 90
        0
 40
-0.6
 41
-30.0
 62
     5
 63
     7
421
 16777215
 74
     1
 91
        4
 64
     7
 65
   257
 75
     7
175
     7
 42
1.0
 92
        8
 66
     7
 43
1.0
 76
     1
 77
     6
 78
     2
 67
     7
 79
     5
170
     0
171
     0
290
     0
174
     0
 93
        1
 44
0.0
173
     0
291
     1
 45
0.0
  0
VISUALSTYLE
  5
33
102
{ACAD_REACTORS
330
2A
102
}
330
2A
100
AcDbVisualStyle
  2
Realistic
 70
     8
 71
     2
 72
     2
 73
     0
 90
        0
 40
-0.6
 41
-30.0
 62
     5
 63
     7
421
 16777215
 74
     1
 91
        0
 64
     7
 65
   257
 75
     1
175
     1
 42
1.0
 92
        8
 66
     8
424
  7895160
 43
1.0
 76
     1
 77
     6
 78
     2
 67
     7
 79
     5
170
     0
171
     0
290
     0
174
     0
 93
       13
 44
0.0
173
     0
291
     0
 45
0.0
  0
VISUALSTYLE
  5
37
102
{ACAD_REACTORS
330
2A
102
}
330
2A
100
AcDbVisualStyle
  2
Thicken
 70
    13
 71
     2
 72
     2
 73
     0
 90
        0
 40
-0.6
 41
-30.0
 62
     5
 63
     7
421
 16777215
 74
     1
 91
        4
 64
     7
 65
   257
 75
     1
175
     1
 42
1.0
 92
       12
 66
     7
 43
1.0
 76
     1
 77
     6
 78
     2
 67
     7
 79
     5
170
     0
171
     0
290
     0
174
     0
 93
        1
 44
0.0
173
     0
291
     1
 45
0.0
  0
ENDSEC
  0
EOF
