  0
SECTION
  2
HEADER
  9
$ACADVER
  1
AC1021
  9
$ACADMAINTVER
 70
    25
  9
$DWGCODEPAGE
  3
ANSI_1252
  9
$INSBASE
 10
0.0
 20
0.0
 30
0.0
  9
$EXTMIN
 10
0.0
 20
0.0
 30
0.0
  9
$EXTMAX
 10
297.0
 20
210.0
 30
0.0
  9
$LIMMIN
 10
0.0
 20
0.0
  9
$LIMMAX
 10
297.0
 20
210.0
  9
$ORTHOMODE
 70
     0
  9
$REGENMODE
 70
     1
  9
$FILLMODE
 70
     1
  9
$QTEXTMODE
 70
     0
  9
$MIRRTEXT
 70
     1
  9
$LTSCALE
 40
1.0
  9
$ATTMODE
 70
     1
  9
$TEXTSIZE
 40
3.5
  9
$TRACEWID
 40
1.0
  9
$TEXTSTYLE
  7
Standard
  9
$CLAYER
  8
0
  9
$CELTYPE
  6
ByLayer
  9
$CECOLOR
 62
   256
  9
$CELTSCALE
 40
1.0
  9
$DISPSILH
 70
     0
  9
$DIMSCALE
 40
1.0
  9
$DIMASZ
 40
3.302
  9
$DIMEXO
 40
1.0
  9
$DIMDLI
 40
3.75
  9
$DIMRND
 40
0.0
  9
$DIMDLE
 40
0.0
  9
$DIMEXE
 40
1.0
  9
$DIMTP
 40
0.0
  9
$DIMTM
 40
0.0
  9
$DIMTXT
 40
3.5
  9
$DIMCEN
 40
2.5
  9
$DIMTSZ
 40
0.0
  9
$DIMTOL
 70
     0
  9
$DIMLIM
 70
     0
  9
$DIMTIH
 70
     1
  9
$DIMTOH
 70
     1
  9
$DIMSE1
 70
     0
  9
$DIMSE2
 70
     0
  9
$DIMTAD
 70
     1
  9
$DIMZIN
 70
     0
  9
$DIMBLK
  1

  9
$DIMASO
 70
     1
  9
$DIMSHO
 70
     1
  9
$DIMPOST
  1

  9
$DIMAPOST
  1

  9
$DIMALT
 70
     0
  9
$DIMALTD
 70
     3
  9
$DIMALTF
 40
0.0393700787
  9
$DIMLFAC
 40
1.0
  9
$DIMTOFL
 70
     1
  9
$DIMTVP
 40
0.0
  9
$DIMTIX
 70
     0
  9
$DIMSOXD
 70
     0
  9
$DIMSAH
 70
     0
  9
$DIMBLK1
  1

  9
$DIMBLK2
  1

  9
$DIMSTYLE
  2
ISO-25
  9
$DIMCLRD
 70
     0
  9
$DIMCLRE
 70
     0
  9
$DIMCLRT
 70
     0
  9
$DIMTFAC
 40
1.0
  9
$DIMGAP
 40
1.524
  9
$DIMJUST
 70
     0
  9
$DIMSD1
 70
     0
  9
$DIMSD2
 70
     0
  9
$DIMTOLJ
 70
     0
  9
$DIMTZIN
 70
     0
  9
$DIMALTZ
 70
     0
  9
$DIMALTTZ
 70
     0
  9
$DIMUPT
 70
     0
  9
$DIMDEC
 70
     2
  9
$DIMTDEC
 70
     2
  9
$DIMALTU
 70
     2
  9
$DIMALTTD
 70
     3
  9
$DIMTXSTY
  7
Standard
  9
$DIMAUNIT
 70
     0
  9
$DIMADEC
 70
     2
  9
$DIMALTRND
 40
0.0
  9
$DIMAZIN
 70
     0
  9
$DIMDSEP
 70
    44
  9
$DIMATFIT
 70
     3
  9
$DIMFRAC
 70
     0
  9
$DIMLDRBLK
  1

  9
$DIMLUNIT
 70
     2
  9
$DIMLWD
 70
    -2
  9
$DIMLWE
 70
    -2
  9
$DIMTMOVE
 70
     0
  9
$DIMFXL
 40
1.0
  9
$DIMFXLON
 70
     0
  9
$DIMJOGANG
 40
0.7853981634
  9
$DIMTFILL
 70
     0
  9
$DIMTFILLCLR
 70
     0
  9
$DIMARCSYM
 70
     0
  9
$DIMLTYPE
  6

  9
$DIMLTEX1
  6

  9
$DIMLTEX2
  6

  9
$LUNITS
 70
     2
  9
$LUPREC
 70
     2
  9
$SKETCHINC
 40
1.0
  9
$FILLETRAD
 40
10.0
  9
$AUNITS
 70
     0
  9
$AUPREC
 70
     2
  9
$MENU
  1
.
  9
$ELEVATION
 40
0.0
  9
$PELEVATION
 40
0.0
  9
$THICKNESS
 40
0.0
  9
$LIMCHECK
 70
     0
  9
$CHAMFERA
 40
10.0
  9
$CHAMFERB
 40
10.0
  9
$CHAMFERC
 40
20.0
  9
$CHAMFERD
 40
0.0
  9
$SKPOLY
 70
     0
  9
$TDCREATE
 40
2456528.331227824
  9
$TDUCREATE
 40
2456528.247894491
  9
$TDUPDATE
 40
2456528.331228253
  9
$TDUUPDATE
 40
2456528.247894919
  9
$TDINDWG
 40
0.0000000116
  9
$TDUSRTIMER
 40
0.0000000116
  9
$USRTIMER
 70
     1
  9
$ANGBASE
 50
0.0
  9
$ANGDIR
 70
     0
  9
$PDMODE
 70
     0
  9
$PDSIZE
 40
-1.0
  9
$PLINEWID
 40
0.0
  9
$SPLFRAME
 70
     0
  9
$SPLINETYPE
 70
     6
  9
$SPLINESEGS
 70
     8
  9
$HANDSEED
  5
122
  9
$SURFTAB1
 70
     6
  9
$SURFTAB2
 70
     6
  9
$SURFTYPE
 70
     6
  9
$SURFU
 70
     6
  9
$SURFV
 70
     6
  9
$UCSBASE
  2

  9
$UCSNAME
  2

  9
$UCSORG
 10
0.0
 20
0.0
 30
0.0
  9
$UCSXDIR
 10
1.0
 20
0.0
 30
0.0
  9
$UCSYDIR
 10
0.0
 20
1.0
 30
0.0
  9
$UCSORTHOREF
  2

  9
$UCSORTHOVIEW
 70
     0
  9
$UCSORGTOP
 10
0.0
 20
0.0
 30
0.0
  9
$UCSORGBOTTOM
 10
0.0
 20
0.0
 30
0.0
  9
$UCSORGLEFT
 10
0.0
 20
0.0
 30
0.0
  9
$UCSORGRIGHT
 10
0.0
 20
0.0
 30
0.0
  9
$UCSORGFRONT
 10
0.0
 20
0.0
 30
0.0
  9
$UCSORGBACK
 10
0.0
 20
0.0
 30
0.0
  9
$PUCSBASE
  2

  9
$PUCSNAME
  2

  9
$PUCSORG
 10
0.0
 20
0.0
 30
0.0
  9
$PUCSXDIR
 10
1.0
 20
0.0
 30
0.0
  9
$PUCSYDIR
 10
0.0
 20
1.0
 30
0.0
  9
$PUCSORTHOREF
  2

  9
$PUCSORTHOVIEW
 70
     0
  9
$PUCSORGTOP
 10
0.0
 20
0.0
 30
0.0
  9
$PUCSORGBOTTOM
 10
0.0
 20
0.0
 30
0.0
  9
$PUCSORGLEFT
 10
0.0
 20
0.0
 30
0.0
  9
$PUCSORGRIGHT
 10
0.0
 20
0.0
 30
0.0
  9
$PUCSORGFRONT
 10
0.0
 20
0.0
 30
0.0
  9
$PUCSORGBACK
 10
0.0
 20
0.0
 30
0.0
  9
$USERI1
 70
     0
  9
$USERI2
 70
     0
  9
$USERI3
 70
     0
  9
$USERI4
 70
     0
  9
$USERI5
 70
     0
  9
$USERR1
 40
0.0
  9
$USERR2
 40
0.0
  9
$USERR3
 40
0.0
  9
$USERR4
 40
0.0
  9
$USERR5
 40
0.0
  9
$WORLDVIEW
 70
     1
  9
$SHADEDGE
 70
     3
  9
$SHADEDIF
 70
    70
  9
$TILEMODE
 70
     1
  9
$MAXACTVP
 70
    64
  9
$PINSBASE
 10
0.0
 20
0.0
 30
0.0
  9
$PLIMCHECK
 70
     0
  9
$PEXTMIN
 10
1.0000000000E+20
 20
1.0000000000E+20
 30
1.0000000000E+20
  9
$PEXTMAX
 10
-1.0000000000E+20
 20
-1.0000000000E+20
 30
-1.0000000000E+20
  9
$PLIMMIN
 10
0.0
 20
0.0
  9
$PLIMMAX
 10
420.0
 20
297.0
  9
$UNITMODE
 70
     0
  9
$VISRETAIN
 70
     1
  9
$PLINEGEN
 70
     0
  9
$PSLTSCALE
 70
     1
  9
$TREEDEPTH
 70
  3020
  9
$CMLSTYLE
  2
Standard
  9
$CMLJUST
 70
     0
  9
$CMLSCALE
 40
20.0
  9
$PROXYGRAPHICS
 70
     1
  9
$MEASUREMENT
 70
     1
  9
$CELWEIGHT
370
    -1
  9
$ENDCAPS
280
     0
  9
$JOINSTYLE
280
     0
  9
$LWDISPLAY
290
     1
  9
$INSUNITS
 70
     4
  9
$HYPERLINKBASE
  1

  9
$STYLESHEET
  1

  9
$XEDIT
290
     1
  9
$CEPSNTYPE
380
     0
  9
$PSTYLEMODE
290
     1
  9
$FINGERPRINTGUID
  2
{126357D8-B200-4512-B4D8-8BC714385836}
  9
$VERSIONGUID
  2
{FAEB1C32-E019-11D5-929B-00C0DF256EC4}
  9
$EXTNAMES
290
     1
  9
$PSVPSCALE
 40
0.0
  9
$OLESTARTUP
290
     0
  9
$SORTENTS
280
   127
  9
$INDEXCTL
280
     0
  9
$HIDETEXT
280
     1
  9
$XCLIPFRAME
290
     0
  9
$HALOGAP
280
     0
  9
$OBSCOLOR
 70
   257
  9
$OBSLTYPE
280
     0
  9
$INTERSECTIONDISPLAY
280
     0
  9
$INTERSECTIONCOLOR
 70
   257
  9
$DIMASSOC
280
     2
  9
$PROJECTNAME
  1

  9
$CAMERADISPLAY
290
     0
  9
$LENSLENGTH
 40
50.0
  9
$CAMERAHEIGHT
 40
0.0
  9
$STEPSPERSEC
 40
2.0
  9
$STEPSIZE
 40
6.0
  9
$3DDWFPREC
 40
2.0
  9
$PSOLWIDTH
 40
5.0
  9
$PSOLHEIGHT
 40
80.0
  9
$LOFTANG1
 40
1.5707963268
  9
$LOFTANG2
 40
1.5707963268
  9
$LOFTMAG1
 40
0.0
  9
$LOFTMAG2
 40
0.0
  9
$LOFTPARAM
 70
     7
  9
$LOFTNORMALS
280
     1
  9
$LATITUDE
 40
37.795
  9
$LONGITUDE
 40
-122.394
  9
$NORTHDIRECTION
 40
0.0
  9
$TIMEZONE
 70
 -8000
  9
$LIGHTGLYPHDISPLAY
280
     1
  9
$TILEMODELIGHTSYNCH
280
     1
  9
$SOLIDHIST
280
     1
  9
$SHOWHIST
280
     1
  9
$DWFFRAME
280
     2
  9
$DGNFRAME
280
     2
  9
$REALWORLDSCALE
290
     1
  9
$INTERFERECOLOR
 62
   256
  9
$CSHADOW
280
     0
  9
$SHADOWPLANELOCATION
 40
0.0
  0
ENDSEC
  0
SECTION
  2
CLASSES
  0
CLASS
  1
ACDBDICTIONARYWDFLT
  2
AcDbDictionaryWithDefault
  3
ObjectDBX Classes
 90
        0
 91
        4
280
     0
281
     0
  0
CLASS
  1
VISUALSTYLE
  2
AcDbVisualStyle
  3
ObjectDBX Classes
 90
     4095
 91
        4
280
     0
281
     0
  0
CLASS
  1
MATERIAL
  2
AcDbMaterial
  3
ObjectDBX Classes
 90
     1153
 91
        4
280
     0
281
     0
  0
ENDSEC
  0
SECTION
  2
TABLES
  0
TABLE
  2
VPORT
  5
8
330
0
100
AcDbSymbolTable
 70
     1
  0
VPORT
  5
29
330
8
100
AcDbSymbolTableRecord
100
AcDbViewportTableRecord
  2
*Active
 70
     0
 10
0.0
 20
0.0
 11
1.0
 21
1.0
 12
148.5
 22
105.0
 13
0.0
 23
0.0
 14
10.0
 24
10.0
 15
10.0
 25
10.0
 16
0.0
 26
0.0
 36
1.0
 17
0.0
 27
0.0
 37
0.0
 40
210.0
 41
1.4142857143
 42
50.0
 43
0.0
 44
0.0
 50
0.0
 51
0.0
 71
     0
 72
  2000
 73
     1
 74
     3
 75
     0
 76
     0
 77
     0
 78
     0
281
     0
 65
     1
110
0.0
120
0.0
130
0.0
111
1.0
121
0.0
131
0.0
112
0.0
122
1.0
132
0.0
 79
     0
146
0.0
 60
     3
 61
     5
292
     1
282
     1
141
0.0
142
0.0
 63
   250
  0
ENDTAB
  0
TABLE
  2
LTYPE
  5
5
330
0
100
AcDbSymbolTable
 70
     8
  0
LTYPE
  5
14
330
5
100
AcDbSymbolTableRecord
100
AcDbLinetypeTableRecord
  2
ByBlock
 70
     0
  3

 72
    65
 73
     0
 40
0.0
  0
LTYPE
  5
15
330
5
100
AcDbSymbolTableRecord
100
AcDbLinetypeTableRecord
  2
ByLayer
 70
     0
  3

 72
    65
 73
     0
 40
0.0
  0
LTYPE
  5
16
330
5
100
AcDbSymbolTableRecord
100
AcDbLinetypeTableRecord
  2
Continuous
 70
     0
  3
Solid line
 72
    65
 73
     0
 40
0.0
  0
LTYPE
  5
3F
330
5
100
AcDbSymbolTableRecord
100
AcDbLinetypeTableRecord
  2
SLD-Durchgehend
 70
     0
  3
SolidWorks Line Style
 72
    65
 73
     0
 40
0.0
  0
LTYPE
  5
40
330
5
100
AcDbSymbolTableRecord
100
AcDbLinetypeTableRecord
  2
SLD-Gestrichelt
 70
     0
  3
SolidWorks Line Style
 72
    65
 73
     2
 40
1.905
 49
1.27
 74
     0
 49
-0.635
 74
     0
  0
LTYPE
  5
41
330
5
100
AcDbSymbolTableRecord
100
AcDbLinetypeTableRecord
  2
SLD-Phantom
 70
     0
  3
SolidWorks Line Style
 72
    65
 73
     6
 40
12.7
 49
6.35
 74
     0
 49
-1.27
 74
     0
 49
1.27
 74
     0
 49
-1.27
 74
     0
 49
1.27
 74
     0
 49
-1.27
 74
     0
  0
LTYPE
  5
42
330
5
100
AcDbSymbolTableRecord
100
AcDbLinetypeTableRecord
  2
SLD-Kette
 70
     0
  3
SolidWorks Line Style
 72
    65
 73
     4
 40
10.16
 49
6.35
 74
     0
 49
-1.27
 74
     0
 49
1.27
 74
     0
 49
-1.27
 74
     0
  0
LTYPE
  5
43
330
5
100
AcDbSymbolTableRecord
100
AcDbLinetypeTableRecord
  2
SLD-Punktstrich
 70
     0
  3
SolidWorks Line Style
 72
    65
 73
     4
 40
19.05
 49
15.24
 74
     0
 49
-1.27
 74
     0
 49
1.27
 74
     0
 49
-1.27
 74
     0
  0
LTYPE
  5
44
330
5
100
AcDbSymbolTableRecord
100
AcDbLinetypeTableRecord
  2
SLD-Naht
 70
     0
  3
SolidWorks Line Style
 72
    65
 73
     2
 40
0.635
 49
0.0
 74
     0
 49
-0.635
 74
     0
  0
LTYPE
  5
45
330
5
100
AcDbSymbolTableRecord
100
AcDbLinetypeTableRecord
  2
SLD-Dicke-Dünne-Kette
 70
     0
  3
SolidWorks Line Style
 72
    65
 73
     4
 40
10.16
 49
6.35
 74
     0
 49
-1.27
 74
     0
 49
1.27
 74
     0
 49
-1.27
 74
     0
  0
ENDTAB
  0
TABLE
  2
LAYER
  5
2
330
0
100
AcDbSymbolTable
 70
     3
  0
LAYER
  5
10
330
2
100
AcDbSymbolTableRecord
100
AcDbLayerTableRecord
  2
0
 70
     0
 62
     7
  6
Continuous
370
    -3
390
F
347
3E
  0
LAYER
  5
46
330
2
100
AcDbSymbolTableRecord
100
AcDbLayerTableRecord
  2
1
 70
     0
 62
     4
  6
Continuous
370
    -1
390
F
347
3E
  0
LAYER
  5
47
330
2
100
AcDbSymbolTableRecord
100
AcDbLayerTableRecord
  2
2
 70
     0
 62
     7
  6
SLD-Durchgehend
370
    -3
390
F
347
3E
  0
ENDTAB
  0
TABLE
  2
STYLE
  5
3
330
0
100
AcDbSymbolTable
 70
     2
  0
STYLE
  5
11
330
3
100
AcDbSymbolTableRecord
100
AcDbTextStyleTableRecord
  2
Standard
 70
     0
 40
0.0
 41
1.0
 50
0.0
 71
     0
 42
3.5
  3
txt
  4

  0
STYLE
  5
8F
330
3
100
AcDbSymbolTableRecord
100
AcDbTextStyleTableRecord
  2
SLDTEXTSTYLE0
 70
     0
 40
0.0
 41
0.75
 50
0.0
 71
     0
 42
0.2
  3
TXT
  4

  0
ENDTAB
  0
TABLE
  2
VIEW
  5
6
330
0
100
AcDbSymbolTable
 70
     0
  0
ENDTAB
  0
TABLE
  2
UCS
  5
7
330
0
100
AcDbSymbolTable
 70
     0
  0
ENDTAB
  0
TABLE
  2
APPID
  5
9
330
0
100
AcDbSymbolTable
 70
     1
  0
APPID
  5
12
330
9
100
AcDbSymbolTableRecord
100
AcDbRegAppTableRecord
  2
ACAD
 70
     0
  0
ENDTAB
  0
TABLE
  2
DIMSTYLE
  5
A
330
0
100
AcDbSymbolTable
 70
     3
100
AcDbDimStyleTable
  0
DIMSTYLE
105
27
330
A
100
AcDbSymbolTableRecord
100
AcDbDimStyleTableRecord
  2
ISO-25
 70
     0
 41
2.5
 42
0.625
 43
3.75
 44
1.25
 73
     0
 74
     0
 77
     1
 78
     8
140
2.5
141
2.5
143
0.0393700787
147
0.625
171
     3
172
     1
178
     0
271
     2
272
     2
274
     3
278
    44
283
     0
284
     8
340
11
  0
DIMSTYLE
105
90
102
{ACAD_REACTORS
330
8E
330
116
102
}
330
A
100
AcDbSymbolTableRecord
100
AcDbDimStyleTableRecord
  2
SLDDIMSTYLE0
 70
     0
 41
3.302
 44
0.0
 45
0.000000001
 73
     0
 74
     0
 77
     1
 78
    12
 79
     3
140
3.5
147
0.875
173
     1
178
     0
271
     2
272
     2
276
     2
284
    12
340
8F
  0
DIMSTYLE
105
9B
102
{ACAD_REACTORS
330
9A
330
A7
330
10A
102
}
330
A
100
AcDbSymbolTableRecord
100
AcDbDimStyleTableRecord
  2
SLDDIMSTYLE1
 70
     0
 41
3.302
 44
0.0
 45
0.000000001
 73
     0
 74
     0
 77
     1
 78
    12
 79
     3
140
3.5
147
0.875
172
     1
173
     1
178
     0
271
     2
272
     2
276
     2
284
    12
289
     0
340
8F
  0
ENDTAB
  0
TABLE
  2
BLOCK_RECORD
  5
1
330
0
100
AcDbSymbolTable
 70
     6
  0
BLOCK_RECORD
  5
1F
330
1
100
AcDbSymbolTableRecord
100
AcDbBlockTableRecord
  2
*Model_Space
340
22
 70
     0
280
     1
281
     0
  0
BLOCK_RECORD
  5
1B
330
1
100
AcDbSymbolTableRecord
100
AcDbBlockTableRecord
  2
*Paper_Space
340
1E
 70
     0
280
     1
281
     0
  0
BLOCK_RECORD
  5
23
330
1
100
AcDbSymbolTableRecord
100
AcDbBlockTableRecord
  2
*Paper_Space0
340
26
 70
     0
280
     1
281
     0
  0
BLOCK_RECORD
  5
91
330
1
100
AcDbSymbolTableRecord
100
AcDbBlockTableRecord
  2
_D
340
0
 70
     0
280
     1
281
     0
  0
BLOCK_RECORD
  5
9C
330
1
100
AcDbSymbolTableRecord
100
AcDbBlockTableRecord
  2
_D_1
340
0
 70
     0
280
     1
281
     0
  0
BLOCK_RECORD
  5
A8
330
1
100
AcDbSymbolTableRecord
100
AcDbBlockTableRecord
  2
_D_2
340
0
 70
     0
280
     1
281
     0
  0
BLOCK_RECORD
  5
10B
330
1
100
AcDbSymbolTableRecord
100
AcDbBlockTableRecord
  2
_D_3
340
0
 70
     0
280
     1
281
     0
  0
BLOCK_RECORD
  5
117
330
1
100
AcDbSymbolTableRecord
100
AcDbBlockTableRecord
  2
_D_4
340
0
 70
     0
280
     1
281
     0
  0
ENDTAB
  0
ENDSEC
  0
SECTION
  2
BLOCKS
  0
BLOCK
  5
20
330
1F
100
AcDbEntity
  8
0
100
AcDbBlockBegin
  2
*Model_Space
 70
     0
 10
0.0
 20
0.0
 30
0.0
  3
*Model_Space
  1

  0
ENDBLK
  5
21
330
1F
100
AcDbEntity
  8
0
100
AcDbBlockEnd
  0
BLOCK
  5
1C
330
1B
100
AcDbEntity
 67
     1
  8
0
100
AcDbBlockBegin
  2
*Paper_Space
 70
     0
 10
0.0
 20
0.0
 30
0.0
  3
*Paper_Space
  1

  0
ENDBLK
  5
1D
330
1B
100
AcDbEntity
 67
     1
  8
0
100
AcDbBlockEnd
  0
BLOCK
  5
24
330
23
100
AcDbEntity
  8
0
100
AcDbBlockBegin
  2
*Paper_Space0
 70
     0
 10
0.0
 20
0.0
 30
0.0
  3
*Paper_Space0
  1

  0
ENDBLK
  5
25
330
23
100
AcDbEntity
  8
0
100
AcDbBlockEnd
  0
BLOCK
  5
92
330
91
100
AcDbEntity
  8
0
100
AcDbBlockBegin
  2
_D
 70
     0
 10
0.0
 20
0.0
 30
0.0
  3
_D
  1

  0
SOLID
  5
94
330
91
100
AcDbEntity
  8
2
 62
     7
420
 16777215
100
AcDbTrace
 10
89.9987742495
 20
-13.0996520573
 30
0.0
 11
86.6967742495
 21
-12.5916520573
 31
0.0
 12
86.6967742495
 22
-13.6076520573
 32
0.0
 13
86.6967742495
 23
-13.6076520573
 33
0.0
  0
SOLID
  5
95
330
91
100
AcDbEntity
  8
2
 62
     7
420
 16777215
100
AcDbTrace
 10
-90.0012257505
 20
-13.0996520573
 30
0.0
 11
-86.6992257505
 21
-13.6076520573
 31
0.0
 12
-86.6992257505
 22
-12.5916520573
 32
0.0
 13
-86.6992257505
 23
-12.5916520573
 33
0.0
  0
LINE
  5
96
330
91
100
AcDbEntity
  8
2
 62
     7
420
 16777215
100
AcDbLine
 10
89.9987742495
 20
-0.9996520573
 30
0.0
 11
89.9987742495
 21
-14.0996520573
 31
0.0
  0
LINE
  5
97
330
91
100
AcDbEntity
  8
2
 62
     7
420
 16777215
100
AcDbLine
 10
-90.0012257505
 20
-0.9996520573
 30
0.0
 11
-90.0012257505
 21
-14.0996520573
 31
0.0
  0
LINE
  5
98
330
91
100
AcDbEntity
  8
2
 62
     7
420
 16777215
100
AcDbLine
 10
89.9987742495
 20
-13.0996520573
 30
0.0
 11
-90.0012257505
 21
-13.0996520573
 31
0.0
  0
MTEXT
  5
99
330
91
100
AcDbEntity
  8
2
 62
     7
420
 16777215
100
AcDbMText
 10
-5.3022672791
 20
-8.5879151427
 30
0.0
 40
3.5
 41
0.0
 46
0.0
 71
     1
 72
     1
  1
180
  7
SLDTEXTSTYLE0
 73
     1
 44
1.0
  0
ENDBLK
  5
93
330
91
100
AcDbEntity
  8
0
100
AcDbBlockEnd
  0
BLOCK
  5
9D
330
9C
100
AcDbEntity
  8
0
100
AcDbBlockBegin
  2
_D_1
 70
     0
 10
0.0
 20
0.0
 30
0.0
  3
_D_1
  1

  0
SOLID
  5
9F
330
9C
100
AcDbEntity
  8
2
 62
     7
420
 16777215
100
AcDbTrace
 10
-105.2512257505
 20
-3.0996520573
 30
0.0
 11
-105.7592257505
 21
-6.4016520573
 31
0.0
 12
-104.7432257505
 22
-6.4016520573
 32
0.0
 13
-104.7432257505
 23
-6.4016520573
 33
0.0
  0
SOLID
  5
A0
330
9C
100
AcDbEntity
  8
2
 62
     7
420
 16777215
100
AcDbTrace
 10
-105.2512257505
 20
3.1003479427
 30
0.0
 11
-104.7432257505
 21
6.4023479427
 31
0.0
 12
-105.7592257505
 22
6.4023479427
 32
0.0
 13
-105.7592257505
 23
6.4023479427
 33
0.0
  0
LINE
  5
A1
330
9C
100
AcDbEntity
  8
2
 62
     7
420
 16777215
100
AcDbLine
 10
-67.8185760197
 20
-3.0996520573
 30
0.0
 11
-106.2512257505
 21
-3.0996520573
 31
0.0
  0
LINE
  5
A2
330
9C
100
AcDbEntity
  8
2
 62
     7
420
 16777215
100
AcDbLine
 10
-67.8185760197
 20
3.1003479427
 30
0.0
 11
-106.2512257505
 21
3.1003479427
 31
0.0
  0
LINE
  5
A3
330
9C
100
AcDbEntity
  8
2
 62
     7
420
 16777215
100
AcDbLine
 10
-105.2512257505
 20
-3.0996520573
 30
0.0
 11
-105.2512257505
 21
-9.4496520573
 31
0.0
  0
LINE
  5
A4
330
9C
100
AcDbEntity
  8
2
 62
     7
420
 16777215
100
AcDbLine
 10
-105.2512257505
 20
-3.0996520573
 30
0.0
 11
-105.2512257505
 21
3.1003479427
 31
0.0
  0
LINE
  5
A5
330
9C
100
AcDbEntity
  8
2
 62
     7
420
 16777215
100
AcDbLine
 10
-105.2512257505
 20
3.1003479427
 30
0.0
 11
-105.2512257505
 21
21.2166675715
 31
0.0
  0
MTEXT
  5
A6
330
9C
100
AcDbEntity
  8
2
 62
     7
420
 16777215
100
AcDbMText
 10
-109.7629626651
 20
9.3215288012
 30
0.0
 40
3.5
 41
0.0
 46
0.0
 71
     1
 72
     1
  1
6,20
  7
SLDTEXTSTYLE0
 11
6.123233995736766E-17
 21
1.0
 31
0.0
 73
     1
 44
1.0
  0
ENDBLK
  5
9E
330
9C
100
AcDbEntity
  8
0
100
AcDbBlockEnd
  0
BLOCK
  5
A9
330
A8
100
AcDbEntity
  8
0
100
AcDbBlockBegin
  2
_D_2
 70
     0
 10
0.0
 20
0.0
 30
0.0
  3
_D_2
  1

  0
SOLID
  5
AB
330
A8
100
AcDbEntity
  8
2
 62
     7
420
 16777215
100
AcDbTrace
 10
-99.2512257505
 20
1.5253479427
 30
0.0
 11
-98.7432257505
 21
4.8273479427
 31
0.0
 12
-99.7592257505
 22
4.8273479427
 32
0.0
 13
-99.7592257505
 23
4.8273479427
 33
0.0
  0
SOLID
  5
AC
330
A8
100
AcDbEntity
  8
2
 62
     7
420
 16777215
100
AcDbTrace
 10
-99.2512257505
 20
-1.5246520573
 30
0.0
 11
-99.7592257505
 21
-4.8266520573
 31
0.0
 12
-98.7432257505
 22
-4.8266520573
 32
0.0
 13
-98.7432257505
 23
-4.8266520573
 33
0.0
  0
LINE
  5
AD
330
A8
100
AcDbEntity
  8
2
 62
     7
420
 16777215
100
AcDbLine
 10
-83.2536609814
 20
1.5253479427
 30
0.0
 11
-100.2512257505
 21
1.5253479427
 31
0.0
  0
LINE
  5
AE
330
A8
100
AcDbEntity
  8
2
 62
     7
420
 16777215
100
AcDbLine
 10
-82.6612257505
 20
-1.5246520573
 30
0.0
 11
-100.2512257505
 21
-1.5246520573
 31
0.0
  0
LINE
  5
AF
330
A8
100
AcDbEntity
  8
2
 62
     7
420
 16777215
100
AcDbLine
 10
-99.2512257505
 20
1.5253479427
 30
0.0
 11
-99.2512257505
 21
19.6416675715
 31
0.0
  0
LINE
  5
B0
330
A8
100
AcDbEntity
  8
2
 62
     7
420
 16777215
100
AcDbLine
 10
-99.2512257505
 20
1.5253479427
 30
0.0
 11
-99.2512257505
 21
-1.5246520573
 31
0.0
  0
LINE
  5
B1
330
A8
100
AcDbEntity
  8
2
 62
     7
420
 16777215
100
AcDbLine
 10
-99.2512257505
 20
-1.5246520573
 30
0.0
 11
-99.2512257505
 21
-7.8746520573
 31
0.0
  0
MTEXT
  5
B2
330
A8
100
AcDbEntity
  8
2
 62
     7
420
 16777215
100
AcDbMText
 10
-103.7629626651
 20
7.7465288012
 30
0.0
 40
3.5
 41
0.0
 46
0.0
 71
     1
 72
     1
  1
3,05
  7
SLDTEXTSTYLE0
 11
-7.044195017643634E-15
 21
1.0
 31
0.0
 73
     1
 44
1.0
  0
ENDBLK
  5
AA
330
A8
100
AcDbEntity
  8
0
100
AcDbBlockEnd
  0
BLOCK
  5
10C
330
10B
100
AcDbEntity
  8
0
100
AcDbBlockBegin
  2
_D_3
 70
     0
 10
0.0
 20
0.0
 30
0.0
  3
_D_3
  1

  0
SOLID
  5
10E
330
10B
100
AcDbEntity
  8
2
 62
     7
420
 16777215
100
AcDbTrace
 10
-99.2512257505
 20
74.1587787853
 30
0.0
 11
-98.7432257505
 21
77.4607787853
 31
0.0
 12
-99.7592257505
 22
77.4607787853
 32
0.0
 13
-99.7592257505
 23
77.4607787853
 33
0.0
  0
SOLID
  5
10F
330
10B
100
AcDbEntity
  8
2
 62
     7
420
 16777215
100
AcDbTrace
 10
-99.2512257505
 20
49.9887787853
 30
0.0
 11
-99.7592257505
 21
46.6867787853
 31
0.0
 12
-98.7432257505
 22
46.6867787853
 32
0.0
 13
-98.7432257505
 23
46.6867787853
 33
0.0
  0
LINE
  5
110
330
10B
100
AcDbEntity
  8
2
 62
     7
420
 16777215
100
AcDbLine
 10
-91.0012257505
 20
74.1587787853
 30
0.0
 11
-100.2512257505
 21
74.1587787853
 31
0.0
  0
LINE
  5
111
330
10B
100
AcDbEntity
  8
2
 62
     7
420
 16777215
100
AcDbLine
 10
-91.0012257505
 20
49.9887787853
 30
0.0
 11
-100.2512257505
 21
49.9887787853
 31
0.0
  0
LINE
  5
112
330
10B
100
AcDbEntity
  8
2
 62
     7
420
 16777215
100
AcDbLine
 10
-99.2512257505
 20
74.1587787853
 30
0.0
 11
-99.2512257505
 21
80.5087787853
 31
0.0
  0
LINE
  5
113
330
10B
100
AcDbEntity
  8
2
 62
     7
420
 16777215
100
AcDbLine
 10
-99.2512257505
 20
74.1587787853
 30
0.0
 11
-99.2512257505
 21
49.9887787853
 31
0.0
  0
LINE
  5
114
330
10B
100
AcDbEntity
  8
2
 62
     7
420
 16777215
100
AcDbLine
 10
-99.2512257505
 20
49.9887787853
 30
0.0
 11
-99.2512257505
 21
43.6387787853
 31
0.0
  0
MTEXT
  5
115
330
10B
100
AcDbEntity
  8
2
 62
     7
420
 16777215
100
AcDbMText
 10
-103.7629626651
 20
54.833153687
 30
-9.625
 40
3.5
 41
0.0
 46
0.0
 71
     1
 72
     1
  1
24,17
  7
SLDTEXTSTYLE0
 11
-7.044195017643634E-15
 21
1.0
 31
0.0
 73
     1
 44
1.0
  0
ENDBLK
  5
10D
330
10B
100
AcDbEntity
  8
0
100
AcDbBlockEnd
  0
BLOCK
  5
118
330
117
100
AcDbEntity
  8
0
100
AcDbBlockBegin
  2
_D_4
 70
     0
 10
0.0
 20
0.0
 30
0.0
  3
_D_4
  1

  0
SOLID
  5
11A
330
117
100
AcDbEntity
  8
2
 62
     7
420
 16777215
100
AcDbTrace
 10
99.2487742495
 20
49.9887787853
 30
0.0
 11
99.7567742495
 21
53.2907787853
 31
0.0
 12
98.7407742495
 22
53.2907787853
 32
0.0
 13
98.7407742495
 23
53.2907787853
 33
0.0
  0
SOLID
  5
11B
330
117
100
AcDbEntity
  8
2
 62
     7
420
 16777215
100
AcDbTrace
 10
99.2487742495
 20
80.3287787853
 30
0.0
 11
98.7407742495
 21
77.0267787853
 31
0.0
 12
99.7567742495
 22
77.0267787853
 32
0.0
 13
99.7567742495
 23
77.0267787853
 33
0.0
  0
LINE
  5
11C
330
117
100
AcDbEntity
  8
2
 62
     7
420
 16777215
100
AcDbLine
 10
90.9987742495
 20
49.9887787853
 30
0.0
 11
100.2487742495
 21
49.9887787853
 31
0.0
  0
LINE
  5
11D
330
117
100
AcDbEntity
  8
2
 62
     7
420
 16777215
100
AcDbLine
 10
55.9987742495
 20
80.3287787853
 30
0.0
 11
100.2487742495
 21
80.3287787853
 31
0.0
  0
LINE
  5
11E
330
117
100
AcDbEntity
  8
2
 62
     7
420
 16777215
100
AcDbLine
 10
99.2487742495
 20
49.9887787853
 30
0.0
 11
99.2487742495
 21
80.3287787853
 31
0.0
  0
MTEXT
  5
11F
330
117
100
AcDbEntity
  8
2
 62
     7
420
 16777215
100
AcDbMText
 10
94.7370373349
 20
57.918153687
 30
-9.625
 40
3.5
 41
0.0
 46
0.0
 71
     1
 72
     1
  1
30,34
  7
SLDTEXTSTYLE0
 11
6.123233995736766E-17
 21
1.0
 31
0.0
 73
     1
 44
1.0
  0
ENDBLK
  5
119
330
117
100
AcDbEntity
  8
0
100
AcDbBlockEnd
  0
ENDSEC
  0
SECTION
  2
ENTITIES
  0
LINE
  5
48
330
1F
100
AcDbEntity
  8
0
  6
SLD-Punktstrich
 62
     7
100
AcDbLine
 10
89.9987742495
 20
0.0003479427
 30
0.0
 11
-90.0012257505
 21
0.0003479427
 31
0.0
  0
POINT
  5
49
330
1F
100
AcDbEntity
  8
1
 62
     4
420
    65535
100
AcDbPoint
 10
89.9987742495
 20
0.0003479427
 30
0.0
  0
POINT
  5
4A
330
1F
100
AcDbEntity
  8
1
 62
     4
420
    65535
100
AcDbPoint
 10
-90.0012257505
 20
0.0003479427
 30
0.0
  0
POINT
  5
4B
330
1F
100
AcDbEntity
  8
1
 62
     4
420
    65535
100
AcDbPoint
 10
-90.0012257505
 20
0.0003479427
 30
0.0
  0
POINT
  5
4C
330
1F
100
AcDbEntity
  8
1
 62
     4
420
    65535
100
AcDbPoint
 10
-55.0012257505
 20
0.0003479427
 30
0.0
  0
ELLIPSE
  5
4D
330
1F
100
AcDbEntity
  8
1
 62
     4
420
    65535
100
AcDbEllipse
 10
-55.9012257505
 20
0.149629975
 30
0.0
 11
0.0
 21
3.358845726812026
 31
0.0
210
0.0
220
0.0
230
1.0
 40
0.2679491924
 41
4.712388980384692
 42
5.785084840391951
  0
LINE
  5
4E
330
1F
100
AcDbEntity
  8
1
 62
     4
420
    65535
100
AcDbLine
 10
-55.4712438408
 20
3.1003479427
 30
0.0
 11
55.4687923398
 21
3.1003479427
 31
0.0
  0
ELLIPSE
  5
4F
330
1F
100
AcDbEntity
  8
1
 62
     4
420
    65535
100
AcDbEllipse
 10
55.8987742495
 20
0.149629975
 30
0.0
 11
3.552713678800501E-14
 21
3.358845726811927
 31
0.0
210
0.0
220
0.0
230
1.0
 40
0.2679491924
 41
0.4981004667876047
 42
1.570796326794897
  0
LINE
  5
50
330
1F
100
AcDbEntity
  8
1
 62
     4
420
    65535
100
AcDbLine
 10
54.9987742495
 20
0.149629975
 30
0.0
 11
54.9987742495
 21
0.0003479427
 31
0.0
  0
LINE
  5
51
330
1F
100
AcDbEntity
  8
1
 62
     4
420
    65535
100
AcDbLine
 10
-55.0012257505
 20
0.0003479427
 30
0.0
 11
54.9987742495
 21
0.0003479427
 31
0.0
  0
LINE
  5
52
330
1F
100
AcDbEntity
  8
1
 62
     4
420
    65535
100
AcDbLine
 10
-55.0012257505
 20
0.0003479427
 30
0.0
 11
-55.0012257505
 21
0.149629975
 31
0.0
  0
ELLIPSE
  5
53
330
1F
100
AcDbEntity
  8
1
 62
     4
420
    65535
100
AcDbEllipse
 10
55.8987742495
 20
-0.1489340896
 30
0.0
 11
3.552713678800501E-14
 21
3.358845726812026
 31
0.0
210
0.0
220
0.0
230
1.0
 40
0.2679491924
 41
1.570796326794896
 42
2.643492186802118
  0
LINE
  5
54
330
1F
100
AcDbEntity
  8
1
 62
     4
420
    65535
100
AcDbLine
 10
-55.4712438408
 20
-3.0996520573
 30
0.0
 11
55.4687923398
 21
-3.0996520573
 31
0.0
  0
ELLIPSE
  5
55
330
1F
100
AcDbEntity
  8
1
 62
     4
420
    65535
100
AcDbEllipse
 10
-55.9012257505
 20
-0.1489340896
 30
0.0
 11
0.0
 21
3.358845726811927
 31
0.0
210
0.0
220
0.0
230
1.0
 40
0.2679491924
 41
3.63969312037745
 42
4.712388980384693
  0
LINE
  5
56
330
1F
100
AcDbEntity
  8
1
 62
     4
420
    65535
100
AcDbLine
 10
-55.0012257505
 20
-0.1489340896
 30
0.0
 11
-55.0012257505
 21
0.0003479427
 31
0.0
  0
LINE
  5
57
330
1F
100
AcDbEntity
  8
1
 62
     4
420
    65535
100
AcDbLine
 10
54.9987742495
 20
0.0003479427
 30
0.0
 11
54.9987742495
 21
-0.1489340896
 31
0.0
  0
LINE
  5
58
330
1F
100
AcDbEntity
  8
1
 62
     4
420
    65535
100
AcDbLine
 10
55.4687923398
 20
3.1003479427
 30
0.0
 11
55.8987742495
 21
3.1003479427
 31
0.0
  0
LINE
  5
59
330
1F
100
AcDbEntity
  8
1
 62
     4
420
    65535
100
AcDbLine
 10
55.8987742495
 20
3.1003479427
 30
0.0
 11
55.8987742495
 21
-3.0996520573
 31
0.0
  0
LINE
  5
5A
330
1F
100
AcDbEntity
  8
1
 62
     4
420
    65535
100
AcDbLine
 10
55.8987742495
 20
-3.0996520573
 30
0.0
 11
55.4687923398
 21
-3.0996520573
 31
0.0
  0
LINE
  5
5B
330
1F
100
AcDbEntity
  8
1
 62
     4
420
    65535
100
AcDbLine
 10
-55.4712438408
 20
-3.0996520573
 30
0.0
 11
-55.9012257505
 21
-3.0996520573
 31
0.0
  0
LINE
  5
5C
330
1F
100
AcDbEntity
  8
1
 62
     4
420
    65535
100
AcDbLine
 10
-55.9012257505
 20
-3.0996520573
 30
0.0
 11
-55.9012257505
 21
3.1003479427
 31
0.0
  0
LINE
  5
5D
330
1F
100
AcDbEntity
  8
1
 62
     4
420
    65535
100
AcDbLine
 10
-55.9012257505
 20
3.1003479427
 30
0.0
 11
-55.4712438408
 21
3.1003479427
 31
0.0
  0
LINE
  5
5E
330
1F
100
AcDbEntity
  8
1
 62
     4
420
    65535
100
AcDbLine
 10
66.8161245187
 20
3.1003479427
 30
0.0
 11
67.1481009235
 21
2.5253479427
 31
0.0
  0
ARC
  5
5F
330
1F
100
AcDbEntity
  8
1
 62
     4
420
    65535
100
AcDbCircle
 10
68.8801517311
 20
3.5253479427
 30
0.0
 40
2.000000000000007
100
AcDbArc
 50
210.0
 51
270.0
  0
LINE
  5
60
330
1F
100
AcDbEntity
  8
1
 62
     4
420
    65535
100
AcDbLine
 10
68.8801517311
 20
1.5253479427
 30
0.0
 11
72.2887742495
 21
1.5253479427
 31
0.0
  0
LINE
  5
61
330
1F
100
AcDbEntity
  8
1
 62
     4
420
    65535
100
AcDbLine
 10
72.2887742495
 20
-1.5246520573
 30
0.0
 11
72.2887742495
 21
1.5253479427
 31
0.0
  0
LINE
  5
62
330
1F
100
AcDbEntity
  8
1
 62
     4
420
    65535
100
AcDbLine
 10
72.2887742495
 20
-1.5246520573
 30
0.0
 11
68.8801517311
 21
-1.5246520573
 31
0.0
  0
ARC
  5
63
330
1F
100
AcDbEntity
  8
1
 62
     4
420
    65535
100
AcDbCircle
 10
68.8801517311
 20
-3.5246520573
 30
0.0
 40
2.000000000000009
100
AcDbArc
 50
90.0
 51
150.0
  0
LINE
  5
64
330
1F
100
AcDbEntity
  8
1
 62
     4
420
    65535
100
AcDbLine
 10
67.1481009235
 20
-2.5246520573
 30
0.0
 11
66.8161245187
 21
-3.0996520573
 31
0.0
  0
LINE
  5
65
330
1F
100
AcDbEntity
  8
1
 62
     4
420
    65535
100
AcDbLine
 10
66.8161245187
 20
3.1003479427
 30
0.0
 11
55.8987742495
 21
3.1003479427
 31
0.0
  0
LINE
  5
66
330
1F
100
AcDbEntity
  8
1
 62
     4
420
    65535
100
AcDbLine
 10
55.8987742495
 20
-3.0996520573
 30
0.0
 11
66.8161245187
 21
-3.0996520573
 31
0.0
  0
LINE
  5
67
330
1F
100
AcDbEntity
  8
1
 62
     4
420
    65535
100
AcDbLine
 10
72.2887742495
 20
1.5253479427
 30
0.0
 11
81.6587742495
 21
1.5253479427
 31
0.0
  0
LINE
  5
68
330
1F
100
AcDbEntity
  8
1
 62
     4
420
    65535
100
AcDbLine
 10
81.6587742495
 20
-1.5246520573
 30
0.0
 11
81.6587742495
 21
1.5253479427
 31
0.0
  0
LINE
  5
69
330
1F
100
AcDbEntity
  8
1
 62
     4
420
    65535
100
AcDbLine
 10
81.6587742495
 20
-1.5246520573
 30
0.0
 11
72.2887742495
 21
-1.5246520573
 31
0.0
  0
LINE
  5
6A
330
1F
100
AcDbEntity
  8
1
 62
     4
420
    65535
100
AcDbLine
 10
-66.8185760197
 20
-3.0996520573
 30
0.0
 11
-67.1505524245
 21
-2.5246520573
 31
0.0
  0
ARC
  5
6B
330
1F
100
AcDbEntity
  8
1
 62
     4
420
    65535
100
AcDbCircle
 10
-68.882603232
 20
-3.5246520573
 30
0.0
 40
2.000000000000004
100
AcDbArc
 50
30.0
 51
90.0
  0
LINE
  5
6C
330
1F
100
AcDbEntity
  8
1
 62
     4
420
    65535
100
AcDbLine
 10
-68.882603232
 20
-1.5246520573
 30
0.0
 11
-72.2912257505
 21
-1.5246520573
 31
0.0
  0
LINE
  5
6D
330
1F
100
AcDbEntity
  8
1
 62
     4
420
    65535
100
AcDbLine
 10
-72.2912257505
 20
1.5253479427
 30
0.0
 11
-72.2912257505
 21
-1.5246520573
 31
0.0
  0
LINE
  5
6E
330
1F
100
AcDbEntity
  8
1
 62
     4
420
    65535
100
AcDbLine
 10
-72.2912257505
 20
1.5253479427
 30
0.0
 11
-68.882603232
 21
1.5253479427
 31
0.0
  0
ARC
  5
6F
330
1F
100
AcDbEntity
  8
1
 62
     4
420
    65535
100
AcDbCircle
 10
-68.882603232
 20
3.5253479427
 30
0.0
 40
2.000000000000013
100
AcDbArc
 50
270.0
 51
330.0
  0
LINE
  5
70
330
1F
100
AcDbEntity
  8
1
 62
     4
420
    65535
100
AcDbLine
 10
-67.1505524245
 20
2.5253479427
 30
0.0
 11
-66.8185760197
 21
3.1003479427
 31
0.0
  0
LINE
  5
71
330
1F
100
AcDbEntity
  8
1
 62
     4
420
    65535
100
AcDbLine
 10
-55.9012257505
 20
3.1003479427
 30
0.0
 11
-66.8185760197
 21
3.1003479427
 31
0.0
  0
LINE
  5
72
330
1F
100
AcDbEntity
  8
1
 62
     4
420
    65535
100
AcDbLine
 10
-66.8185760197
 20
-3.0996520573
 30
0.0
 11
-55.9012257505
 21
-3.0996520573
 31
0.0
  0
LINE
  5
73
330
1F
100
AcDbEntity
  8
1
 62
     4
420
    65535
100
AcDbLine
 10
-72.2912257505
 20
-1.5246520573
 30
0.0
 11
-81.6612257505
 21
-1.5246520573
 31
0.0
  0
LINE
  5
74
330
1F
100
AcDbEntity
  8
1
 62
     4
420
    65535
100
AcDbLine
 10
-81.6612257505
 20
1.5253479427
 30
0.0
 11
-81.6612257505
 21
-1.5246520573
 31
0.0
  0
LINE
  5
75
330
1F
100
AcDbEntity
  8
1
 62
     4
420
    65535
100
AcDbLine
 10
-81.6612257505
 20
1.5253479427
 30
0.0
 11
-72.2912257505
 21
1.5253479427
 31
0.0
  0
ELLIPSE
  5
76
330
1F
100
AcDbEntity
  8
1
 62
     4
420
    65535
100
AcDbEllipse
 10
82.3468239987
 20
0.0003479427
 30
0.0
 11
0.0
 21
0.3999999999999999
 31
0.0
210
0.0
220
0.0
230
1.0
 40
0.9369256728
 41
4.380776422505783
 42
5.044001538263609
  0
LINE
  5
77
330
1F
100
AcDbEntity
  8
1
 62
     4
420
    65535
100
AcDbLine
 10
82.2512094804
 20
-1.5246520573
 30
0.0
 11
82.7011762498
 21
-0.1298793191
 31
0.0
  0
LINE
  5
78
330
1F
100
AcDbEntity
  8
1
 62
     4
420
    65535
100
AcDbLine
 10
82.7011762498
 20
0.1305752045
 30
0.0
 11
82.2512094804
 21
1.5253479427
 31
0.0
  0
LINE
  5
79
330
1F
100
AcDbEntity
  8
1
 62
     4
420
    65535
100
AcDbLine
 10
82.2512094804
 20
-1.5246520573
 30
0.0
 11
81.6587742495
 21
-1.5246520573
 31
0.0
  0
LINE
  5
7A
330
1F
100
AcDbEntity
  8
1
 62
     4
420
    65535
100
AcDbLine
 10
81.6587742495
 20
1.5253479427
 30
0.0
 11
82.2512094804
 21
1.5253479427
 31
0.0
  0
ELLIPSE
  5
7B
330
1F
100
AcDbEntity
  8
1
 62
     4
420
    65535
100
AcDbEllipse
 10
-82.3492754997
 20
0.0003479427
 30
0.0
 11
0.0
 21
0.3999999999999999
 31
0.0
210
0.0
220
0.0
230
1.0
 40
0.9369256728
 41
1.239183768915984
 42
1.90240888467381
  0
LINE
  5
7C
330
1F
100
AcDbEntity
  8
1
 62
     4
420
    65535
100
AcDbLine
 10
-82.2536609814
 20
1.5253479427
 30
0.0
 11
-82.7036277507
 21
0.1305752045
 31
0.0
  0
LINE
  5
7D
330
1F
100
AcDbEntity
  8
1
 62
     4
420
    65535
100
AcDbLine
 10
-82.7036277507
 20
-0.1298793191
 30
0.0
 11
-82.2536609814
 21
-1.5246520573
 31
0.0
  0
LINE
  5
7E
330
1F
100
AcDbEntity
  8
1
 62
     4
420
    65535
100
AcDbLine
 10
-81.6612257505
 20
-1.5246520573
 30
0.0
 11
-82.2536609814
 21
-1.5246520573
 31
0.0
  0
LINE
  5
7F
330
1F
100
AcDbEntity
  8
1
 62
     4
420
    65535
100
AcDbLine
 10
-82.2536609814
 20
1.5253479427
 30
0.0
 11
-81.6612257505
 21
1.5253479427
 31
0.0
  0
LINE
  5
80
330
1F
100
AcDbEntity
  8
1
 62
     4
420
    65535
100
AcDbLine
 10
89.2487742495
 20
-0.1298793191
 30
0.0
 11
89.2487742495
 21
0.1305752045
 31
0.0
  0
LINE
  5
81
330
1F
100
AcDbEntity
  8
1
 62
     4
420
    65535
100
AcDbLine
 10
-89.2512257505
 20
0.1305752045
 30
0.0
 11
-89.2512257505
 21
-0.1298793191
 31
0.0
  0
LINE
  5
82
330
1F
100
AcDbEntity
  8
1
 62
     4
420
    65535
100
AcDbLine
 10
82.2512094804
 20
1.5253479427
 30
0.0
 11
89.2487742495
 21
1.5253479427
 31
0.0
  0
LINE
  5
83
330
1F
100
AcDbEntity
  8
1
 62
     4
420
    65535
100
AcDbLine
 10
89.2487742495
 20
0.1305752045
 30
0.0
 11
89.2487742495
 21
1.5253479427
 31
0.0
  0
LINE
  5
84
330
1F
100
AcDbEntity
  8
1
 62
     4
420
    65535
100
AcDbLine
 10
89.2487742495
 20
-1.5246520573
 30
0.0
 11
82.2512094804
 21
-1.5246520573
 31
0.0
  0
LINE
  5
85
330
1F
100
AcDbEntity
  8
1
 62
     4
420
    65535
100
AcDbLine
 10
89.2487742495
 20
-1.5246520573
 30
0.0
 11
89.2487742495
 21
-0.1298793191
 31
0.0
  0
LINE
  5
86
330
1F
100
AcDbEntity
  8
1
 62
     4
420
    65535
100
AcDbLine
 10
-82.2536609814
 20
-1.5246520573
 30
0.0
 11
-89.2512257505
 21
-1.5246520573
 31
0.0
  0
LINE
  5
87
330
1F
100
AcDbEntity
  8
1
 62
     4
420
    65535
100
AcDbLine
 10
-89.2512257505
 20
-0.1298793191
 30
0.0
 11
-89.2512257505
 21
-1.5246520573
 31
0.0
  0
LINE
  5
88
330
1F
100
AcDbEntity
  8
1
 62
     4
420
    65535
100
AcDbLine
 10
-89.2512257505
 20
1.5253479427
 30
0.0
 11
-82.2536609814
 21
1.5253479427
 31
0.0
  0
LINE
  5
89
330
1F
100
AcDbEntity
  8
1
 62
     4
420
    65535
100
AcDbLine
 10
-89.2512257505
 20
1.5253479427
 30
0.0
 11
-89.2512257505
 21
0.1305752045
 31
0.0
  0
LINE
  5
8A
330
1F
100
AcDbEntity
  8
1
 62
     4
420
    65535
100
AcDbLine
 10
82.7011762498
 20
0.1305752045
 30
0.0
 11
89.2487742495
 21
0.1305752045
 31
0.0
  0
LINE
  5
8B
330
1F
100
AcDbEntity
  8
1
 62
     4
420
    65535
100
AcDbLine
 10
82.7011762498
 20
-0.1298793191
 30
0.0
 11
89.2487742495
 21
-0.1298793191
 31
0.0
  0
LINE
  5
8C
330
1F
100
AcDbEntity
  8
1
 62
     4
420
    65535
100
AcDbLine
 10
-82.7036277507
 20
-0.1298793191
 30
0.0
 11
-89.2512257505
 21
-0.1298793191
 31
0.0
  0
LINE
  5
8D
330
1F
100
AcDbEntity
  8
1
 62
     4
420
    65535
100
AcDbLine
 10
-82.7036277507
 20
0.1305752045
 30
0.0
 11
-89.2512257505
 21
0.1305752045
 31
0.0
  0
DIMENSION
  5
8E
330
1F
100
AcDbEntity
  8
2
 62
     7
420
 16777215
100
AcDbDimension
  2
_D
 10
-90.0012257505
 20
-13.0996520573
 30
0.0
 11
-0.0012257505
 21
-13.0996520573
 31
0.0
 70
   160
  1
<>
 71
     2
 42
-1.0
 73
     0
 74
     0
 75
     0
  3
SLDDIMSTYLE0
100
AcDbAlignedDimension
 13
89.9987742495
 23
0.0003479427
 33
0.0
 14
-90.0012257505
 24
0.0003479427
 34
0.0
 50
0.0
100
AcDbRotatedDimension
  0
DIMENSION
  5
9A
330
1F
100
AcDbEntity
  8
2
 62
     7
420
 16777215
100
AcDbDimension
  2
_D_1
 10
-105.2512257505
 20
3.1003479427
 30
0.0
 11
-105.2512257505
 21
15.2690981863
 31
0.0
 70
   160
  1
<>
 71
     2
 42
-1.0
 73
     0
 74
     0
 75
     0
  3
SLDDIMSTYLE1
100
AcDbAlignedDimension
 13
-66.8185760197
 23
-3.0996520573
 33
0.0
 14
-66.8185760197
 24
3.1003479427
 34
0.0
 50
90.0
100
AcDbRotatedDimension
  0
DIMENSION
  5
A7
330
1F
100
AcDbEntity
  8
2
 62
     7
420
 16777215
100
AcDbDimension
  2
_D_2
 10
-99.2512257505
 20
-1.5246520573
 30
0.0
 11
-99.2512257505
 21
13.6940981863
 31
0.0
 70
   160
  1
<>
 71
     2
 42
-1.0
 73
     0
 74
     0
 75
     0
  3
SLDDIMSTYLE1
100
AcDbAlignedDimension
 13
-82.2536609814
 23
1.5253479427
 33
0.0
 14
-81.6612257505
 24
-1.5246520573
 34
0.0
 50
90.0
100
AcDbRotatedDimension
  0
LINE
  5
B3
330
1F
100
AcDbEntity
  8
0
  6
SLD-Punktstrich
 62
     7
100
AcDbLine
 10
89.9987742495
 20
49.9887787853
 30
0.0
 11
-90.0012257505
 21
49.9887787853
 31
0.0
  0
LINE
  5
B4
330
1F
100
AcDbEntity
  8
0
  6
SLD-Punktstrich
 62
     7
100
AcDbLine
 10
-90.0012257505
 20
74.1587787853
 30
0.0
 11
-80.0255852479
 21
73.4612140479
 31
0.0
  0
POINT
  5
B5
330
1F
100
AcDbEntity
  8
1
 62
     4
420
    65535
100
AcDbPoint
 10
89.9987742495
 20
49.9887787853
 30
0.0
  0
POINT
  5
B6
330
1F
100
AcDbEntity
  8
1
 62
     4
420
    65535
100
AcDbPoint
 10
-90.0012257505
 20
49.9887787853
 30
0.0
  0
POINT
  5
B7
330
1F
100
AcDbEntity
  8
1
 62
     4
420
    65535
100
AcDbPoint
 10
-90.0012257505
 20
49.9887787853
 30
0.0
  0
POINT
  5
B8
330
1F
100
AcDbEntity
  8
1
 62
     4
420
    65535
100
AcDbPoint
 10
-55.0012257505
 20
49.9887787853
 30
0.0
  0
POINT
  5
B9
330
1F
100
AcDbEntity
  8
1
 62
     4
420
    65535
100
AcDbPoint
 10
-90.0012257505
 20
74.1587787853
 30
0.0
  0
POINT
  5
BA
330
1F
100
AcDbEntity
  8
1
 62
     4
420
    65535
100
AcDbPoint
 10
-90.0012257505
 20
74.1587787853
 30
0.0
  0
POINT
  5
BB
330
1F
100
AcDbEntity
  8
1
 62
     4
420
    65535
100
AcDbPoint
 10
-80.0255852479
 20
73.4612140479
 30
0.0
  0
LINE
  5
BC
330
1F
100
AcDbEntity
  8
1
 62
     4
420
    65535
100
AcDbLine
 10
89.2487742495
 20
70.3732400479
 30
0.0
 11
67.3822487639
 21
68.8441836324
 31
0.0
  0
LINE
  5
BD
330
1F
100
AcDbEntity
  8
1
 62
     4
420
    65535
100
AcDbLine
 10
65.9483612145
 20
72.7837572967
 30
0.0
 11
82.7215942678
 21
73.9566560101
 31
0.0
  0
LINE
  5
BE
330
1F
100
AcDbEntity
  8
1
 62
     4
420
    65535
100
AcDbLine
 10
-67.3847002649
 20
68.8441836324
 30
0.0
 11
-89.2512257505
 21
70.3732400479
 31
0.0
  0
LINE
  5
BF
330
1F
100
AcDbEntity
  8
1
 62
     4
420
    65535
100
AcDbLine
 10
-82.7240457688
 20
73.9566560101
 30
0.0
 11
-65.9508127154
 21
72.7837572967
 31
0.0
  0
LINE
  5
C0
330
1F
100
AcDbEntity
  8
1
 62
     4
420
    65535
100
AcDbLine
 10
-66.8185760197
 20
79.3887787853
 30
0.0
 11
-55.9012257505
 21
79.3887787853
 31
0.0
  0
ARC
  5
C1
330
1F
100
AcDbEntity
  8
1
 62
     4
420
    65535
100
AcDbCircle
 10
-55.9012257505
 20
80.2887787853
 30
0.0
 40
0.9000000000000199
100
AcDbArc
 50
270.0
 51
298.5390545204
  0
LINE
  5
C2
330
1F
100
AcDbEntity
  8
1
 62
     4
420
    65535
100
AcDbLine
 10
-55.4712438408
 20
79.4981362888
 30
0.0
 11
55.4687923398
 21
79.4981362888
 31
0.0
  0
ARC
  5
C3
330
1F
100
AcDbEntity
  8
1
 62
     4
420
    65535
100
AcDbCircle
 10
55.8987742495
 20
80.2887787853
 30
0.0
 40
0.9000000000000199
100
AcDbArc
 50
241.4609454796
 51
270.0
  0
LINE
  5
C4
330
1F
100
AcDbEntity
  8
1
 62
     4
420
    65535
100
AcDbLine
 10
66.8161245187
 20
73.8913547853
 30
0.0
 11
66.8161245187
 21
79.3887787853
 31
0.0
  0
LINE
  5
C5
330
1F
100
AcDbEntity
  8
1
 62
     4
420
    65535
100
AcDbLine
 10
65.5767718076
 20
73.8046908014
 30
0.0
 11
66.8161245187
 21
73.8913547853
 31
0.0
  0
LINE
  5
C6
330
1F
100
AcDbEntity
  8
1
 62
     4
420
    65535
100
AcDbLine
 10
66.8161245187
 20
70.3995972128
 30
0.0
 11
65.5767718076
 21
73.8046908014
 31
0.0
  0
LINE
  5
C7
330
1F
100
AcDbEntity
  8
1
 62
     4
420
    65535
100
AcDbLine
 10
66.8161245187
 20
50.8194212818
 30
0.0
 11
66.8161245187
 21
70.3995972128
 31
0.0
  0
LINE
  5
C8
330
1F
100
AcDbEntity
  8
1
 62
     4
420
    65535
100
AcDbLine
 10
-66.8185760197
 20
50.8194212818
 30
0.0
 11
66.8161245187
 21
50.8194212818
 31
0.0
  0
LINE
  5
C9
330
1F
100
AcDbEntity
  8
1
 62
     4
420
    65535
100
AcDbLine
 10
-66.8185760197
 20
70.3995972128
 30
0.0
 11
-66.8185760197
 21
50.8194212818
 31
0.0
  0
LINE
  5
CA
330
1F
100
AcDbEntity
  8
1
 62
     4
420
    65535
100
AcDbLine
 10
-65.5792233086
 20
73.8046908014
 30
0.0
 11
-66.8185760197
 21
70.3995972128
 31
0.0
  0
LINE
  5
CB
330
1F
100
AcDbEntity
  8
1
 62
     4
420
    65535
100
AcDbLine
 10
-66.8185760197
 20
73.8913547853
 30
0.0
 11
-65.5792233086
 21
73.8046908014
 31
0.0
  0
LINE
  5
CC
330
1F
100
AcDbEntity
  8
1
 62
     4
420
    65535
100
AcDbLine
 10
-66.8185760197
 20
79.3887787853
 30
0.0
 11
-66.8185760197
 21
73.8913547853
 31
0.0
  0
LINE
  5
CD
330
1F
100
AcDbEntity
  8
1
 62
     4
420
    65535
100
AcDbLine
 10
55.8987742495
 20
79.3887787853
 30
0.0
 11
66.8161245187
 21
79.3887787853
 31
0.0
  0
LINE
  5
CE
330
1F
100
AcDbEntity
  8
1
 62
     4
420
    65535
100
AcDbLine
 10
67.1481009235
 20
50.6653504962
 30
0.0
 11
66.8161245187
 21
50.8194212818
 31
0.0
  0
ELLIPSE
  5
CF
330
1F
100
AcDbEntity
  8
1
 62
     4
420
    65535
100
AcDbEllipse
 10
68.8801517311
 20
50.9332996886
 30
0.0
 11
2.0
 21
-7.105427357601002E-15
 31
0.0
210
0.0
220
0.0
230
1.0
 40
0.2679491924
 41
3.665191429188144
 42
4.712388980384708
  0
LINE
  5
D0
330
1F
100
AcDbEntity
  8
1
 62
     4
420
    65535
100
AcDbLine
 10
89.2487742495
 20
50.3974013038
 30
0.0
 11
68.8801517311
 21
50.3974013038
 31
0.0
  0
LINE
  5
D1
330
1F
100
AcDbEntity
  8
1
 62
     4
420
    65535
100
AcDbLine
 10
89.2487742495
 20
50.3974013038
 30
0.0
 11
89.2487742495
 21
49.9887787853
 31
0.0
  0
LINE
  5
D2
330
1F
100
AcDbEntity
  8
1
 62
     4
420
    65535
100
AcDbLine
 10
-89.2512257505
 20
49.9887787853
 30
0.0
 11
89.2487742495
 21
49.9887787853
 31
0.0
  0
LINE
  5
D3
330
1F
100
AcDbEntity
  8
1
 62
     4
420
    65535
100
AcDbLine
 10
-89.2512257505
 20
49.9887787853
 30
0.0
 11
-89.2512257505
 21
50.3974013038
 31
0.0
  0
LINE
  5
D4
330
1F
100
AcDbEntity
  8
1
 62
     4
420
    65535
100
AcDbLine
 10
-68.882603232
 20
50.3974013038
 30
0.0
 11
-89.2512257505
 21
50.3974013038
 31
0.0
  0
ELLIPSE
  5
D5
330
1F
100
AcDbEntity
  8
1
 62
     4
420
    65535
100
AcDbEllipse
 10
-68.882603232
 20
50.9332996886
 30
0.0
 11
2.0
 21
0.0
 31
0.0
210
0.0
220
0.0
230
1.0
 40
0.2679491924
 41
4.712388980384693
 42
5.759586531581322
  0
LINE
  5
D6
330
1F
100
AcDbEntity
  8
1
 62
     4
420
    65535
100
AcDbLine
 10
-66.8185760197
 20
50.8194212818
 30
0.0
 11
-67.1505524245
 21
50.6653504962
 31
0.0
  0
LINE
  5
D7
330
1F
100
AcDbEntity
  8
1
 62
     4
420
    65535
100
AcDbLine
 10
67.1481009235
 20
73.7160969919
 30
0.0
 11
67.1481009235
 21
79.3887787853
 31
0.0
  0
LINE
  5
D8
330
1F
100
AcDbEntity
  8
1
 62
     4
420
    65535
100
AcDbLine
 10
66.8161245187
 20
73.8913547853
 30
0.0
 11
67.1481009235
 21
73.7160969919
 31
0.0
  0
LINE
  5
D9
330
1F
100
AcDbEntity
  8
1
 62
     4
420
    65535
100
AcDbLine
 10
67.1481009235
 20
79.3887787853
 30
0.0
 11
66.8161245187
 21
79.3887787853
 31
0.0
  0
LINE
  5
DA
330
1F
100
AcDbEntity
  8
1
 62
     4
420
    65535
100
AcDbLine
 10
67.1481009235
 20
69.4874995369
 30
0.0
 11
66.8161245187
 21
70.3995972128
 31
0.0
  0
LINE
  5
DB
330
1F
100
AcDbEntity
  8
1
 62
     4
420
    65535
100
AcDbLine
 10
67.1481009235
 20
50.6653504962
 30
0.0
 11
67.1481009235
 21
69.4874995369
 31
0.0
  0
LINE
  5
DC
330
1F
100
AcDbEntity
  8
1
 62
     4
420
    65535
100
AcDbLine
 10
65.9406073449
 20
72.8050608783
 30
0.0
 11
82.7011762498
 21
73.9770740281
 31
0.0
  0
ELLIPSE
  5
DD
330
1F
100
AcDbEntity
  8
1
 62
     4
420
    65535
100
AcDbEllipse
 10
68.8801517311
 20
74.1823822092
 30
0.0
 11
1.999258957644287
 21
0.1585924784356223
 31
0.0
210
0.0
220
0.0
230
1.0
 40
0.3432643429
 41
3.637968495433369
 42
4.685166046629923
  0
LINE
  5
DE
330
1F
100
AcDbEntity
  8
1
 62
     4
420
    65535
100
AcDbLine
 10
68.8801517311
 20
73.4920453568
 30
0.0
 11
82.2512094804
 21
74.4270407975
 31
0.0
  0
LINE
  5
DF
330
1F
100
AcDbEntity
  8
1
 62
     4
420
    65535
100
AcDbLine
 10
82.2512094804
 20
74.4270407975
 30
0.0
 11
82.7011762498
 21
73.9770740281
 31
0.0
  0
LINE
  5
E0
330
1F
100
AcDbEntity
  8
1
 62
     4
420
    65535
100
AcDbLine
 10
-55.0012257505
 20
80.3287787853
 30
0.0
 11
54.9987742495
 21
80.3287787853
 31
0.0
  0
LINE
  5
E1
330
1F
100
AcDbEntity
  8
1
 62
     4
420
    65535
100
AcDbLine
 10
54.9987742495
 20
80.3287787853
 30
0.0
 11
54.9987742495
 21
80.2887787853
 31
0.0
  0
ARC
  5
E2
330
1F
100
AcDbEntity
  8
1
 62
     4
420
    65535
100
AcDbCircle
 10
-55.9012257505
 20
80.2887787853
 30
0.0
 40
0.9000000000000001
100
AcDbArc
 50
298.5390545204
 51
0.0
  0
LINE
  5
E3
330
1F
100
AcDbEntity
  8
1
 62
     4
420
    65535
100
AcDbLine
 10
-55.0012257505
 20
80.2887787853
 30
0.0
 11
-55.0012257505
 21
80.3287787853
 31
0.0
  0
ARC
  5
E4
330
1F
100
AcDbEntity
  8
1
 62
     4
420
    65535
100
AcDbCircle
 10
55.8987742495
 20
80.2887787853
 30
0.0
 40
0.9000000000000251
100
AcDbArc
 50
180.0
 51
241.4609454796
  0
ELLIPSE
  5
E5
330
1F
100
AcDbEntity
  8
1
 62
     4
420
    65535
100
AcDbEllipse
 10
-68.882603232
 20
74.1823822092
 30
0.0
 11
1.999258957644273
 21
-0.1585924784356365
 31
0.0
210
0.0
220
0.0
230
1.0
 40
0.3432643429
 41
4.739611914139481
 42
5.786809465336111
  0
LINE
  5
E6
330
1F
100
AcDbEntity
  8
1
 62
     4
420
    65535
100
AcDbLine
 10
-67.1505524245
 20
73.7160969919
 30
0.0
 11
-66.8185760197
 21
73.8913547853
 31
0.0
  0
LINE
  5
E7
330
1F
100
AcDbEntity
  8
1
 62
     4
420
    65535
100
AcDbLine
 10
-65.9430588458
 20
72.8050608783
 30
0.0
 11
-82.7036277507
 21
73.9770740281
 31
0.0
  0
LINE
  5
E8
330
1F
100
AcDbEntity
  8
1
 62
     4
420
    65535
100
AcDbLine
 10
-82.7036277507
 20
73.9770740281
 30
0.0
 11
-82.2536609814
 21
74.4270407975
 31
0.0
  0
LINE
  5
E9
330
1F
100
AcDbEntity
  8
1
 62
     4
420
    65535
100
AcDbLine
 10
-82.2536609814
 20
74.4270407975
 30
0.0
 11
-68.882603232
 21
73.4920453568
 31
0.0
  0
LINE
  5
EA
330
1F
100
AcDbEntity
  8
1
 62
     4
420
    65535
100
AcDbLine
 10
-66.8185760197
 20
79.3887787853
 30
0.0
 11
-67.1505524245
 21
79.3887787853
 31
0.0
  0
LINE
  5
EB
330
1F
100
AcDbEntity
  8
1
 62
     4
420
    65535
100
AcDbLine
 10
-67.1505524245
 20
79.3887787853
 30
0.0
 11
-67.1505524245
 21
73.7160969919
 31
0.0
  0
LINE
  5
EC
330
1F
100
AcDbEntity
  8
1
 62
     4
420
    65535
100
AcDbLine
 10
-67.1505524245
 20
69.4874995369
 30
0.0
 11
-67.1505524245
 21
50.6653504962
 31
0.0
  0
LINE
  5
ED
330
1F
100
AcDbEntity
  8
1
 62
     4
420
    65535
100
AcDbLine
 10
-66.8185760197
 20
70.3995972128
 30
0.0
 11
-67.1505524245
 21
69.4874995369
 31
0.0
  0
LINE
  5
EE
330
1F
100
AcDbEntity
  8
1
 62
     4
420
    65535
100
AcDbLine
 10
68.8801517311
 20
68.4456499155
 30
0.0
 11
68.8801517311
 21
50.3974013038
 31
0.0
  0
ELLIPSE
  5
EF
330
1F
100
AcDbEntity
  8
1
 62
     4
420
    65535
100
AcDbEllipse
 10
68.8801517311
 20
67.7553130631
 30
0.0
 11
1.999258957644287
 21
0.1585924784356507
 31
0.0
210
0.0
220
0.0
230
1.0
 40
0.3432643429
 41
1.54357339304009
 42
2.227782578175815
  0
LINE
  5
F0
330
1F
100
AcDbEntity
  8
1
 62
     4
420
    65535
100
AcDbLine
 10
67.1481009235
 20
69.4874995369
 30
0.0
 11
67.6160309477
 21
68.2018723613
 31
0.0
  0
LINE
  5
F1
330
1F
100
AcDbEntity
  8
1
 62
     4
420
    65535
100
AcDbLine
 10
68.8801517311
 20
79.3887787853
 30
0.0
 11
68.8801517311
 21
73.4920453568
 31
0.0
  0
LINE
  5
F2
330
1F
100
AcDbEntity
  8
1
 62
     4
420
    65535
100
AcDbLine
 10
67.1481009235
 20
79.3887787853
 30
0.0
 11
68.8801517311
 21
79.3887787853
 31
0.0
  0
LINE
  5
F3
330
1F
100
AcDbEntity
  8
1
 62
     4
420
    65535
100
AcDbLine
 10
-68.882603232
 20
73.4920453568
 30
0.0
 11
-68.882603232
 21
79.3887787853
 31
0.0
  0
LINE
  5
F4
330
1F
100
AcDbEntity
  8
1
 62
     4
420
    65535
100
AcDbLine
 10
-68.882603232
 20
79.3887787853
 30
0.0
 11
-67.1505524245
 21
79.3887787853
 31
0.0
  0
LINE
  5
F5
330
1F
100
AcDbEntity
  8
1
 62
     4
420
    65535
100
AcDbLine
 10
-68.882603232
 20
50.3974013038
 30
0.0
 11
-68.882603232
 21
68.4456499155
 31
0.0
  0
ELLIPSE
  5
F6
330
1F
100
AcDbEntity
  8
1
 62
     4
420
    65535
100
AcDbEllipse
 10
-68.882603232
 20
67.7553130631
 30
0.0
 11
1.999258957644273
 21
-0.1585924784356365
 31
0.0
210
0.0
220
0.0
230
1.0
 40
0.3432643429
 41
0.9138100754139554
 42
1.598019260549688
  0
LINE
  5
F7
330
1F
100
AcDbEntity
  8
1
 62
     4
420
    65535
100
AcDbLine
 10
-67.6184824487
 20
68.2018723613
 30
0.0
 11
-67.1505524245
 21
69.4874995369
 31
0.0
  0
LINE
  5
F8
330
1F
100
AcDbEntity
  8
1
 62
     4
420
    65535
100
AcDbLine
 10
89.2487742495
 20
69.8699627519
 30
0.0
 11
68.8801517311
 21
68.4456499155
 31
0.0
  0
LINE
  5
F9
330
1F
100
AcDbEntity
  8
1
 62
     4
420
    65535
100
AcDbLine
 10
67.3900026335
 20
68.8228800508
 30
0.0
 11
89.2487742495
 21
70.3513942629
 31
0.0
  0
LINE
  5
FA
330
1F
100
AcDbEntity
  8
1
 62
     4
420
    65535
100
AcDbLine
 10
89.2487742495
 20
69.8699627519
 30
0.0
 11
89.2487742495
 21
70.3513942629
 31
0.0
  0
LINE
  5
FB
330
1F
100
AcDbEntity
  8
1
 62
     4
420
    65535
100
AcDbLine
 10
-68.882603232
 20
68.4456499155
 30
0.0
 11
-89.2512257505
 21
69.8699627519
 31
0.0
  0
LINE
  5
FC
330
1F
100
AcDbEntity
  8
1
 62
     4
420
    65535
100
AcDbLine
 10
-89.2512257505
 20
70.3513942629
 30
0.0
 11
-89.2512257505
 21
69.8699627519
 31
0.0
  0
LINE
  5
FD
330
1F
100
AcDbEntity
  8
1
 62
     4
420
    65535
100
AcDbLine
 10
-67.3924541345
 20
68.8228800508
 30
0.0
 11
-89.2512257505
 21
70.3513942629
 31
0.0
  0
LINE
  5
FE
330
1F
100
AcDbEntity
  8
1
 62
     4
420
    65535
100
AcDbLine
 10
89.2487742495
 20
50.3974013038
 30
0.0
 11
89.2487742495
 21
69.8699627519
 31
0.0
  0
LINE
  5
FF
330
1F
100
AcDbEntity
  8
1
 62
     4
420
    65535
100
AcDbLine
 10
81.6587742495
 20
75.0194760284
 30
0.0
 11
72.2887742495
 21
79.3887787853
 31
0.0
  0
LINE
  5
100
330
1F
100
AcDbEntity
  8
1
 62
     4
420
    65535
100
AcDbLine
 10
82.2512094804
 20
74.4270407975
 30
0.0
 11
81.6587742495
 21
75.0194760284
 31
0.0
  0
LINE
  5
101
330
1F
100
AcDbEntity
  8
1
 62
     4
420
    65535
100
AcDbLine
 10
72.2887742495
 20
79.3887787853
 30
0.0
 11
68.8801517311
 21
79.3887787853
 31
0.0
  0
LINE
  5
102
330
1F
100
AcDbEntity
  8
1
 62
     4
420
    65535
100
AcDbLine
 10
-89.2512257505
 20
69.8699627519
 30
0.0
 11
-89.2512257505
 21
50.3974013038
 31
0.0
  0
LINE
  5
103
330
1F
100
AcDbEntity
  8
1
 62
     4
420
    65535
100
AcDbLine
 10
-72.2912257505
 20
79.3887787853
 30
0.0
 11
-81.6612257505
 21
75.0194760284
 31
0.0
  0
LINE
  5
104
330
1F
100
AcDbEntity
  8
1
 62
     4
420
    65535
100
AcDbLine
 10
-81.6612257505
 20
75.0194760284
 30
0.0
 11
-82.2536609814
 21
74.4270407975
 31
0.0
  0
LINE
  5
105
330
1F
100
AcDbEntity
  8
1
 62
     4
420
    65535
100
AcDbLine
 10
-68.882603232
 20
79.3887787853
 30
0.0
 11
-72.2912257505
 21
79.3887787853
 31
0.0
  0
LINE
  5
106
330
1F
100
AcDbEntity
  8
1
 62
     4
420
    65535
100
AcDbLine
 10
89.2487742495
 20
70.3513942629
 30
0.0
 11
89.2487742495
 21
70.3732400479
 31
0.0
  0
LINE
  5
107
330
1F
100
AcDbEntity
  8
1
 62
     4
420
    65535
100
AcDbLine
 10
82.7011762498
 20
73.9770740281
 30
0.0
 11
82.7215942678
 21
73.9566560101
 31
0.0
  0
LINE
  5
108
330
1F
100
AcDbEntity
  8
1
 62
     4
420
    65535
100
AcDbLine
 10
-89.2512257505
 20
70.3732400479
 30
0.0
 11
-89.2512257505
 21
70.3513942629
 31
0.0
  0
LINE
  5
109
330
1F
100
AcDbEntity
  8
1
 62
     4
420
    65535
100
AcDbLine
 10
-82.7240457688
 20
73.9566560101
 30
0.0
 11
-82.7036277507
 21
73.9770740281
 31
0.0
  0
DIMENSION
  5
10A
330
1F
100
AcDbEntity
  8
2
 62
     7
420
 16777215
100
AcDbDimension
  2
_D_3
 10
-99.2512257505
 20
49.9887787853
 30
0.0
 11
-99.2512257505
 21
62.0737787853
 31
0.0
 70
   160
  1
<>
 71
     2
 42
-1.0
 73
     0
 74
     0
 75
     0
  3
SLDDIMSTYLE1
100
AcDbAlignedDimension
 13
-90.0012257505
 23
74.1587787853
 33
0.0
 14
-90.0012257505
 24
49.9887787853
 34
0.0
 50
90.0
100
AcDbRotatedDimension
  0
DIMENSION
  5
116
330
1F
100
AcDbEntity
  8
2
 62
     7
420
 16777215
100
AcDbDimension
  2
_D_4
 10
99.2487742495
 20
80.3287787853
 30
0.0
 11
99.2487742495
 21
65.1587787853
 31
0.0
 70
   160
  1
<>
 71
     2
 42
-1.0
 73
     0
 74
     0
 75
     0
  3
SLDDIMSTYLE0
100
AcDbAlignedDimension
 13
89.9987742495
 23
49.9887787853
 33
0.0
 14
54.9987742495
 24
80.3287787853
 34
0.0
 50
90.0
100
AcDbRotatedDimension
  0
ENDSEC
  0
SECTION
  2
OBJECTS
  0
DICTIONARY
  5
C
330
0
100
AcDbDictionary
281
     1
  3
ACAD_GROUP
350
D
  3
ACAD_LAYOUT
350
1A
  3
ACAD_MATERIAL
350
3B
  3
ACAD_MLEADERSTYLE
350
121
  3
ACAD_MLINESTYLE
350
17
  3
ACAD_PLOTSETTINGS
350
19
  3
ACAD_PLOTSTYLENAME
350
E
  3
ACAD_TABLESTYLE
350
120
  3
ACAD_VISUALSTYLE
350
2A
  0
DICTIONARY
  5
D
102
{ACAD_REACTORS
330
C
102
}
330
C
100
AcDbDictionary
281
     1
  0
DICTIONARY
  5
1A
102
{ACAD_REACTORS
330
C
102
}
330
C
100
AcDbDictionary
281
     1
  3
Layout1
350
1E
  3
Layout2
350
26
  3
Model
350
22
  0
DICTIONARY
  5
3B
102
{ACAD_REACTORS
330
C
102
}
330
C
100
AcDbDictionary
281
     1
  3
ByBlock
350
3D
  3
ByLayer
350
3C
  3
Global
350
3E
  0
DICTIONARY
  5
121
102
{ACAD_REACTORS
330
C
102
}
330
C
100
AcDbDictionary
281
     1
  0
DICTIONARY
  5
17
102
{ACAD_REACTORS
330
C
102
}
330
C
100
AcDbDictionary
281
     1
  3
Standard
350
18
  0
DICTIONARY
  5
19
102
{ACAD_REACTORS
330
C
102
}
330
C
100
AcDbDictionary
281
     1
  0
ACDBDICTIONARYWDFLT
  5
E
102
{ACAD_REACTORS
330
C
102
}
330
C
100
AcDbDictionary
281
     1
  3
Normal
350
F
100
AcDbDictionaryWithDefault
340
F
  0
DICTIONARY
  5
120
102
{ACAD_REACTORS
330
C
102
}
330
C
100
AcDbDictionary
281
     1
  0
DICTIONARY
  5
2A
102
{ACAD_REACTORS
330
C
102
}
330
C
100
AcDbDictionary
281
     1
  3
2dWireframe
350
2F
  3
3D Hidden
350
31
  3
3dWireframe
350
30
  3
Basic
350
32
  3
Brighten
350
36
  3
ColorChange
350
3A
  3
Conceptual
350
34
  3
Dim
350
35
  3
Facepattern
350
39
  3
Flat
350
2B
  3
FlatWithEdges
350
2C
  3
Gouraud
350
2D
  3
GouraudWithEdges
350
2E
  3
Linepattern
350
38
  3
Realistic
350
33
  3
Thicken
350
37
  0
LAYOUT
  5
1E
102
{ACAD_REACTORS
330
1A
102
}
330
1A
100
AcDbPlotSettings
  1

  2
none_device
  4

  6

 40
0.0
 41
0.0
 42
0.0
 43
0.0
 44
0.0
 45
0.0
 46
0.0
 47
0.0
 48
0.0
 49
0.0
140
0.0
141
0.0
142
1.0
143
1.0
 70
   688
 72
     0
 73
     0
 74
     5
  7

 75
    16
 76
     0
 77
     2
 78
   300
147
1.0
148
0.0
149
0.0
100
AcDbLayout
  1
Layout1
 70
     1
 71
     1
 10
0.0
 20
0.0
 11
420.0
 21
297.0
 12
0.0
 22
0.0
 32
0.0
 14
1.0000000000E+20
 24
1.0000000000E+20
 34
1.0000000000E+20
 15
-1.0000000000E+20
 25
-1.0000000000E+20
 35
-1.0000000000E+20
146
0.0
 13
0.0
 23
0.0
 33
0.0
 16
1.0
 26
0.0
 36
0.0
 17
0.0
 27
1.0
 37
0.0
 76
     0
330
1B
  0
LAYOUT
  5
26
102
{ACAD_REACTORS
330
1A
102
}
330
1A
100
AcDbPlotSettings
  1

  2
none_device
  4

  6

 40
0.0
 41
0.0
 42
0.0
 43
0.0
 44
0.0
 45
0.0
 46
0.0
 47
0.0
 48
0.0
 49
0.0
140
0.0
141
0.0
142
1.0
143
1.0
 70
   688
 72
     0
 73
     0
 74
     5
  7

 75
    16
 76
     0
 77
     2
 78
   300
147
1.0
148
0.0
149
0.0
100
AcDbLayout
  1
Layout2
 70
     1
 71
     2
 10
0.0
 20
0.0
 11
0.0
 21
0.0
 12
0.0
 22
0.0
 32
0.0
 14
0.0
 24
0.0
 34
0.0
 15
0.0
 25
0.0
 35
0.0
146
0.0
 13
0.0
 23
0.0
 33
0.0
 16
1.0
 26
0.0
 36
0.0
 17
0.0
 27
1.0
 37
0.0
 76
     0
330
23
  0
LAYOUT
  5
22
102
{ACAD_REACTORS
330
1A
102
}
330
1A
100
AcDbPlotSettings
  1

  2
none_device
  4

  6

 40
0.0
 41
0.0
 42
0.0
 43
0.0
 44
0.0
 45
0.0
 46
0.0
 47
0.0
 48
0.0
 49
0.0
140
0.0
141
0.0
142
1.0
143
1.0
 70
  1712
 72
     0
 73
     0
 74
     0
  7

 75
     0
 76
     0
 77
     2
 78
   300
147
1.0
148
0.0
149
0.0
100
AcDbLayout
  1
Model
 70
     1
 71
     0
 10
0.0
 20
0.0
 11
297.0
 21
210.0
 12
0.0
 22
0.0
 32
0.0
 14
0.0
 24
0.0
 34
0.0
 15
297.0
 25
210.0
 35
0.0
146
0.0
 13
0.0
 23
0.0
 33
0.0
 16
1.0
 26
0.0
 36
0.0
 17
0.0
 27
1.0
 37
0.0
 76
     0
330
1F
331
29
  0
MATERIAL
  5
3D
102
{ACAD_REACTORS
330
3B
102
}
330
3B
100
AcDbMaterial
  1
ByBlock
 72
     1
 94
      127
  0
MATERIAL
  5
3C
102
{ACAD_REACTORS
330
3B
102
}
330
3B
100
AcDbMaterial
  1
ByLayer
 72
     1
 94
      127
  0
MATERIAL
  5
3E
102
{ACAD_REACTORS
330
3B
102
}
330
3B
100
AcDbMaterial
  1
Global
 72
     1
 94
      127
  0
MLINESTYLE
  5
18
102
{ACAD_REACTORS
330
17
102
}
330
17
100
AcDbMlineStyle
  2
Standard
 70
     0
  3

 62
   256
 51
90.0
 52
90.0
 71
     2
 49
0.5
 62
   256
  6
BYLAYER
 49
-0.5
 62
   256
  6
BYLAYER
  0
ACDBPLACEHOLDER
  5
F
102
{ACAD_REACTORS
330
E
102
}
330
E
  0
VISUALSTYLE
  5
2F
102
{ACAD_REACTORS
330
2A
102
}
330
2A
100
AcDbVisualStyle
  2
2dWireframe
 70
     4
 71
     0
 72
     2
 73
     0
 90
        0
 40
-0.6
 41
-30.0
 62
     5
 63
     7
421
 16777215
 74
     1
 91
        4
 64
     7
 65
   257
 75
     1
175
     1
 42
1.0
 92
        0
 66
   257
 43
1.0
 76
     1
 77
     6
 78
     2
 67
     7
 79
     5
170
     0
171
     0
290
     0
174
     0
 93
        1
 44
0.0
173
     0
291
     0
 45
0.0
  0
VISUALSTYLE
  5
31
102
{ACAD_REACTORS
330
2A
102
}
330
2A
100
AcDbVisualStyle
  2
3D Hidden
 70
     6
 71
     1
 72
     2
 73
     2
 90
        0
 40
-0.6
 41
-30.0
 62
     5
 63
     7
421
 16777215
 74
     2
 91
        2
 64
     7
 65
   257
 75
     2
175
     1
 42
40.0
 92
        0
 66
   257
 43
1.0
 76
     1
 77
     6
 78
     2
 67
     7
 79
     3
170
     0
171
     0
290
     0
174
     0
 93
        1
 44
0.0
173
     0
291
     0
 45
0.0
  0
VISUALSTYLE
  5
30
102
{ACAD_REACTORS
330
2A
102
}
330
2A
100
AcDbVisualStyle
  2
3dWireframe
 70
     5
 71
     0
 72
     2
 73
     0
 90
        0
 40
-0.6
 41
-30.0
 62
     5
 63
     7
421
 16777215
 74
     1
 91
        4
 64
     7
 65
   257
 75
     1
175
     1
 42
1.0
 92
        0
 66
   257
 43
1.0
 76
     1
 77
     6
 78
     2
 67
     7
 79
     5
170
     0
171
     0
290
     0
174
     0
 93
        1
 44
0.0
173
     0
291
     0
 45
0.0
  0
VISUALSTYLE
  5
32
102
{ACAD_REACTORS
330
2A
102
}
330
2A
100
AcDbVisualStyle
  2
Basic
 70
     7
 71
     1
 72
     0
 73
     1
 90
        0
 40
-0.6
 41
-30.0
 62
     5
 63
     7
421
 16777215
 74
     0
 91
        4
 64
     7
 65
   257
 75
     1
175
     1
 42
1.0
 92
        8
 66
     7
 43
1.0
 76
     1
 77
     6
 78
     2
 67
     7
 79
     5
170
     0
171
     0
290
     0
174
     0
 93
        1
 44
0.0
173
     0
291
     1
 45
0.0
  0
VISUALSTYLE
  5
36
102
{ACAD_REACTORS
330
2A
102
}
330
2A
100
AcDbVisualStyle
  2
Brighten
 70
    12
 71
     2
 72
     2
 73
     0
 90
        0
 40
-0.6
 41
-30.0
 62
     5
 63
     7
421
 16777215
 74
     1
 91
        4
 64
     7
 65
   257
 75
     1
175
     1
 42
1.0
 92
        8
 66
     7
 43
1.0
 76
     1
 77
     6
 78
     2
 67
     7
 79
     5
170
     0
171
     0
290
     0
174
     0
 93
        1
 44
50.0
173
     0
291
     1
 45
0.0
  0
VISUALSTYLE
  5
3A
102
{ACAD_REACTORS
330
2A
102
}
330
2A
100
AcDbVisualStyle
  2
ColorChange
 70
    16
 71
     2
 72
     2
 73
     3
 90
        0
 40
-0.6
 41
-30.0
 62
     5
 63
     8
421
  8421504
 74
     1
 91
        4
 64
     7
 65
   257
 75
     1
175
     1
 42
1.0
 92
        8
 66
     8
424
  8421504
 43
1.0
 76
     1
 77
     6
 78
     2
 67
     7
 79
     5
170
     0
171
     0
290
     0
174
     0
 93
        1
 44
0.0
173
     0
291
     1
 45
0.0
  0
VISUALSTYLE
  5
34
102
{ACAD_REACTORS
330
2A
102
}
330
2A
100
AcDbVisualStyle
  2
Conceptual
 70
     9
 71
     3
 72
     2
 73
     0
 90
        0
 40
-0.6
 41
-30.0
 62
     5
 63
     7
421
 16777215
 74
     2
 91
        2
 64
     7
 65
   257
 75
     1
175
     1
 42
40.0
 92
        8
 66
     7
 43
1.0
 76
     1
 77
     6
 78
     2
 67
     7
 79
     3
170
     0
171
     0
290
     0
174
     0
 93
        1
 44
0.0
173
     0
291
     0
 45
0.0
  0
VISUALSTYLE
  5
35
102
{ACAD_REACTORS
330
2A
102
}
330
2A
100
AcDbVisualStyle
  2
Dim
 70
    11
 71
     2
 72
     2
 73
     0
 90
        0
 40
-0.6
 41
-30.0
 62
     5
 63
     7
421
 16777215
 74
     1
 91
        4
 64
     7
 65
   257
 75
     1
175
     1
 42
1.0
 92
        8
 66
     7
 43
1.0
 76
     1
 77
     6
 78
     2
 67
     7
 79
     5
170
     0
171
     0
290
     0
174
     0
 93
        1
 44
-50.0
173
     0
291
     1
 45
0.0
  0
VISUALSTYLE
  5
39
102
{ACAD_REACTORS
330
2A
102
}
330
2A
100
AcDbVisualStyle
  2
Facepattern
 70
    15
 71
     2
 72
     2
 73
     0
 90
        0
 40
-0.6
 41
-30.0
 62
     5
 63
     7
421
 16777215
 74
     1
 91
        4
 64
     7
 65
   257
 75
     1
175
     1
 42
1.0
 92
        8
 66
     7
 43
1.0
 76
     1
 77
     6
 78
     2
 67
     7
 79
     5
170
     0
171
     0
290
     0
174
     0
 93
        1
 44
0.0
173
     0
291
     1
 45
0.0
  0
VISUALSTYLE
  5
2B
102
{ACAD_REACTORS
330
2A
102
}
330
2A
100
AcDbVisualStyle
  2
Flat
 70
     0
 71
     2
 72
     1
 73
     1
 90
        2
 40
-0.6
 41
30.0
 62
     5
 63
     7
421
 16777215
 74
     0
 91
        4
 64
     7
 65
   257
 75
     1
175
     1
 42
1.0
 92
        8
 66
     7
 43
1.0
 76
     1
 77
     6
 78
     2
 67
     7
 79
     5
170
     0
171
     0
290
     0
174
     0
 93
       13
 44
0.0
173
     0
291
     1
 45
0.0
  0
VISUALSTYLE
  5
2C
102
{ACAD_REACTORS
330
2A
102
}
330
2A
100
AcDbVisualStyle
  2
FlatWithEdges
 70
     1
 71
     2
 72
     1
 73
     1
 90
        2
 40
-0.6
 41
30.0
 62
     5
 63
     7
421
 16777215
 74
     1
 91
        4
 64
     7
 65
   257
 75
     1
175
     1
 42
1.0
 92
        0
 66
   257
 43
1.0
 76
     1
 77
     6
 78
     2
 67
     7
 79
     5
170
     0
171
     0
290
     0
174
     0
 93
       13
 44
0.0
173
     0
291
     1
 45
0.0
  0
VISUALSTYLE
  5
2D
102
{ACAD_REACTORS
330
2A
102
}
330
2A
100
AcDbVisualStyle
  2
Gouraud
 70
     2
 71
     2
 72
     2
 73
     1
 90
        2
 40
-0.6
 41
30.0
 62
     5
 63
     7
421
 16777215
 74
     0
 91
        4
 64
     7
 65
   257
 75
     1
175
     1
 42
1.0
 92
        0
 66
     7
 43
1.0
 76
     1
 77
     6
 78
     2
 67
     7
 79
     5
170
     0
171
     0
290
     0
174
     0
 93
       13
 44
0.0
173
     0
291
     1
 45
0.0
  0
VISUALSTYLE
  5
2E
102
{ACAD_REACTORS
330
2A
102
}
330
2A
100
AcDbVisualStyle
  2
GouraudWithEdges
 70
     3
 71
     2
 72
     2
 73
     1
 90
        2
 40
-0.6
 41
30.0
 62
     5
 63
     7
421
 16777215
 74
     1
 91
        4
 64
     7
 65
   257
 75
     1
175
     1
 42
1.0
 92
        0
 66
   257
 43
1.0
 76
     1
 77
     6
 78
     2
 67
     7
 79
     5
170
     0
171
     0
290
     0
174
     0
 93
       13
 44
0.0
173
     0
291
     1
 45
0.0
  0
VISUALSTYLE
  5
38
102
{ACAD_REACTORS
330
2A
102
}
330
2A
100
AcDbVisualStyle
  2
Linepattern
 70
    14
 71
     2
 72
     2
 73
     0
 90
        0
 40
-0.6
 41
-30.0
 62
     5
 63
     7
421
 16777215
 74
     1
 91
        4
 64
     7
 65
   257
 75
     7
175
     7
 42
1.0
 92
        8
 66
     7
 43
1.0
 76
     1
 77
     6
 78
     2
 67
     7
 79
     5
170
     0
171
     0
290
     0
174
     0
 93
        1
 44
0.0
173
     0
291
     1
 45
0.0
  0
VISUALSTYLE
  5
33
102
{ACAD_REACTORS
330
2A
102
}
330
2A
100
AcDbVisualStyle
  2
Realistic
 70
     8
 71
     2
 72
     2
 73
     0
 90
        0
 40
-0.6
 41
-30.0
 62
     5
 63
     7
421
 16777215
 74
     1
 91
        0
 64
     7
 65
   257
 75
     1
175
     1
 42
1.0
 92
        8
 66
     8
424
  7895160
 43
1.0
 76
     1
 77
     6
 78
     2
 67
     7
 79
     5
170
     0
171
     0
290
     0
174
     0
 93
       13
 44
0.0
173
     0
291
     0
 45
0.0
  0
VISUALSTYLE
  5
37
102
{ACAD_REACTORS
330
2A
102
}
330
2A
100
AcDbVisualStyle
  2
Thicken
 70
    13
 71
     2
 72
     2
 73
     0
 90
        0
 40
-0.6
 41
-30.0
 62
     5
 63
     7
421
 16777215
 74
     1
 91
        4
 64
     7
 65
   257
 75
     1
175
     1
 42
1.0
 92
       12
 66
     7
 43
1.0
 76
     1
 77
     6
 78
     2
 67
     7
 79
     5
170
     0
171
     0
290
     0
174
     0
 93
        1
 44
0.0
173
     0
291
     1
 45
0.0
  0
ENDSEC
  0
EOF
